#TITLE:№;
#ARTIST:yz56&;
#BANNER:№-bn.png;
#BACKGROUND:№-bg.png;
#GENRE:qwerty dance;
#CREDIT:a4bb 0101;
#SAMPLESTART:1.22;
#SAMPLELENGTH:15;
#OFFSET:-20.000;
#MUSIC:№.ogg;
#SAMPLESTART:00.040;
#SAMPLELENGTH:17.280;
#BPMS:0.000=115.000,32.000=100000.000,40.000=115.000,104.000=100000.000,112.000=115;
#STOPS:;

//---------------dance-single - a4bb 0101----------------
#NOTES:
     dance-single:
     a4bb 0101:
     challenge:
     10:
     0,0,0,0:
1000
0100
1000
0100
0010
0100
0010
0001
0010
0001
0010
1000
0001
1000
0001
0100
,  // measure 2
0001
0010
0100
1000
0100
0010
0001
0100
0010
1000
0100
0010
0100
0010
M11M
MMMM
,  // measure 3
1000
0100
1000
0001
1000
0100
1000
0100
0010
0100
1000
0100
0001
0010
0001
0100
,  // measure 4
0001
0010
0001
0100
1000
0100
0001
0010
0100
0001
1000
0100
0010
0100
M11M
MMMM
,
1000
0100
1000
0100
0010
0100
0010
0001
0010
0001
0010
1000
0001
1000
0001
0100
,  // measure 5
0001
0010
0100
1000
0100
0010
0001
0100
0010
1000
0100
0010
0100
0010
M11M
MMMM
,  // measure 6
1000
0100
1000
0001
1000
0100
1000
0100
0010
0100
1000
0100
0001
0010
0001
0100
,  // measure 7
0001
0010
0001
0100
1000
0100
0001
0010
0100
0001
1000
0100
0010
0100
M11M
MMMM
, // measure 8
0000
0000
0000
0000
, // measure 9
0000
0000
0000
0000
, // measure 10
0001
0010
0100
0010
0001
0010
0100
1000
0100
0010
0100
0010
0001
0010
1000
0100
, // measure 11
1000
0100
0001
0010
0100
0010
1000
0100
1000
0001
0010
1000
0100
0010
2M2M
3M3M
, // measure 12
0001
0010
0100
1000
0001
0010
0100
1000
0001
0010
0001
0010
0100
1000
0100
1000
,// measure 13
0001
0100
0010
1000
0001
0100
0010
1000
0100
0010
0100
1000
0001
0100
2MM2
3MM3
,  // measure 14
0001
0010
0100
0010
0001
0010
0100
1000
0100
0010
0100
0010
0001
0010
1000
0100
, // measure 15
1000
0100
0001
0010
0100
0010
1000
0100
1000
0001
0010
1000
0100
0010
2M2M
3M3M
, // measure 16
0001
0010
0100
1000
0001
0010
0100
1000
0001
0010
0001
0010
0100
1000
0100
1000
,// measure 17
0000
0100
0010
1000
0001
0100
0010
1000
0100
0010
0100
1000
0001
0100
2MM2
3MM3
, // measure 18
0002
0200
0023
2300
0230
3020
0302
0230
, // measure 19
0023
0302
0230
2003
0320
3002
0030
0003
, // measure 20 
0002
0200
0023
2300
0230
3020
0302
0230
, // measure 21
0023
0302
0230
2003
0302
3020
0000
0033
, // measure 22
2000
0200
3020
0302
, // measure 23
0230
20M3
0320
3000
, // measure 24
0000
0000
0000
0000
, // measure 25
0000
0000
0000
MM3M
, // measure 26
MMMM
0000
0000
0000
, // measure 27
0000
0000
0000
0000
, // measure 28
0001
0100
0010
0000
1000
0100
0010
0000
, // measure 29
0001
0100
0010
0000
1000
0001
0100
0000
, // measure 30
1000
0100
1000
0000
0001
0010
0001
0000
, // measure 31
0100
0010
1000
0000
0001
0100
0010
0000
, // measure 32
0001
0100
0010
0000
1000
0100
0010
0000
, // measure 33
0001
0100
0010
0000
1000
0001
0100
0000
, // measure 34
1000
0100
1000
0000
0001
0010
0001
0000
, // measure 35
0100
0010
1000
0000
0001
0100
0010
0000
,
// measure 36
0001
0100
0010
0000
1000
0100
0010
0000
, // measure 37
0001
0100
0010
0000
1000
0001
0100
0000
, // measure 38
1000
0100
1000
0000
0001
0010
0001
0000
, // measure 39
0100
0010
1000
0000
0001
0100
0010
0000
, // measure 40
0001
0100
0010
0000
1000
0100
0010
0000
, // measure 41
0001
0100
0010
0000
1000
0001
0100
0000
, // measure 42
1000
0100
1000
0000
0001
0010
0001
0000
, // measure 43
0100
0010
1000
0000
0001
0100
0012
00M0
, // measure 44
10M3
M0M0
M0M0
M0M0
M0M0
M0M0
M0M0
M0M0
,