#VERSION:0.83;
#TITLE:神罰;
#SUBTITLE:;
#ARTIST:cosMo@暴走P;
#TITLETRANSLIT:;
#SUBTITLETRANSLIT:;
#ARTISTTRANSLIT:;
#GENRE:;
#CREDIT:;
#MUSIC:shinbatsu.ogg;
#BANNER:shinbatsu-bn.png;
#BACKGROUND:Shinbatsu-bg.png;
#CDTITLE:;
#SAMPLESTART:78.847;
#SAMPLELENGTH:11.269;
#SELECTABLE:YES;
#OFFSET:-6.017;
#BPMS:0.000=201.000
,12.000=100.500
,14.000=402.000
,198.000=100.500
,199.000=201.000
,201.000=402.000
,205.000=804.000
,213.000=402.000
,341.000=201.000
,397.000=100.500
,401.000=402.000
,521.000=201.000
,525.000=402.000
;
#STOPS:464.500=0.298;
#SPEEDS:0.000=1.000=0.000=0;
#SCROLLS:0.000=1.000;
#TICKCOUNTS:0.000=4;
#TIMESIGNATURES:0.000=4=4;
#LABELS:0.000=Song Start;
#COMBOS:0.000=1;
#ORIGIN:;
#PREVIEWVID:;
#JACKET:shinbatsu-jacket.png;
#CDIMAGE:;
#DISCIMAGE:;
#BGCHANGES:;
#FGCHANGES:;
//--------------- dance-single - Sparks ----------------
#NOTEDATA:;
#STEPSTYPE:dance-single;
#DESCRIPTION:Sparks;
#DIFFICULTY:Easy;
#METER:8;
#RADARVALUES:0.280345,0.424138,0.219855,0.065142,0,241,214,27,8,0,0,0,0,0,0.280345,0.424138,0.219855,0.065142,0,241,214,27,8,0,0,0,0,0;
#OFFSET:-6.017;
#BPMS:0.000=201.000
,12.000=100.500
,14.000=402.000
,198.000=100.500
,199.000=201.000
,201.000=402.000
,205.000=804.000
,213.000=402.000
,341.000=201.000
,397.000=100.500
,401.000=402.000
,521.000=201.000
,525.000=402.000
;
#SPEEDS:0.000=1.000=0.000=0;
#SCROLLS:0.000=1.000;
#TICKCOUNTS:0.000=4;
#TIMESIGNATURES:0.000=4=4;
#LABELS:0.000=Song Start;
#COMBOS:0.000=1;
#CHARTNAME:;
#CHARTSTYLE:;
#CREDIT:;
#NOTES:
1000
0001
0100
0000
,
0010
1000
0001
0000
,
1000
0100
0010
0000
,
0002
0000
0020
0033
0001
0000
0000
0000
,
0100
0000
0010
0000
,
0100
0000
0001
0000
,
1000
0000
0100
0000
,
1000
0000
0010
0000
,
0100
0000
0001
0000
,
1000
0000
0100
0000
,
0010
0000
0001
0000
,
1000
0000
0001
0000
,
0101
0000
0000
0000
,
0101
0000
1000
0000
,
1100
0000
0000
0000
,
1100
0000
0110
0000
,
0000
0000
1001
0000
,
0000
0000
1000
0000
,
0001
0000
1001
0000
,
1001
0000
1000
0100
,
1000
0000
0001
0010
,
0001
0000
1000
0000
,
0010
0000
0100
0000
,
0010
0000
1000
0000
,
0001
0000
0010
0000
,
0100
0000
1000
0000
,
0001
0000
0100
0000
,
0010
0000
0100
0000
,
0100
0000
0110
0000
,
0000
0000
0001
0000
,
0001
0000
1001
0000
,
0000
0000
1100
0000
,
0000
0000
0101
0000
,
0000
0000
0110
0000
,
0000
0000
1001
0000
,
0000
0000
1000
0000
,
0000
0000
1000
0000
,
0000
0000
0000
1000
0000
0000
0000
0000
,
0000
0000
0100
0000
,
0010
0000
0000
0000
,
0010
0000
0000
0000
0000
0000
0000
0010
,
0000
0000
0000
0000
,
0001
0100
0000
0000
,
0000
0000
0100
0000
,
0000
0000
0000
0100
0000
0000
0000
0000
,
0000
0000
0010
0000
,
1000
0000
0000
0000
,
1000
0000
0000
0000
0000
0000
0000
1000
,
0000
0200
0000
0000
,
0000
0000
0320
0000
,
0000
0032
0000
0000
,
0000
0000
0000
0000
,
0000
0000
0000
0000
,
0000
1003
0000
0000
,
0000
0010
1000
0010
,
1000
0010
0000
1000
,
0000
0000
0000
1100
,
0000
0100
0000
0101
,
0000
0000
0000
0101
,
0000
0001
0000
0011
,
0000
0000
0000
1100
,
0000
2000
0000
0000
,
0000
3010
0000
0000
,
0000
0200
0000
0000
,
0000
0310
0000
0000
,
0000
1000
0000
0100
,
0000
0001
0000
0010
,
0000
0100
0000
1000
,
0000
0010
0000
0010
,
0000
0110
0000
0000
,
0000
1010
0000
0000
,
0000
0101
0000
0000
,
0000
0010
0001
0010
,
0000
1100
0000
0000
,
0000
1001
0000
0000
,
0000
0110
0000
0000
,
0000
1000
0010
1000
,
0000
0100
0000
0100
,
0000
0010
0000
0010
,
0000
0001
0000
0001
,
0000
1000
0000
1000
,
0000
0010
0000
0100
,
0000
0001
0000
0010
,
0000
0100
0000
1000
,
0000
0001
0000
0100
,
0000
0000
0001
0000
0000
0001
0010
0000
,
0000
0100
0100
0000
,
0010
0100
1000
0010
,
0001
0010
1000
0001
,
0010
0100
0000
0010
,
0000
0000
0001
0000
0000
0100
0000
0000
,
0000
0000
0010
0000
0000
0000
0100
0010
,
0100
0200
0000
0310
,
0000
0001
0001
0100
,
0001
0010
0100
1000
,
0100
0100
1000
0001
,
0010
0001
1000
0010
,
0100
0010
0000
1000
,
0000
0001
0000
0100
,
0000
0000
1001
0000
0000
1000
1000
0000
,
0100
0010
0000
0000
,
0001
0000
0000
0010
,
0000
0100
0000
1000
,
0000
1000
0000
0001
,
0000
0100
0000
0000
,
0010
0000
0000
0100
,
0000
0001
0000
1000
,
0000
0001
0000
0010
,
0000
0100
0000
0000
,
0010
0000
0000
0001
,
0000
1000
0000
0000
,
0010
0000
0000
1000
,
0000
0001
0000
0000
,
0100
0000
0000
0001
,
0000
1000
0000
0001
,
0000
1000
0000
1001
,
0000
0000
0000
0001
,
0000
0000
0000
0100
,
0000
0001
0000
0001
,
0000
1000
0000
1000
,
0000
0100
0000
0100
,
0000
0010
0000
0010
,
0000
0100
0000
0010
,
0000
0001
0000
0100
,
0000
0010
0000
1010
,
0000
0000
0000
1100
,
0000
1000
0000
1100
,
0000
0000
0000
1001
,
0000
1000
0000
0001
,
0000
0100
0000
0010
,
0000
0100
0000
0010
,
0000
0100
0000
0100
,
0000
0001
0000
0001
,
0000
1000
0000
0010
,
0000
1000
0000
0100
,
0000
0010
0000
0010
,
0000
0001
0000
0001
,
0000
1000
0000
0001
,
0000
0100
0000
0010
,
0000
1000
0000
1010
,
0000
0010
0000
0100
,
0000
0001
0000
0101
,
0000
0100
0000
0010
,
0000
0110
0000
0000
,
0000
1001
0000
0000
,
0000
1100
0000
0000
,
0000
0011
0000
0000
,
0000
0100
0000
0000
,
0000
0100
0000
0000
,
0000
0010
0000
0000
2000
0000
0000
0000
,
0000
0001
0000
3001
,
0000
0000
0000
0001
,
0000
0000
0000
0000
0000
0010
0000
0000
,
0200
0000
0000
0000
,
1000
1300
0000
0000
,
0000
0001
0000
0000
,
0000
0100
0000
0000
0020
0000
0000
0000
,
0000
1000
0000
1030
,
0000
0000
0000
1000
,
0000
0000
0000
0000
0000
0100
0000
0000
,
0020
0000
0000
0000
,
0000
0031
0000
1000
,
0000
0001
0000
1000
,
0000
0001
1000
0001
,
1000
0000
0000
0000
;
//--------------- dance-single - Sparks ----------------
#NOTEDATA:;
#STEPSTYPE:dance-single;
#DESCRIPTION:Sparks;
#DIFFICULTY:Medium;
#METER:15;
#RADARVALUES:0.718892,1.068334,0.097714,0.130285,0.0285,618,606,12,16,0,0,0,0,0,0.718892,1.068334,0.097714,0.130285,0.0285,618,606,12,16,0,0,0,0,0;
#OFFSET:-6.017;
#BPMS:0.000=201.000
,12.000=100.500
,14.000=402.000
,198.000=100.500
,199.000=201.000
,201.000=402.000
,205.000=804.000
,213.000=402.000
,341.000=201.000
,397.000=100.500
,401.000=402.000
,521.000=201.000
,525.000=402.000
;
#SPEEDS:0.000=1.000=0.000=0;
#SCROLLS:0.000=1.000;
#TICKCOUNTS:0.000=4;
#TIMESIGNATURES:0.000=4=4;
#LABELS:0.000=Song Start;
#COMBOS:0.000=1;
#CHARTNAME:;
#CHARTSTYLE:;
#CREDIT:;
#NOTES:
1000
0000
0001
0000
0100
0010
1000
0001
,
0010
0000
0001
0000
1000
0100
0010
0001
,
1000
0000
0100
0000
1000
0010
0100
0001
,
0010
0000
0100
0000
1000
0001
1000
0000
1000
0000
0000
0000
0010
0000
0000
0000
,
1000
0010
0100
0001
,
0100
0001
0010
0001
,
0010
0001
1000
0100
,
1000
0100
1000
0001
,
1000
0001
0100
0010
,
0100
0010
1000
0010
,
1000
0010
0100
0001
,
0100
0001
1000
0100
,
0010
0100
1000
0001
,
0010
0100
1000
0010
,
0100
0010
1000
0001
,
0100
0010
1000
0001
,
1000
0001
0010
0001
,
0010
0001
0001
0100
,
0100
0010
0020
0000
,
0000
0000
0130
0010
,
1000
0001
0100
0001
,
0010
0001
1000
0100
,
0010
0001
0100
0010
,
1000
0001
1000
0010
,
1000
0100
1000
0010
,
0100
0001
0010
1000
,
0001
0100
1000
0001
,
0100
0010
1000
0100
,
0010
0002
0100
0100
,
0103
0000
0010
1000
,
0100
2000
0001
0001
,
3001
0000
1000
0100
,
1000
0100
0010
0001
,
0010
0001
0100
0000
,
0010
0000
1000
0100
,
1000
0010
0100
0000
,
0000
0000
0010
0000
,
0000
0000
0000
1000
0000
0000
0100
0000
,
1000
0010
0100
0001
,
0010
0000
0000
0000
,
0100
0000
0000
0000
0000
0000
0000
0010
,
0000
0100
1000
0100
,
1000
0100
1000
0000
,
0000
0000
0001
0000
,
0000
0000
0000
0010
0000
0000
0001
0000
,
0100
0010
1000
0001
,
0010
0000
0000
0000
,
0100
0000
0000
0000
0000
0000
0000
0010
,
0000
0001
0100
0001
,
1000
0010
2000
3200
,
0000
0320
0000
0000
,
0000
0032
0000
0000
,
0000
0000
0000
0000
,
0000
0013
0000
0100
,
0000
0010
0001
0010
,
0001
0100
0001
1000
,
0010
1000
0100
0010
,
0001
1000
0000
0010
,
0000
1000
0100
1000
,
0010
0100
0001
1000
,
0010
1000
0001
0100
,
0001
0010
0100
1000
,
0001
0100
0001
1000
,
0001
0010
0100
1000
,
0010
0100
0010
1000
,
0001
1000
0100
0010
,
0001
0100
0010
1000
,
0010
0001
0010
0100
,
0001
0000
1000
0100
0000
0010
0100
0000
,
0000
0010
0001
0100
,
0001
1000
0100
0010
,
0100
1000
0001
0100
,
0001
1000
0010
0100
,
0001
0010
0100
0010
,
0001
1000
0100
0001
,
0100
1000
0001
0100
,
0001
1000
0100
0010
,
0001
0100
0100
0010
,
0010
1000
1000
0001
,
0001
0010
0010
0100
,
0100
1000
1000
0100
,
0100
0000
0010
0001
0000
0000
0100
0010
,
0000
0000
1000
0100
0000
0000
0010
0001
,
0000
0000
1000
0010
0000
0000
0001
0100
,
0000
0000
0010
0100
0000
0000
1000
0001
,
0000
0000
1001
0000
0010
1000
0100
0000
,
2000
0001
3001
1000
,
0100
0010
0001
0100
,
0010
1000
0001
0100
,
0001
0000
1000
0000
0010
0000
1000
0000
0000
0000
0000
0000
0000
0000
0000
0000
0000
0000
0100
0000
0000
0010
0000
0000
,
0000
0010
0002
0000
0000
0100
0000
0000
,
0013
0000
0100
0000
0000
0000
1000
0100
,
1000
1010
0000
0120
,
0000
1000
1030
0000
1000
0000
1000
0010
,
0100
0001
0010
0001
1000
0000
0100
0000
,
0010
0010
0010
0000
0001
0100
0010
1000
,
0001
0100
1000
0000
0100
0000
0000
0000
,
0010
2000
0000
3200
,
0000
0320
0000
2030
,
0000
0000
0000
0000
3010
0000
0000
0000
0000
0000
0001
0010
0001
0000
0000
0000
,
0100
0000
0010
1000
0100
0000
0000
0000
1000
0000
0000
0000
0001
0000
0000
0000
,
0010
0000
0010
0100
,
1000
0001
1000
0010
,
0100
0001
0010
0100
,
1000
0010
1000
0100
,
1000
0000
1000
0001
,
0100
0000
0001
0000
0000
0011
0000
0000
,
0010
0001
0100
1000
,
0100
0010
0000
0010
,
1000
0000
0000
0000
1000
0000
0001
0100
,
0001
1000
0000
1000
,
0100
0000
0000
0000
0100
0000
0010
0001
,
0010
0000
0100
0000
0000
0010
0000
0000
,
0001
1000
0100
0010
,
0001
0100
0010
1000
,
0001
0000
0010
0000
0100
1000
0100
1000
,
0100
1000
0000
0000
0000
0000
0001
0000
,
0001
0000
1000
0100
,
1000
0001
0100
0010
,
1000
0001
0010
0001
,
0100
0001
0010
0100
,
1000
0010
0100
0010
,
1000
0010
1000
0001
,
0010
0100
0001
0100
,
0010
0001
0000
0100
,
0110
0000
1000
0010
,
1010
0000
0100
0001
,
0011
0000
0001
1000
,
1100
1000
0100
0010
,
0001
0100
0010
0100
,
0010
0000
0000
0000
1000
0000
0000
0000
0001
0000
0000
0000
0100
0001
0010
0001
,
0010
0001
0100
0010
,
0100
0001
0010
0000
0100
0000
1000
0000
,
0100
1000
0010
0000
0100
0000
0010
0000
,
1000
0001
0100
0000
0001
0000
1000
0100
,
1000
0000
0100
1000
0010
0000
0100
0000
,
0001
1000
0100
0000
1000
0000
0001
0000
,
0010
0001
0100
0000
0010
0000
0100
0000
,
0001
1000
0010
0000
1000
0000
0100
1000
,
0200
0010
0000
0010
,
0300
0000
0001
0010
0100
0010
0001
0010
,
0001
0100
0000
0010
,
0000
0000
1000
0010
0100
0010
1000
0010
,
1000
0100
1000
0100
,
1000
0001
0010
0001
,
0010
0100
1000
0001
,
0100
0010
1000
0001
,
0100
0001
0000
0000
,
0000
0100
0000
0000
,
0000
0101
0000
0000
0010
0000
0010
0000
,
0010
1000
0001
0010
,
0000
0000
0000
0100
,
0000
0000
0000
0000
0000
0110
0000
0000
,
1000
0010
0100
0001
,
0010
0100
0000
0000
,
0000
1000
0000
0000
,
0000
1100
0000
0000
0001
0000
0001
0000
,
0001
0100
0010
1000
,
0000
0000
0000
0001
,
0000
0000
0000
0000
0000
1001
0000
0000
,
0010
1000
0001
0100
,
0001
0020
0100
0100
,
0100
0100
0100
0100
,
0130
1000
0100
0010
,
0001
0000
0000
0000
;
//--------------- dance-single - Sparks ----------------
#NOTEDATA:;
#STEPSTYPE:dance-single;
#DESCRIPTION:Sparks;
#DIFFICULTY:Hard;
#METER:19;
#RADARVALUES:1.123705,1.669272,0.268712,0.138427,0.14657,966,933,33,17,0,0,0,0,0,1.123705,1.669272,0.268712,0.138427,0.14657,966,933,33,17,0,0,0,0,0;
#OFFSET:-6.017;
#BPMS:0.000=201.000
,12.000=100.500
,14.000=402.000
,198.000=100.500
,199.000=201.000
,201.000=402.000
,205.000=804.000
,213.000=402.000
,341.000=201.000
,397.000=100.500
,401.000=402.000
,521.000=201.000
,525.000=402.000
;
#SPEEDS:0.000=1.000=0.000=0;
#SCROLLS:0.000=1.000;
#TICKCOUNTS:0.000=4;
#TIMESIGNATURES:0.000=4=4;
#LABELS:0.000=Song Start;
#COMBOS:0.000=1;
#CHARTNAME:;
#CHARTSTYLE:;
#CREDIT:;
#NOTES:
1000
0000
0001
0000
0100
0010
1000
0100
,
0010
0000
0001
0000
1000
0100
0010
0001
,
0100
0000
0001
0000
1000
0001
0100
0010
,
1000
0000
0100
0000
0010
0010
0010
0000
0001
0000
0000
0000
0001
0000
0000
0000
,
0001
0000
0100
0001
1000
0000
1000
0000
,
0100
1000
0010
0100
0001
0000
0001
0000
,
0001
0000
1000
0100
0010
0000
0010
0000
,
0001
1000
0001
0100
0010
0000
0010
0000
,
0010
0000
0100
0010
1000
0000
1000
0000
,
0010
1000
0100
1000
0001
0000
0001
0000
,
0001
0000
1000
0001
0100
0000
0100
0000
,
0001
0100
0010
1000
0001
0000
0001
0000
,
0011
0000
0010
0100
1000
0000
1000
0000
,
1000
0100
0010
0001
1000
0000
1000
0000
,
1010
0000
0010
0100
0001
0000
0001
0000
,
0001
1000
0010
0100
1000
0000
1000
0000
,
1100
0000
0100
0001
1000
0000
1000
0000
,
0100
1000
0100
1000
0010
0000
0100
0001
,
0010
0000
0100
1000
0010
0100
0010
0100
,
0010
0100
0010
0000
1000
0001
0100
0001
,
1000
0010
0100
0010
1000
0100
0010
0001
,
1000
0010
1000
0001
0010
0100
1000
0001
,
0100
0001
1000
0100
0010
0001
1000
0010
,
0100
0001
1000
0000
0001
1000
0010
1000
,
0001
1000
0010
1000
0001
0010
0100
1000
,
0010
0100
0001
1000
0001
0010
1000
0001
,
0100
1000
0001
0010
0100
0010
0001
1000
,
0010
0100
0001
0000
0001
1000
0100
1000
,
0001
0010
0200
0000
1000
0000
1000
0000
,
1300
0001
0100
0010
0100
0001
1000
0010
,
0100
0001
1000
0200
0010
0000
0010
0000
,
0310
0001
0100
0001
1000
0010
1000
0010
,
1000
0010
1000
0010
0100
0001
0100
0001
,
0100
0001
0100
0001
1000
0100
1000
0100
,
0010
0001
1000
0010
0100
0000
0010
0100
,
0010
1000
0010
0000
0100
0000
0000
0000
,
0000
0000
0100
0000
,
0000
0000
0000
0100
0000
0000
0001
0000
,
0001
0000
0001
0000
0001
0000
1000
0100
,
0010
0000
0000
0000
,
0010
0000
0000
0000
0000
0000
0000
0010
,
0000
0000
0100
1000
0100
1000
0100
1000
,
0100
1000
0100
1000
0001
0000
0000
0000
,
0000
0000
0001
0000
,
0000
0000
0000
0001
0000
0000
0100
0000
,
0100
0000
0100
0000
0100
0010
1000
0001
,
0010
0000
0000
0000
,
0010
0000
0000
0000
0000
0000
0000
0010
,
0000
0000
0001
0100
0001
0100
0001
0100
,
0001
0100
0001
0100
0020
0000
0230
0000
,
0000
0000
0000
0300
2002
0000
0000
0000
0000
0000
0000
0000
0000
0000
0000
0000
,
0000
3003
0220
0000
0000
0000
0000
0000
,
0000
0000
0000
0000
,
0330
1000
0000
1100
,
0000
0000
0010
0000
0010
0000
0010
0100
,
1000
0001
0100
0001
0010
0001
1000
0100
,
1000
0010
1000
0001
1000
0100
0010
0001
,
1000
0000
0001
1000
0010
1000
0001
1000
,
0001
0100
0010
1000
0001
0010
0100
1000
,
0010
0000
1000
0010
0100
0001
1000
0001
,
0010
0001
0010
0100
0010
0100
1000
0100
,
1000
0000
0001
0100
0010
1000
0100
0010
,
0001
0100
0001
1000
0100
1000
0010
0100
,
0010
0000
1000
0100
1000
0100
1000
0001
,
1000
0001
0100
0010
1000
0010
1000
0001
,
1000
0000
0100
1000
0100
1000
0100
1000
,
0100
0000
0010
0001
0010
0001
0010
0001
,
0010
0000
0001
0100
0010
0100
0001
1000
,
0010
1000
0100
0010
0000
0010
0001
0000
,
1000
0000
0100
0010
0100
0010
0100
0010
,
0100
0010
0001
0010
0001
0010
0001
0010
,
0001
0010
0001
1000
0001
1000
0001
1000
,
0001
1000
0010
1000
0001
0100
0001
0010
,
0100
0000
1000
0010
1000
0010
1000
0010
,
1000
0010
0100
0010
0100
0010
0100
0010
,
0100
0010
0100
0001
0100
0001
0100
0001
,
0100
0001
1000
0100
0010
0001
0100
0010
,
1000
0010
0010
0100
,
0100
0001
0001
1000
,
1000
1100
1100
0110
,
0110
0101
0101
0110
,
0110
0000
0000
1000
0010
0100
0000
0000
0000
0001
1000
0100
,
0000
0000
0000
0010
0001
1000
0000
0000
0000
0010
0100
1000
,
0000
0000
0000
0100
0001
1000
0000
0000
0000
0100
0010
0001
,
0000
0000
0000
1000
0001
1000
0000
0000
0000
0001
1000
0001
,
0000
0000
0100
0000
0010
1000
0010
0000
,
0200
0010
0310
0100
,
0001
1000
0100
0010
,
0001
1000
0010
0001
,
0010
0000
0000
0000
1000
0000
0000
0000
0100
0000
0000
0000
0010
0000
0000
0000
0000
0000
0000
0000
0000
0000
0000
0000
0000
0000
0000
0000
0000
0000
0000
0000
0000
0000
0000
0000
0001
0000
0000
0000
0000
0000
0000
0000
0000
0010
0000
0000
,
0000
0001
0200
0000
0000
0010
0000
0000
,
1000
0000
2300
0000
0000
0000
3100
0010
,
0100
0101
0000
1001
,
0100
1000
0100
1000
0100
0000
0000
0000
0100
0000
0000
0000
1100
0000
0100
0000
,
0101
0100
0010
0001
1000
0010
0100
0000
,
0001
0001
0101
0001
0010
0001
1000
0010
,
1000
0100
2000
0000
0020
3000
0200
0030
,
0002
0000
0300
0000
0013
0000
0001
0010
0100
0000
1000
0100
0010
0000
0001
0010
,
0100
0000
1000
0010
0100
0000
0001
0100
0010
0000
1000
0010
0100
0000
0001
1000
,
0100
0000
0010
0001
2000
0000
0000
0000
0000
0000
3010
0010
0010
0000
0000
0000
,
0100
0000
0000
0000
0010
1000
0010
0100
0001
0000
0000
0000
0000
0000
0000
0000
0010
0000
0000
0000
0000
0000
0000
0000
0100
0000
0000
0000
0000
0000
0000
0000
,
1000
0000
1000
0100
,
0010
0000
0001
0000
1000
0010
0001
0010
,
0100
0001
1000
0000
0001
0000
0010
0000
,
0001
1000
0100
1000
,
0001
0000
1000
0001
,
0100
0000
0110
0000
0000
1010
0000
0000
,
1100
1000
0001
0010
,
0100
0010
0000
0010
,
0001
0000
0000
0000
0001
0000
0010
0100
,
1000
0010
0100
0000
0000
0000
0100
0000
,
0010
0000
0000
0000
0010
0000
0100
0010
,
1000
0001
0010
0000
0000
0011
0000
0000
,
0001
0000
0010
0100
1000
0001
1000
0010
,
0100
0001
0010
0100
1000
0001
0100
0001
,
1000
0100
0010
0100
1000
0001
1000
0001
,
1000
0001
0000
0000
0000
0000
1001
0000
,
0001
0100
0001
0000
1000
0010
0100
0010
,
1000
0001
0100
0010
1000
0100
0010
0001
,
0100
0010
0001
0010
1000
0010
0100
0001
,
0010
0000
0001
0100
0001
0010
0100
1000
,
0100
0010
0001
1000
0010
0100
0001
1000
,
0001
0000
0100
0010
1000
0010
0100
0001
,
1000
0100
0010
0001
1000
0001
0100
0010
,
0001
0010
0010
0110
,
1000
1000
1000
1100
,
0001
0001
0001
0101
,
0010
0010
0010
0011
,
1000
0000
0010
0100
0010
0100
0010
0100
,
0010
0100
0001
1000
0001
1000
0001
1000
,
0001
0000
1000
0000
0001
0000
0000
0000
0011
0000
0000
0000
0100
1000
0100
1000
,
0100
0000
1000
0001
1000
0001
1000
0001
,
0100
0010
1000
0100
1000
0100
1000
0100
,
0010
0001
0100
0010
0100
0010
0100
0010
,
1000
0100
0001
0100
0001
0000
0100
0010
,
0001
1000
0010
1000
0010
1000
0010
1000
,
0100
0010
0001
1000
0001
1000
0001
1000
,
0100
0010
0001
0100
0001
0100
0001
0100
,
0010
1000
0100
0010
0100
0010
0100
0010
,
0100
0000
1000
0100
0010
0100
1000
0100
,
0010
0100
1000
0100
0010
0001
1000
0100
,
0010
0001
0100
0010
0100
0001
0100
0010
,
0100
0001
0100
0010
1000
0001
0100
0010
,
1000
0001
0010
0000
0010
0000
0001
0000
,
0001
0100
0100
0010
,
0010
0000
0100
0010
1000
0010
1000
0100
,
1000
0001
0010
0001
0100
0010
1000
0100
,
0010
0001
1000
0000
0000
0000
0000
0000
,
0000
0001
0000
0000
,
0000
1001
0000
0000
0100
0000
0100
0000
,
0100
0000
0001
0000
0010
0100
0010
0000
,
0000
0000
0000
0100
,
0000
0000
0000
0000
0000
0110
0000
0000
,
1000
0100
1000
0010
1000
0001
0010
0001
,
0100
0001
1000
0000
0000
0000
0000
0000
,
0000
0010
0000
0000
,
0000
1010
0000
0000
0100
0000
0100
0000
,
0100
0000
0001
0000
1000
0100
1000
0000
,
0000
0000
0000
0100
,
0000
0000
0000
0000
0000
1100
0000
0000
,
1000
0010
0100
0010
1000
0001
0100
0001
,
0010
0100
0020
0000
0100
0000
0100
0000
,
0100
0100
0100
0100
,
0130
0000
1000
0010
0100
0001
1000
0010
,
0100
0000
0000
0000
;
//--------------- dance-single - Sparks ----------------
#NOTEDATA:;
#STEPSTYPE:dance-single;
#DESCRIPTION:Sparks;
#DIFFICULTY:Challenge;
#METER:19;
#RADARVALUES:1.331928,1.797318,0.390854,0.154713,0.398997,1145,1097,48,19,0,0,0,0,0,1.331928,1.797318,0.390854,0.154713,0.398997,1145,1097,48,19,0,0,0,0,0;
#OFFSET:-6.017;
#BPMS:0.000=201.000
,12.000=100.500
,14.000=402.000
,198.000=100.500
,199.000=201.000
,201.000=402.000
,205.000=804.000
,213.000=402.000
,341.000=201.000
,397.000=100.500
,401.000=402.000
,519.000=201.000
,523.000=402.000
;
#STOPS:464.500=0.298;
#SPEEDS:0.000=1.000=0.000=0;
#SCROLLS:0.000=1.000;
#TICKCOUNTS:0.000=4;
#TIMESIGNATURES:0.000=4=4;
#LABELS:0.000=Song Start;
#COMBOS:0.000=1;
#CHARTNAME:;
#CHARTSTYLE:;
#CREDIT:;
#NOTES:
1000
0000
0100
0000
1000
0010
0001
1000
,
0100
0000
0010
0000
1000
0100
0010
0001
,
1000
0000
0100
0000
1000
0001
0010
0200
,
0001
0000
1000
0000
0010
0010
0310
0000
1002
0000
0000
0000
1003
0000
0000
0000
,
2001
3001
0201
0301
,
0102
0103
2010
3010
,
1020
1030
2100
3100
,
1200
1300
0120
0100
,
0100
0130
1002
1000
,
1000
1003
1100
1100
,
1100
1100
0011
0011
,
1000
0100
1000
0010
0001
0000
0010
0000
,
0110
0000
0100
0010
1000
0000
0001
0000
,
1000
0100
0010
0001
0100
0000
0010
0000
,
1001
0000
0100
0010
1000
0000
0010
0000
,
0100
0001
1000
0100
0010
0000
0001
0000
,
1010
0000
0100
0010
1000
0000
0001
0000
,
0100
0000
0000
0001
0000
0000
0010
0000
0000
0001
0000
0000
1000
0000
0000
0000
0000
0000
0010
0000
1000
0000
0010
0000
,
0100
0000
0000
0000
0000
0000
0001
0000
1000
0000
0001
0000
0010
0000
0000
0100
0000
0000
0010
0000
0000
0100
0000
0000
,
0010
0100
0010
0100
1000
0100
0010
0001
,
0100
0010
1000
0010
0100
0001
1000
0100
,
0010
0001
1000
0001
0100
0010
1000
0001
,
0010
0001
0100
0001
1000
0100
0010
1000
,
0010
0100
0001
0100
0010
0001
0010
0100
,
1000
0001
1000
0010
0100
0001
0010
0100
,
1000
0001
0100
0010
1000
0010
0001
1000
,
0100
0001
1000
0010
1000
0100
0010
0001
,
1000
0010
0100
0010
1000
0001
0100
0001
,
1000
0010
1000
0100
0010
0001
0010
0001
,
0010
0001
0010
0001
0100
0010
1000
0001
,
0010
0001
1000
0001
0100
0010
0100
0010
,
0100
0010
0100
0010
1000
0001
0100
0001
,
0010
0100
1000
0010
0100
0001
1000
0100
,
0010
0001
0100
0010
0001
0010
0100
0001
,
1000
0010
0100
0001
1000
0100
0010
0100
,
1000
0001
0100
0001
1001
0000
0001
0010
,
0000
0001
0100
0000
0110
0000
0000
0010
,
1000
0010
0000
1100
0000
0000
1000
0000
,
1000
0000
0000
1000
0000
0000
1000
0000
0000
0010
0100
0001
,
1000
0000
0100
1000
0000
0100
0010
0000
,
0011
0000
0000
0100
0010
0100
0000
1010
,
0000
0000
0001
0100
0001
0100
0001
0100
,
0001
0100
0001
0100
0110
0000
1000
0001
,
0000
0100
0001
0000
1001
0000
0000
1000
,
0100
1000
0000
0110
0000
0000
0100
0000
,
0100
0000
0000
0100
0000
0000
0100
0010
0001
1000
0001
0100
,
0010
0000
1000
0010
0000
0100
0010
0000
,
1010
0000
0000
0010
1000
0010
0000
1100
,
0000
0000
1000
0100
1000
0100
1000
0100
,
1000
0000
0000
0000
0100
0000
0000
0000
1000
0000
0000
0000
0100
0000
0000
0000
0010
0001
0010
0001
0010
0001
0010
0001
1000
0000
0010
0000
1000
0000
0010
0000
,
1000
0010
1000
0010
0100
0000
0010
0000
0100
0000
0010
0000
0100
0000
0010
0000
,
0100
0010
1000
0000
0001
0000
1000
0000
,
0001
1000
0001
1000
,
0001
1000
0000
0100
,
0000
0011
0011
1001
,
0001
1000
0010
1000
0100
1000
0001
1000
,
0010
1000
0100
0010
0100
0001
0100
1000
,
0100
0010
0001
0100
0001
0100
0010
1000
,
0010
1000
0001
0010
0100
1000
0010
0100
,
0001
1000
0010
0100
0001
0100
0010
1000
,
0010
0100
0010
1000
0001
0010
0100
1000
,
0001
1000
0010
0100
0010
0100
0010
1000
,
0010
1000
0010
0100
0001
0100
0010
1000
,
0100
0010
0001
0100
0010
0100
0001
1000
,
0100
0010
0001
1000
0100
0010
0100
0001
,
0100
0010
0001
1000
0010
0100
0001
1000
,
0100
0010
0001
1000
0001
0100
0010
1000
,
0100
0010
0001
1000
0010
1000
0001
0010
,
0100
1000
0001
0100
0000
0010
1000
0000
,
0100
0000
1000
0100
0010
0100
1000
0100
,
0010
0100
1000
0001
0010
0001
1000
0001
,
0010
0001
1000
0010
0100
0010
1000
0010
,
0100
0010
1000
0100
0010
0001
0100
0010
,
1000
0001
0100
0001
1000
0001
0100
0001
,
1000
0001
0100
0010
1000
0010
0100
0010
,
1000
0010
0100
0001
0010
0001
0100
0001
,
0010
0001
1000
0010
0100
0001
0010
0100
,
1000
0001
0010
0100
0010
0100
0010
0100
,
0010
0100
1000
0001
1000
0001
1000
0001
,
1000
0001
1000
0010
1000
0010
1000
0010
,
1000
0010
0100
0001
0100
0001
0100
0001
,
0100
0000
0000
0001
0000
0000
1000
0000
0100
0000
0010
0000
0100
0000
0000
0000
0000
0000
1000
0000
0001
0000
0100
0000
,
0010
0000
0000
1000
0001
0010
0001
0000
0000
0010
0100
0001
,
0100
0000
0000
0010
0001
1000
0010
0000
0000
0100
0001
1000
,
0010
0000
0000
1000
0100
1000
0010
0000
0000
0100
0001
0010
,
0001
0000
1000
0000
0010
1000
0010
0000
,
0200
0001
0301
0100
,
0010
1000
0100
0010
,
0001
0100
0010
1000
,
0001
0000
0000
0000
0100
0000
0000
0000
0010
0000
0000
0000
1000
0000
0000
0000
0000
0000
0000
0000
0000
0000
0000
0000
0001
0000
0000
0000
0000
0000
0000
0000
0000
0000
0000
0000
1000
0000
0000
0000
0000
0000
0000
0000
0000
0100
0000
0000
,
0000
1000
0002
0000
0000
0100
0003
0000
,
1000
0000
1000
0000
0100
0000
0010
0001
,
1000
0000
0020
0000
0000
0000
0200
0330
,
0001
0000
0010
0001
0010
0000
0000
0000
0010
0000
0000
0000
0011
0000
0001
0000
,
0010
0100
0010
0100
1000
0010
0100
0001
,
1000
1000
1000
0001
0100
0001
0010
0100
,
1000
0000
0010
0000
0100
0000
0000
0000
0010
0000
0000
0000
1000
0000
0000
1100
,
0000
0000
0100
0000
0010
0000
0001
0100
0010
0000
1000
0001
0010
0000
0100
1000
,
0001
0000
0100
0010
0001
0000
0010
1000
0001
0000
1000
0001
0010
0000
0100
1000
,
0001
0000
0010
0001
0200
0000
0000
0000
0000
0000
0010
0010
0010
0300
0000
0000
,
1001
0000
0000
0000
1000
0010
0100
0010
0100
0000
0000
0000
0000
0000
0000
0000
0001
0000
0000
0000
0000
0000
0000
0000
1000
0000
0000
0000
0000
0000
0000
0000
,
0010
0000
0010
1000
,
0100
0000
0010
0000
0001
0100
0001
0010
,
0001
1000
0001
0000
0100
0000
0010
0000
,
1000
0100
1000
0001
,
1000
0000
0010
0100
,
0001
0000
0101
0000
0000
1010
0000
0000
,
1100
0010
0001
1000
,
0100
1000
0000
1000
,
0100
0000
0000
0000
0100
0000
1000
0010
,
0100
0001
0010
0000
0000
0000
0010
0000
,
0001
0000
0000
0000
0001
0000
0010
0100
,
1000
0001
0100
0000
0000
0010
0000
0000
,
1000
0000
1010
0000
0010
0100
0001
1000
,
0001
0100
0010
1000
0100
0010
0001
0100
,
0010
1000
0001
0010
0001
1000
0001
1000
,
0001
0000
2000
3000
0100
0000
0000
0000
0100
0000
0000
0000
0000
0000
0000
0000
,
1000
0100
0010
0001
0100
0010
1000
0001
,
0100
0001
0010
0001
0100
0001
1000
0100
,
1000
0010
1000
0100
1000
0001
0010
0001
,
0100
0001
0010
0100
1000
0001
1000
0010
,
1000
0100
0010
0001
0100
0010
1000
0001
,
0100
0010
1000
0100
0010
0001
1000
0010
,
0100
0010
1000
0001
0010
0100
0010
0001
,
0100
1000
0100
1000
0100
1000
0001
0010
,
1000
0001
1000
0001
1000
0001
0100
0010
,
1000
0001
1000
0001
1000
0001
0010
0100
,
1000
0010
1000
0010
1000
0010
0100
0001
,
1000
0100
0001
1000
0010
0100
1000
0001
,
0010
0100
1000
0010
0100
0001
1002
0000
,
0103
0000
0000
0000
0010
1000
0010
1000
0010
0000
0000
0000
1000
0000
0001
0000
,
0100
0000
0000
0001
0000
0000
0010
0000
0000
0100
0000
0000
1000
0000
0100
0000
1000
0000
0100
0000
0000
0010
0000
0000
,
0001
0000
0000
1000
0000
0000
0010
0000
0000
0100
0000
0000
0001
0000
1000
0000
0001
0000
1000
0000
0000
0010
0000
0000
,
1000
0000
0000
0100
0000
0000
0010
0000
0000
0001
0000
0000
0100
0000
0010
0000
0100
0000
0010
0000
0000
1000
0000
0000
,
0001
0000
0000
0010
0000
0000
0001
0000
0100
0000
0010
0000
1000
0000
0001
0000
0100
0000
0010
0000
0000
1000
0000
0000
,
0010
0000
0000
0100
0000
0000
0010
0000
0000
1000
0000
0000
0100
0000
0010
0000
0001
0000
1000
0000
0000
0010
0000
0000
,
1000
0000
0000
0001
0000
0000
1000
0000
0000
0010
0000
0000
0100
0000
0001
0000
1000
0000
0100
0000
0000
0010
0000
0000
,
0100
0000
0000
0001
0000
0000
0100
0000
0000
1000
0000
0000
0100
0000
1000
0000
0001
0000
0010
0000
0000
0001
0000
0000
,
0100
0000
0000
0001
0000
0000
1000
0000
0010
0000
0100
0000
0010
0000
1000
0000
0001
0000
1000
0000
0000
0010
0000
0000
,
0100
0000
0000
0010
0000
0000
1000
0000
0000
0001
0000
0000
0100
0000
0000
0001
0000
0000
0010
0000
0001
0000
0010
0000
,
0001
0000
0010
0000
0001
0000
0010
0000
0001
0000
0010
0000
0001
0000
0010
0000
0001
0000
0010
0000
0000
0100
0000
0000
,
1000
0000
0000
0100
0000
0000
0010
0000
0000
0001
0000
0000
1000
0000
0000
0001
0000
0000
0100
0000
0010
0000
0100
0000
,
0010
0100
0010
0100
0010
0100
0010
0100
0010
1000
0000
0000
,
1000
0100
0100
0010
,
0010
0000
0001
0000
0001
0000
0010
0100
,
1000
0001
0100
0010
1000
0001
0010
0100
,
0010
0001
0100
0010
1000
0010
0100
0000
,
0001
0100
0000
0001
0100
0000
1010
0000
,
0000
0001
0100
0001
0000
1010
0000
0000
,
1000
1000
1000
0100
,
0010
0000
0001
0000
1000
0000
0010
0000
0000
0000
0000
0000
0100
0000
0000
0010
0000
0000
0000
0000
0000
0100
0000
0000
,
0010
0000
1001
0000
0000
0100
0010
0100
,
0000
1001
0000
0000
0001
0100
0001
0100
,
0001
0100
0001
0100
0001
0100
0010
0000
,
1000
0100
0000
1000
0100
0000
0011
0000
,
0000
0100
1000
0100
0000
0011
0000
0000
,
0100
0000
0000
0100
0000
0000
0100
0000
0000
0010
0001
1000
,
0001
0000
1000
0000
0100
0000
1000
0000
0000
0000
0000
0000
0001
0000
0000
1000
0000
0000
0000
0000
0000
0001
0000
0000
,
1000
0000
1010
0000
0000
0001
1000
0001
,
0000
1010
0000
0000
0100
0001
0100
0001
,
0100
0001
0100
0001
0100
0001
0020
0000
,
0100
0100
0100
0100
,
0100
0000
0100
0000
0130
0000
1000
0100
,
0010
0001
1000
0001
1000
0000
0000
0000
;
