#TITLE:现在跳舞;
#SUBTITLE:~ Dance Now;
#ARTIST:动感音乐DJ;
#TITLETRANSLIT:Xiànzài tiàowǔ;
#SUBTITLETRANSLIT:;
#ARTISTTRANSLIT:Dynamic Music DJ;
#GENRE:;
#CREDIT:locuuraa;
#LYRICSPATH:;
#MUSIC:现在跳舞.ogg;
#OFFSET:-0.020;
#SAMPLESTART:12.020;
#SAMPLELENGTH:12.000;
#SELECTABLE:YES;
#BPMS:0.000=133.900;
#STOPS:;
#KEYSOUNDS:;
#BANNER:现在跳舞.png;
#BACKGROUND:现在跳舞.png;
#CDTITLE:../CDTitles/4DSS.png;
#BGCHANGES:-14.700=现在跳舞.avi=1.000=0=0=1,
229.000=现在跳舞.png=1.000=0=0=1,
99999=-nosongbg-=1.000=0=0=0 
;

#NOTES:
     ds3ddx-single:
     Hard:
     Medium:
     4:
     :
00000000
00000000
00010000
00000000
,
10000000
00000000
00010000
00000000
,
00000001
00000000
00010000
00000000
,
00010000
00000000
00000100
00000000
,
00100000
00000000
10000001
00000000
,
00000000
00000000
00100000
00000101
,
00000100
10100000
00000100
00110000
,
00100000
00010100
00100000
11000000
,
00000010
00000101
10000000
00000001
,
00010000
00010000
00100000
00000011
,
01000000
11000000
00000010
00000011
,
00100000
00000101
00000100
10100000
,
00010000
00010000
00100000
01000000
,
00000100
00000010
10000001
00000000
,
00000000
00000000
00010000
00000000
,
00000001
00000000
00010000
00000000
,
10000000
00000000
00010000
00000000
,
00010000
00000000
10000000
00000000
,
00000001
00000000
00010000
00000000
,
10000000
00000000
00010000
00000000
,
00000001
00000000
00010000
00000000
,
00010000
00000000
00000001
00000000
,
10000000
00000000
00100100
01100000
,
00100100
00000110
01000010
01000010
,
00010000
00010000
00100000
00100100
,
00000010
01000010
00100000
00000100
,
00010000
00010000
00100000
01100000
,
00000100
00000110
01000000
00000010
,
00010000
00010000
00100100
00100010
,
00100100
01000100
00100000
00000010
,
11000001
00000000
00100000
00010000
,
00000100
10000000
00100000
00000100
,
01000010
00000000
00100000
00100000
,
00000100
00000100
01000000
00000010
,
00000101
00000101
01000000
00010000
,
00000010
10000000
01000000
00000010
,
00100100
00000000
01000000
01000000
,
00000010
00000010
00100000
00000100
,
11000000
00000011
00010000
10000000
,
00010000
00000001
00100000
10000000
,
00000100
00010000
00000100
00000001
,
00100000
00010000
00000100
00000101
,
01000000
11000000
00000010
00000100
,
00100000
01000000
00000010
00000001
,
01000000
00010000
01000000
10000000
,
00000010
00010000
00100000
10000001
,
01000000
10000001
00100000
00000100
,
00000010
01000000
00010000
00000000
;
