#TITLE:绿光;
#SUBTITLE:~ Green Light;
#ARTIST:孙燕姿;
#TITLETRANSLIT:Lǜ guāng;
#SUBTITLETRANSLIT:;
#ARTISTTRANSLIT:Stefanie Sun;
#GENRE:;
#CREDIT:locuuraa;
#LYRICSPATH:;
#MUSIC:绿光.ogg;
#OFFSET:0.240;
#SAMPLESTART:11.960;
#SAMPLELENGTH:12.000;
#SELECTABLE:YES;
#BPMS:0.000=105.900;
#STOPS:;
#KEYSOUNDS:;
#BANNER:绿光.png;
#BACKGROUND:绿光.png;
#CDTITLE:../CDTitles/4DSS.png;
#BGCHANGES:-14.700=绿光.avi=1.000=0=0=1,
229.000=绿光.png=1.000=0=0=1,
99999=-nosongbg-=1.000=0=0=0 
;

#NOTES:
     ds3ddx-single:
     Hard:
     Medium:
     3:
     :
00000000
00000000
00000000
00000000
,
00000000
00000000
00000000
00000000
,
00000000
00000000
00000000
00000000
,
00000000
00000100
10100000
00000000
,
00000000
00100000
00000101
00000000
,
00000000
00000000
00000000
00000000
,
00000000
00000000
00000000
00000000
00000000
00000000
00000010
01000000
,
00000011
00000000
00100000
00000100
10100000
00000000
00000010
00000000
,
01000000
00000000
00000100
00100000
00010100
00000000
00000100
00000000
,
00100000
00000000
00000010
01000000
00000001
00000000
00000010
00000000
,
01000000
00000000
00010100
00000000
01000000
00000000
00000010
01000000
,
00010100
00000000
00100000
00000100
00001010
00000000
00000100
00000000
,
00100000
00000000
00000010
01000000
00000011
00000000
00000100
00000000
,
01000000
00000000
00000100
01000000
00000101
00000000
00100100
00000000
,
01000100
10100010
00000000
00000100
,
00000100
10100000
00000101
00000100
,
01000000
00000000
00000100
01000000
00000101
00000000
00100000
00000000
,
00100000
00000101
10100000
00100000
,
00000010
00000000
00100000
00000010
10100000
00000000
00000100
00000000
,
00000111
00100000
11100000
00000100
,
00000100
00000000
01000000
00000010
00110000
00000000
00000100
00000000
,
00100000
00000100
00010110
00100000
,
11100000
00000000
00000100
00000000
00000100
00000000
01000000
00000010
,
11000000
00000100
00100000
00000100
,
00011110
00000000
01000000
00000010
00110000
00000000
00000100
00000000
,
01000000
00000000
00000100
01000000
00010100
00000000
00000100
00000000
,
00100000
00000000
01000000
00000000
00000100
00000000
00000010
01000000
,
00000011
00100000
00000010
01000000
,
00000101
00000000
11000011
00000000
00000100
00000000
01000000
00000010
,
00110000
00000100
00100000
00000011
,
11000000
00000000
00010100
00000000
00000000
00000000
00000010
01000000
,
00000011
00000000
00100000
00000100
10100000
00000000
00000010
00000000
,
01000000
00000000
00000100
00100000
01001000
00000000
00000010
00000000
,
01000000
00000000
00000100
01000000
10000101
00000000
00100100
00000000
,
01000010
00000000
10100011
00000000
00000000
00000000
00000100
00100000
,
01010000
00000000
00100000
00000100
00010010
00000000
01000000
00000000
,
00000010
00000000
01000000
01000000
00000011
00000000
00000100
00000000
,
00100000
00000000
00000100
00100000
00000101
00000000
00000010
00000000
,
01000000
00000000
00000010
01000000
00110000
00000000
00000000
00000000
;
#NOTES:
     ds3ddx-single:
     Easy:
     Easy:
     4:
     :
00000000
00000000
00000000
00000000
,
00000000
00000000
00000000
00000000
,
00000000
00000000
00000000
00000000
,
00000000
00000100
10000000
00000000
,
00000000
00100000
00000001
00000000
,
00000000
00000000
00000000
00000000
,
00000000
00000000
00000000
00000010
,
00000011
00100000
10100000
00000010
,
01000000
00000100
00110000
00000100
,
00100000
00000000
00000010
01000000
00000001
00000000
00000010
00000000
,
01000000
00010000
01000000
00000010
,
01000000
00100000
10000010
00000100
,
00100000
00000000
00000010
01000000
00000011
00000000
00000100
00000000
,
01000000
00000100
00000101
00100000
,
00000100
01000000
00000010
00000100
,
00000100
10000000
00000001
00000100
,
01000000
00000010
01000000
00100000
,
00100000
00000001
10000000
00100000
,
00000010
00100000
00100010
00000100
,
00000010
00100000
01000000
00000100
,
00000100
01000000
00010000
00000100
,
00100000
00000100
00000010
00100000
,
01000000
00000000
00000100
00000000
00000100
00000000
01000000
00000010
,
01000000
00000100
00100000
00000100
,
00000001
00100000
10000000
00000100
,
00010000
00000000
00000100
01000000
00000100
00000000
00000100
00000000
,
00100000
01000000
00000010
00100000
,
00000011
00100000
00000010
01000000
,
00000001
10000001
00000100
01000000
,
00010000
00000100
00100000
00000001
,
10000000
00000000
00010100
00000000
00000000
00000000
10000000
00010000
,
00000001
00000000
00100000
00000100
00100000
00000000
00000010
00000000
,
01000000
00000100
01000000
00000010
,
01000000
00000100
01000100
00100000
,
00000010
01000000
00000000
00000100
,
01010000
00100000
00010010
01000000
,
00000010
00000000
01000000
01000000
00000011
00000000
00000100
00000000
,
00100000
00000000
00000100
00100000
00000101
00000000
00000010
00000000
,
01000000
00000000
00000010
01000000
00110000
00000000
00000000
00000000
;
#NOTES:
     ds3ddx-double:
     Club:
     Easy:
     4:
     :
0000000000000000
0000000000000000
0000000000000000
0000000000000000
,
0000000000000000
0000000000000000
0000000000000000
0000000000000000
,
0000000000000000
0000000000000000
0000000000000000
0000000000000000
,
0000000000000000
0000010000000000
1010000000000000
0000000000000000
,
0000000000000000
0010000000000000
0000010100000000
0000000000000000
,
0000000000000000
0000000000000000
0000000000000000
0000000000000000
,
0000000000000000
0000000000000000
0000000000000000
0000000000000000
0000000000000000
0000000000000000
0000001000000000
0100000000000000
,
0000001100000000
0000000000000000
0010000000000000
0000010000000000
1010000000000000
0000000000000000
0000001000000000
0000000000000000
,
0100000000000000
0000000000000000
0000010000000000
0010000000000000
0000001000000000
0000000000000000
0000010000000000
0000000000000000
,
0000000000100000
0000000000000000
0000000001000000
0000000000000010
0000000000000100
0000000000000000
0000000001000000
0000000000000000
,
0000000000000010
0000000000000000
0000000000010100
0000000000000000
0000000001000000
0000000000000000
0000000000100000
0000010000000000
,
0000001000000000
0000000000000000
0010000000000000
0000010000000000
0100000000000000
0000000000000000
0000010000000000
0000000000000000
,
0010000000000000
0000000000000000
0000001000000000
0100000000000000
0000001100000000
0000000000000000
0000010000000000
0000000000000000
,
0100000000000000
0000000000000000
0000010000000000
0100000000000000
0000010100000000
0000000000000000
0010010000000000
0000000000000000
,
0000000000100000
0000000001000000
0000000000000000
0000000000000100
,
0000000000000100
0000000010100000
0000000000000101
0000000000000100
,
0000000001000000
0000000000000000
0000000000000100
0000000001000000
0000000000000101
0000000000000000
0000000001000000
0000000000000000
,
0000000001000000
0000000000100000
0000010000000000
0000001000000000
,
0100000000000000
0000000000000000
0010000000000000
0000001000000000
1010000000000000
0000000000000000
0000010000000000
0000000000000000
,
0000011100000000
0010000000000000
1110000000000000
0000010000000000
,
0000001000000000
0000000000000000
0000000000100000
0000010000000000
0000000001000000
0000000000000000
0000010000000000
0000000000000000
,
0000000000100000
0000010000000000
0000011000000000
0000000000100000
,
0000000001100000
0000000000000000
0000010000000000
0000000000000000
0000010000000000
0000000000000000
0000000001000000
0000001000000000
,
0000000001000000
0000000000100000
0000000000000100
0000000000100000
,
0000000011000011
0000000001000000
0000000000010100
0000000000000010
,
0000000001000000
0000000000000000
0000000000100000
0000010000000000
0000001000000000
0000000000000000
0010000000000000
0000000000000000
,
0000010000000000
0000000000000000
0100000000000000
0000000000000000
0000010000000000
0000000000000000
0000001000000000
0100000000000000
,
0000001100000000
0000010000000000
0000000001000000
0000010000000000
,
0000000000110000
0000010000100000
0000010000000000
0000001000000000
,
0000000000100000
0000000001000000
0000010000000000
0000001100000000
,
1100000000000000
0000000000000000
0001010000000000
0000000000000000
0000000000000000
0000000000000000
0000001000000000
0100000000000000
,
0000001100000000
0000000000000000
0000010000000000
0000001000000000
0000010000000000
0000000000000000
0000001000000000
0000000000000000
,
0000010000000000
0000000000000000
0000000000100000
0000000001000000
0000000000100000
0000000000000000
0000000000000010
0000000000000000
,
0000000001000000
0000000000000100
0000000001000000
0000000010000000
,
0000000000000001
0000000000010100
0000000000000000
0000000000100000
,
0000000001001000
0000000000000100
0000000000001010
0000000001000000
,
0000010000000000
0010000000000000
0000001100000000
0000010000000000
,
0010000000000000
0000000000000000
0000010000000000
0010000000000000
0000010100000000
0000000000000000
0000001000000000
0000000000000000
,
0000010000000000
0000000000000000
0000000000100000
0000010000000000
0000000001000000
0000000000000000
0000000000000000
0000000000000000
;
