#TITLE:美丽新世界;
#SUBTITLE:~ Genesis;
#ARTIST:S.H.E.;
#TITLETRANSLIT:Měilì xīn shìjiè;
#SUBTITLETRANSLIT:;
#ARTISTTRANSLIT:Sammi Cheng;
#GENRE:;
#CREDIT:locuuraa;
#LYRICSPATH:;
#MUSIC:美丽新世界.ogg;
#OFFSET:-0.220;
#SAMPLESTART:12.000;
#SAMPLELENGTH:12.000;
#SELECTABLE:YES;
#BPMS:0.000=130.000;
#STOPS:;
#KEYSOUNDS:;
#BANNER:美丽新世界.png;
#BACKGROUND:美丽新世界.png;
#CDTITLE:../CDTitles/4DSS.png;
#BGCHANGES:-14.700=美丽新世界.avi=1.000=0=0=1,
229.000=美丽新世界.png=1.000=0=0=1,
99999=-nosongbg-=1.000=0=0=0 
;

#NOTES:
     ds3ddx-single:
     Easy:
     Easy:
     3:
     :
00000000
00000000
00000000
00000000
,
00000000
00000000
00000000
00000000
,
00000000
00000000
00000000
00000000
,
00000000
00000000
00000000
00000000
,
00000000
00000000
00000000
00000000
,
00000000
00000000
00010000
00000000
,
10000000
00000000
00010000
00000000
,
00000001
00000000
10000000
00000000
,
00000001
00000000
00010000
00000000
,
10000001
00000000
00000100
00000000
,
00000101
00000000
00100000
00000000
,
10100000
00000000
00000100
00000000
,
00000010
11000000
00000100
00100000
,
01000000
01000000
00000100
00100000
,
10000000
00000001
00000010
01000010
,
00010000
00010000
00100000
00100000
,
00000100
00000100
00000010
01000000
,
00000011
11000000
00000100
00100000
,
00000010
00000011
01000000
00000010
,
00100000
10100000
00000010
01000000
,
00000100
00100000
00010000
00000000
,
10000001
00000000
00000100
00010000
,
00100000
00010000
00000010
10000000
,
01000000
00000001
00000100
00100000
,
01000000
00000010
00000000
00000011
,
00000000
11000000
00000100
00010000
,
01000000
00010000
00000100
00000001
,
00100000
10000000
00000010
01000000
,
00100000
00000100
00000000
00000101
,
00000000
10100000
00100000
01000000
,
00000010
00000001
00000100
00000010
,
01000000
00100000
10000001
00000000
,
00100000
00000000
00100000
00000101
,
00000010
11000000
00000010
01000000
,
00010100
01000000
00000010
00010100
,
00100000
00000000
00000010
11000000
,
00100000
00000000
10000001
00000000
,
00011000
00000000
01000010
00000000
,
00100100
00000000
00100100
00000000
,
01000010
00000000
00000100
00100000
,
00000100
00000010
00010100
00000000
,
00110000
00000000
01000010
00000000
,
00100100
00000000
00100100
00000000
,
01000010
00000000
00000100
00100000
,
00000100
00000000
00010100
00000000
,
00110000
00000000
00011000
00000000
,
00000000
00000001
00000000
00000000
,
00000000
10000000
00000000
00000000
,
00000000
00000000
00000000
00000001
00100000
00000000
00100000
00000000
,
00000010
00000010
00100000
00000001
,
00000010
10000000
00000100
00110000
,
10000001
00000000
00100000
00000000
,
01000010
00000000
00100000
00100000
,
00000010
00000010
10000001
00000000
;
#NOTES:
     ds3ddx-single:
     Hard:
     Medium:
     3:
     :
00000000
00000000
00000000
00000000
,
00000000
00000000
00000000
00000000
,
00000000
00000000
00000000
00000000
,
00000000
00000000
00000000
00000000
,
00000000
00000000
00000000
00000000
,
00000000
00000000
00010000
00000000
,
10000000
00000000
00010000
00000000
,
00000001
00000000
10000000
00000000
,
00000001
00000000
00010000
00000000
,
10000001
00000000
00000100
00100000
,
00000101
00000101
00100000
00000100
,
10100000
10100000
00000100
01000000
,
00000010
00000000
11000011
00000000
00000100
00100000
00000100
00000000
,
01000000
00000010
01000000
00000000
00100100
00000000
00100100
00000000
,
10000001
10000001
01000010
01000010
,
00011000
00011000
00100000
00100000
,
00000100
00000100
00000010
01000000
,
00000011
00000000
11000000
00000000
00000100
00100000
00000100
00000000
,
00000011
00000000
00000011
00000000
01000000
00000010
01000000
00000000
,
10100000
00000000
10100000
00000000
00000010
01000000
00000010
00000000
,
00000100
00100100
00010000
00000000
,
10000001
00000000
00000100
00010000
,
00100000
00010000
00000010
10000000
,
01000000
00000001
00000100
00100100
,
01000000
01000010
00000011
00000011
,
11000000
11000000
00000100
00110000
,
01000000
00000000
00010010
00000000
00000100
00000000
00000001
00010000
,
00100000
00000000
10000000
00010000
00000010
00000000
01000010
00000000
,
00100000
00100100
00000101
00000101
,
10100000
10100000
00100000
01000000
,
00000010
00000101
00000100
00000010
,
01000000
00100000
10000001
00000000
,
00100000
00000000
00100000
00000101
,
00000010
11000000
00000010
01000000
,
00010100
01000000
00000010
00010100
,
00100000
00100000
00000010
11000000
,
00100000
00000000
11000101
00000000
,
00111010
00000000
01000010
00000110
,
10100100
00000001
00100100
01100000
,
01000011
10000000
00000100
00100000
,
00000100
00000000
00000000
00000000
00000010
00000000
00000000
00000000
00010100
10000000
00000000
00000000
00000000
00000000
00000000
00000000
,
00110000
00000001
00000000
00000000
00000000
00000000
00000000
00000000
01000010
00000000
00000000
00000000
00000110
00000000
00000000
00000000
,
10100100
00000001
00100100
01100000
,
01000011
10000000
00000100
00100000
,
00000100
00000000
00000000
00000000
00000010
00000000
00000000
00000000
00010100
10000000
00000000
00000000
00000000
00000000
00000000
00000000
,
00110000
00000001
00000000
00000000
00000000
00000000
00000000
00000000
00011000
00000000
00000000
00000000
00000000
00000000
00000000
00000000
,
00000000
00000001
00000000
00000000
,
00000000
10000000
00000000
00000000
,
00000000
00000000
00000000
00000001
00100000
00000100
00100000
00000100
,
01000010
01000010
00100000
00000101
,
00000010
11000000
00010100
00110000
,
10000001
00000000
00100000
00000010
,
01000010
00000000
00000000
00010000
00100000
01000000
00100000
00001000
,
00000010
00000100
00000010
00000000
11000011
00000000
00000000
00000000
;
#NOTES:
     ds3ddx-double:
     Club:
     Easy:
     4:
     :
0000000000000000
0000000000000000
0000000000000000
0000000000000000
,
0000000000000000
0000000000000000
0000000000000000
0000000000000000
,
0000000000000000
0000000000000000
0000000000000000
0000000000000000
,
0000000000000000
0000000000000000
0000000000000000
0000000000000000
,
0000000000000000
0000000000000000
0000000000000000
0000000000000000
,
0000000000000000
0000000000000000
0001000000000000
0000000000000000
,
1000000000000000
0000000000000000
0001000000000000
0000000000000000
,
0000000100000000
0000000000000000
0000000010000000
0000000000000000
,
0000000000010000
0000000000000000
0000000000000001
0000000000000000
,
0000000010000001
0000000000000000
0000000001000000
0000001000000000
,
0000010100000000
0000010100000000
0000001000000000
0000000001000000
,
0000000010100000
0000000010100000
0000010000000000
0100000000000000
,
0000001000000000
0000001100000000
0000010000000000
0000010000000000
,
0100000000000000
0100000000000000
0010010000000000
0010010000000000
,
1000000100000000
1000000100000000
0000001000000000
0000000001000000
,
0000000000010000
0000000000001000
0000000000000100
0000000000000100
,
0000000000100000
0000000000100000
0000001000000000
0100000000000000
,
0000001100000000
0000000000000000
1100000000000000
0000000000000000
0000010000000000
0010000000000000
0000010000000000
0000000000000000
,
0000001100000000
0000000000000000
0000001100000000
0000000000000000
0000000000100000
0000000001000000
0000000000100000
0000000000000000
,
0000000000000101
0000000000000000
0000000000000101
0000000000000000
0000000001000000
0000001000000000
0000000001000000
0000000000000000
,
0000010000000000
0010010000000000
0001000000000000
0000000000000000
,
1000000100000000
0000000000000000
0000010000000000
0001000000000000
,
0000000000100000
0000000000010000
0000000000000010
0000000010000000
,
0000000001000000
0000000100000000
0000010000000000
0010010000000000
,
0100000000000000
0100001000000000
0000001100000000
0000001100000000
,
0000000011000000
0000000011000000
0000000000000100
0000000000110000
,
0000000001000000
0000000000000000
0000000000010010
0000000000000000
0000000000000100
0000000000000000
0000000000100000
0000000100000000
,
0000010000000000
0000000000000000
0010000000000000
0001000000000000
0000001000000000
0000000000000000
0100001000000000
0000000000000000
,
0010000000000000
0010010000000000
0000010100000000
0000010100000000
,
0000000010100000
0000000010100000
0000000000000100
0000000001000000
,
0000001000000000
0000010100000000
0000010000000000
0000001000000000
,
0100000000000000
0010000000000000
1000000100000000
0000000000000000
,
0000010000000000
0000000000000000
0000000000100000
0000000000000011
,
0000000001000000
0000000011000000
0000000000000010
0000000001000000
,
0000000000010100
0000000000100000
0000000001000000
0000101000000000
,
0010000000000000
0010000000000000
0000001000000000
0000000011000000
,
0000000000100000
0000000000000000
0000101001000000
0000000000000000
,
0000001001001000
0000000000000000
0000010000100000
0000011000000000
,
1010010000000000
0000000100000000
0010010000000000
0110000000000000
,
0000001100000000
1000000000000000
0000010000000000
0010000000000000
,
0000010000000000
0000000000000000
0000000000000000
0000000000000000
0000001000000000
0000000000000000
0000000000000000
0000000000000000
0001010000000000
1000000000000000
0000000000000000
0000000000000000
0000000000000000
0000000000000000
0000000000000000
0000000000000000
,
0011000000000000
0000000100000000
0000000000000000
0000000000000000
0000000000000000
0000000000000000
0000000000000000
0000000000000000
0100001000000000
0000000000000000
0000000000000000
0000000000000000
0000011000000000
0000000000000000
0000000000000000
0000000000000000
,
0000010000100000
0000000100000000
0000000000100100
0000000001100000
,
0000000001000011
0000000010000000
0000010000000000
0010000000000000
,
0000010000000000
0000000000000000
0000000000000000
0000000000000000
0000001000000000
0000000000000000
0000000000000000
0000000000000000
0001010000000000
1000000000000000
0000000000000000
0000000000000000
0000000000000000
0000000000000000
0000000000000000
0000000000000000
,
0011000000000000
0000000100000000
0000000000000000
0000000000000000
0000000000000000
0000000000000000
0000000000000000
0000000000000000
0001100000000000
0000000000000000
0000000000000000
0000000000000000
0000000000000000
0000000000000000
0000000000000000
0000000000000000
,
0000000000000000
0000000100000000
0000000000000000
0000000000000000
,
0000000000000000
1000000000000000
0000000000000000
0000000000000000
,
0000000000000000
0000000000000000
0000000000000000
0000000100000000
0010000000000000
0000010000000000
0010000000000000
0000010000000000
,
0100001000000000
0100001000000000
0010000000000000
0000010100000000
,
0000001000000000
1100000000000000
0001010000000000
0011000000000000
,
1000000100000000
0000000000000000
0000010000000000
0000000000100000
,
0000001001000000
0000000000000000
0000000000000000
0001000000000000
0000010000000000
0000001000000000
0000010000000000
0000100000000000
,
0000000001000000
0000000000100000
0000000001000000
0000000000000000
0000000010100101
0000000000000000
0000000000000000
0000000000000000
;
