#TITLE:眉飞色舞;
#SUBTITLE:~ Easy with joy;
#ARTIST:郑秀文;
#TITLETRANSLIT:Méifēisèwǔ;
#SUBTITLETRANSLIT:;
#ARTISTTRANSLIT:Sammi Cheng;
#GENRE:;
#CREDIT:locuuraa;
#LYRICSPATH:;
#MUSIC:眉飞色舞.ogg;
#OFFSET:-0.060;
#SAMPLESTART:11.980;
#SAMPLELENGTH:12.000;
#SELECTABLE:YES;
#BPMS:0.000=140.100;
#STOPS:;
#KEYSOUNDS:;
#BANNER:眉飞色舞.png;
#BACKGROUND:眉飞色舞.png;
#CDTITLE:../CDTitles/4DSS.png;
#BGCHANGES:-14.700=眉飞色舞.avi=1.000=0=0=1,
229.000=眉飞色舞.png=1.000=0=0=1,
99999=-nosongbg-=1.000=0=0=0 
;

#NOTES:
     ds3ddx-double:
     Club:
     Easy:
     5:
     :
0000000000000000
0000000000000000
0000000000000000
0000000000000000
,
0000000000000000
0000000000000000
0000000000000000
0000000000000000
,
0000000000000000
0000000000000000
0000000000000000
0000000000000000
,
0000000000000000
0000000000000000
0000000000000000
0000000000000000
,
0000000000000000
0000000000000000
0000000000000000
0000000000000000
,
0000000000000000
0000000000000000
0000000000000000
0100000000000000
0000001100000000
0000000000000000
0000000000000000
0000000000000000
,
0000000000000000
0000000000000000
0000000000000000
0000000000000000
0000010000000000
0000000000110000
0000000000000000
0000000000000000
,
0000000000000000
0000000000000000
0000000000000000
0000000000000000
0000000000000010
0000000011000000
0000000000000000
0000000000000000
,
0000000000000000
0000000000000000
0000000000000000
0000000000000000
0000000000100000
0001010000000000
0000000000000000
0000000000000000
,
0100000000000000
0100000000000000
0000001000000000
0000001000000000
,
0010000000000000
0010000000000000
0000010000000000
0000001000000000
,
0000000000100000
0000000001000000
0000000000000010
0000000011000000
,
0000000000000100
0000000001000000
0000010000000000
0000001000000000
,
0000001000000000
0100001000000000
0000010000000000
0000010000000000
,
0010000000000000
0000010000000000
1010000000000000
0000000000000000
0000001000000000
0000000000000000
0000010000000000
0000000000000000
,
0000000000100000
0000010000000000
0000000000100000
0000000000000000
0000000000000100
0000000000000000
0000000000100000
0000000000000000
,
0000000000000100
0000000000100000
0000000001000000
0000000000000000
0000000000100000
0000000000000000
0000010000000000
0000000000000000
,
0000000000100000
0000010000000000
0000001000000000
0000000000000000
0100000000000000
0000000000000000
0100000000000000
0000000000000000
,
0000001000000000
0100000000000000
0001010000000000
0000000000000000
0000010000000000
0000000000000000
0010000000000000
0000000000000000
,
0010000000000000
0000001000000000
0000010000000000
0000000000000000
0000000000100000
0000000000000000
0000001001000000
0000000000000000
,
0000000000100000
0000001000000000
0000000000100000
0000000000000000
0000010000000000
0000000000000000
0000010000100000
0000000000000000
,
0000001000000000
0000000001000000
0000001000000000
0000000000000000
0000000000110000
0000000000000000
0000000000000000
0000000000000000
,
0000000000000000
0000000000000000
0000000000000010
0000000001000000
,
0000000000000100
0000000000100000
0000000000000011
0000000000000000
0000000001000000
0000000000000000
0000000001000000
0000000000000000
,
0000000000100000
0000010000000000
0000000001000000
0000000000000000
0000010000000000
0000000000000000
0000011000000000
0000000000000000
,
0010000000000000
0000001000000000
0010000000000000
0000000000000000
0100000000000000
0000000000000000
0100001000000000
0000000000000000
,
0010000000000000
0100000000000000
0010000000000000
0000000000000000
0000010000000000
0000000000000000
0001001000000000
0000000000000000
,
0010000000000000
0101000000000000
0000001000000000
0000010000000000
,
0000000000110000
0000000011000000
0000000000000100
0000000000000111
,
0000000000100000
0000010000100000
0000001000000000
0010000000000000
,
0100000000000000
1100001100000000
0000010000000000
0000010000000000
,
0010000000000000
0000001000000000
0000010000000000
0000000000000000
0000000000100000
0000000000000000
0000000001000000
0000000000000000
,
0000000000000100
0000000001000000
0000000000000100
0000000000000000
0000000011000000
0000000000000000
0000000000000010
0000000000000000
,
0000000001000000
0000000000100000
0000010000000000
0000001100000000
,
0010000000000000
0000010000000000
1010000000000000
0000000000000000
0000010000000000
0000000000000000
0000011000000000
0000000000000000
,
0010000000000000
0110000000000000
0000010000000000
0000000001100000
,
0000000000100000
0000000001000000
0000000000100000
0000000000000000
0000000000000100
0000000000000000
0000000000000100
0000000000000000
,
0000000001000000
0000000000000000
0000000000100000
0000000000000000
0000001000000000
0000000001000000
0000001000000000
0000000001000000
,
0000001000000000
0000000001000000
0000001000000000
0000000000000000
0010000000000000
0000000000000000
1010001100000000
0000000000000000
,
0000001000000000
0000011000000000
0000010000000000
0000001000000000
,
0000000000100000
0000000001000000
0000000000000011
0000000010000000
,
0000000000010000
0000000000000000
0000000010000000
0000000010000000
,
0000010000000000
0100000000000000
0000010000000000
1100000000000000
,
0010000000000000
0000001100000000
0000010000000000
0001001000000000
,
0010000000000000
0101000000000000
0000000100000000
0000010000000000
,
0000000000000000
0000000000100000
0000000000000010
0000000001000000
,
0000000000000010
0000000000000010
0000000000110000
0000000001000000
,
0000010000000000
0100000000000000
0000010000000000
0000011000000000
,
0010000000000000
0000001000000000
0100000000000000
0000010100000000
,
0000001000000000
1010000000000000
0100000000000000
0100010000000000
,
0000001000000000
0000000000000000
0000001001000000
0000000000000000
0000010000000000
0000000001000000
0000010000000000
0000000000000000
,
0000000000100000
0000010000000000
0000000000110000
0001010000000000
,
0000000000100000
0000001000100000
0000010000000000
0000000000010000
,
0000000000000000
0000000000000000
0000000000000000
0000000000000000
,
0000000000000000
0000000000000000
0000000010010001
0000000000000000
;
#NOTES:
     ds3ddx-single:
     Hard:
     Medium:
     5:
     :
00000000
00000000
00000000
00000000
,
00000000
00000000
00000000
00000000
,
00000000
00000000
00000000
00000000
,
00000000
00000000
00000000
00000000
,
00000000
00000000
00000000
00000000
,
00000000
00000000
00000000
01000000
00000011
00000000
00000000
00000000
,
00000000
00000000
00000000
00000000
00000010
11000000
00000000
00000000
,
00000000
00000000
00000000
00000000
00010100
01000000
00000000
00000000
,
00000000
00000000
00000000
00000000
00110000
00000010
00000000
00000000
,
01000000
01000000
00000010
00000010
,
00100000
00100000
00000100
00000100
,
00100000
11000000
00000100
00000011
,
01000000
00000101
00000010
10100000
,
00000010
01000010
00000100
00000100
,
00100000
00000100
10100000
00000000
00000010
00000000
00000010
00000000
,
00000010
01000000
00000011
00000000
00000100
00000000
00000100
00000000
,
00000100
00100000
01001000
00000000
00000010
00000000
01000000
00000000
,
00000100
00100000
00000101
00000000
01000000
00000000
01000000
00000000
,
00000010
01000000
00010100
00000000
00000100
00000000
00000100
00000000
,
00100000
00000100
11000000
00000000
00000010
00000000
11000011
00000000
,
00000100
01000000
00000100
00000000
00100000
00000000
00100100
00000000
,
00100000
00000010
00100000
00000000
00000011
00000000
00000000
00000000
,
00000000
00000000
01000000
01000000
,
00000100
00100000
00000011
00000000
00000010
00000000
00000010
00000000
,
00100000
00000100
11000000
00000000
00000100
00000000
00100100
00000000
,
00000100
00000010
00000100
00000000
01000000
00000000
01000010
00000000
,
00100000
01000000
00100000
00000000
00000100
00000000
00010010
00000000
,
00100000
01010000
00000010
01000000
,
00000101
11000000
00000100
00000111
,
00100000
11100000
00000010
00100100
,
01000000
11000011
00000100
00000100
,
00100000
01000000
00000011
00000000
00000100
00000000
01000000
00000000
,
00000100
01000000
00000100
00000000
11000000
00000000
00000010
00000000
,
01000000
00000100
00100000
00000011
,
00100000
00000100
10100000
00000000
00000100
00000000
00000110
00000000
,
00100000
01100000
00000100
00100100
,
01000000
11000011
00000100
00000100
,
00100000
00000000
00100000
00000000
00000010
01000000
00000010
01000000
,
00000010
01000000
00000011
00000000
00100000
00000000
10100011
00000000
,
00000100
11000101
00000100
00000010
,
00100000
01000000
00000011
10000000
,
00010000
00000000
00000001
10000001
,
01000000
01000000
00000100
11000000
,
00100000
00000011
00000100
00010010
,
00100000
01010000
00000001
00010000
,
10100000
00000001
00010100
11000000
,
00000010
00000010
00110000
00000011
,
00100000
01000000
00000100
00000110
,
00100000
00000010
01000000
00000101
,
00000010
10100000
01000000
01000100
,
00000010
11000011
00100000
00000010
,
00100000
00000100
10100000
00000101
,
00100000
10100011
00000010
01000001
,
00000000
00000000
00000000
00000000
,
00000000
00000000
10010001
00000000
;
