#TITLE:精舞门;
#SUBTITLE:~ Dance;
#ARTIST:罗志祥;
#TITLETRANSLIT:Jīng wǔ mén;
#SUBTITLETRANSLIT:;
#ARTISTTRANSLIT:Show Luo;
#GENRE:;
#CREDIT:locuuraa;
#LYRICSPATH:;
#MUSIC:精舞门.ogg;
#OFFSET:0.180;
#SAMPLESTART:11.980;
#SAMPLELENGTH:12.000;
#SELECTABLE:YES;
#BPMS:0.000=130.100;
#STOPS:;
#KEYSOUNDS:;
#BANNER:精舞门.png;
#BACKGROUND:精舞门.png;
#CDTITLE:../CDTitles/4DSS.png;
#BGCHANGES:-14.700=精舞门.avi=1.000=0=0=1,
229.000=精舞门.png=1.000=0=0=1,
99999=-nosongbg-=1.000=0=0=0 
;

#NOTES:
     ds3ddx-single:
     Hard:
     Medium:
     5:
     :
00000000
00000000
00000000
00010100
,
11000000
00000011
00000000
00000000
,
00000011
00000000
00000000
00000000
00000000
00000000
11000000
00000000
00000000
00000000
00000000
00000000
00010100
00000000
00000000
00000000
00100000
00000000
00100000
00000000
00000000
00000100
00000000
00000000
,
00100000
00000000
11000000
00000011
00000000
00000000
11000000
00000000
,
00000100
00000000
00100000
00000101
00000000
11000000
00000011
01000000
,
00000010
00000000
01000000
00010100
00000000
00000000
00000000
00000000
,
00110000
00000011
11000000
00010100
,
11000011
00000000
01000000
00000011
00000000
00000000
00000000
00000000
,
00100000
00000000
00000010
11000000
00000000
00000010
01000000
00000010
,
11000011
00000000
00000100
00100000
00000000
00000010
01000000
00000000
,
00000100
00000100
00100000
00100000
00000010
00000010
01000000
01000000
,
00000011
00110000
00000101
01000000
,
00000010
00000000
11000011
00000000
00000010
01000000
00010100
00000000
,
00100000
00000000
00100000
00000000
00000010
01000000
00000011
00000000
,
00100000
00000101
01000000
01000000
,
00000011
00000000
00000000
00000000
,
00100000
00000000
00000100
00000000
10100000
00000100
10100000
00000000
,
00000010
11000000
00000011
01000000
,
00000101
00000000
10100000
00000000
00000010
01000000
00000000
10000011
,
00000000
00100000
00000100
00110100
,
01000000
00000000
00000010
00000000
01000000
00000010
11000000
00000000
,
00000101
10100000
00000011
11000000
,
00010100
00000010
00000010
11000000
,
00010100
00100000
00000011
11000000
,
00000100
00000000
00100000
00000000
00000100
00100000
00000100
00000000
,
10100000
00000000
00000011
00000000
00000010
00000010
01000000
01000000
,
00000011
00000000
00100000
00000000
00000100
00100000
00000100
10100000
,
00000000
00000000
00000010
00000000
00100000
00000010
11000000
00000000
,
00000011
00000000
00100000
00000000
00000100
01000000
00000010
00000000
,
11000011
00000000
00000000
00000000
00000010
01000000
00010100
00000000
,
10000101
00001010
10100001
01010000
,
00000001
10000000
00000001
01000000
,
00010100
00000010
01000000
00000011
,
00100000
00000100
00100000
00000000
00000010
00000000
10100000
00000000
,
00000010
01000000
00000100
11000011
,
00000100
00000000
01000000
00000000
00000100
00100000
01001000
00000000
,
00000010
01000000
00010100
01000000
,
00000010
01000000
00000101
10100000
,
00000010
00000010
01000000
10000101
,
00000100
00000000
00000100
00000000
00100000
00000100
00001010
00000000
,
00100000
10000101
00000010
11000001
,
00010100
00000001
10000000
00000001
,
01000000
00010100
00000010
01000000
,
00000011
00000000
00100000
00000100
00100000
00000000
00000010
00000000
,
10100000
00000010
01000000
00000100
,
11000011
00000000
00000100
00000000
01000000
00000000
00000100
00100000
,
01001000
00000010
01000000
00010100
,
01000000
00000010
01000000
00000101
,
10100000
00000000
00000000
00010100
00000000
00000000
00000000
00000000
;
#NOTES:
     ds3ddx-single:
     Easy:
     Easy:
     3:
     :
00000000
00000000
00000000
00000100
,
00000000
00000010
00000000
00000000
,
00000010
00000000
00000100
00000000
,
00100000
00000000
00000000
00000011
00000000
00000000
11000000
00000000
,
00000100
00100000
00000000
00000000
,
00000010
01000000
00000000
00000000
,
00110000
00000000
00000000
00010100
,
00000000
01000000
00000000
00000000
,
00100000
00000000
00000000
01000000
00000000
00000000
00000000
00000000
,
11000011
00000000
00000000
00100000
00000000
00000010
00000000
00000000
,
00000100
00100000
00000000
00000000
,
00000011
00110000
00000000
01000000
,
00000010
00000000
00000010
00000000
,
00000000
00100000
00000010
00000000
,
00100000
00000000
01000000
00000000
,
00000011
00000000
00000000
00000000
,
00100000
00000100
00000000
00000000
,
00000010
00000000
00000011
00000000
,
00000101
00000000
00000000
00000000
00000000
00000000
00000000
10000001
,
00000000
00100000
00000100
00000000
,
01000000
00000010
00000000
00000000
,
00000101
00000000
00000000
11000000
,
00000000
00000010
00000000
11000000
,
00000000
00100000
00000000
11000000
,
00000100
00100000
00000100
00000000
,
10100000
00000000
00000000
01000000
,
00000011
00000000
00000100
00000000
,
00000000
00000010
00000000
00000000
,
00000011
00000000
00000100
00000000
,
11000000
00000000
00000010
00000000
,
10000001
00000000
10000001
00000000
,
00000000
10000000
00000000
00000000
,
00010100
00000000
01000000
00000000
,
00100000
00000000
00000010
00000000
,
00000010
01000000
00000000
00000010
,
00000000
01000000
00000000
01000000
,
00000010
01000000
00000000
01000000
,
00000000
01000000
00000000
10100000
,
00000010
00000000
01000000
10000001
,
00000000
00000100
00000000
00000010
,
00000000
10000001
00000000
10000001
,
00000000
00000001
10000000
00000001
,
01000000
00000000
00000010
01000000
,
00000000
00100000
00000000
00000000
,
10100000
00000000
01000000
00000100
,
10000000
00000000
01000000
00000100
,
00000000
00000010
01000000
00010100
,
01000000
00000000
01000000
00000000
,
00100000
00000000
00000000
00010000
00000000
00000000
00000000
00000000
;
