#TITLE:纯情;
#SUBTITLE:~ Innocence;
#ARTIST:高耀太;
#TITLETRANSLIT:Chúnqíng;
#SUBTITLETRANSLIT:;
#ARTISTTRANSLIT:Gao Yaotai;
#GENRE:;
#CREDIT:locuuraa;
#LYRICSPATH:;
#MUSIC:纯情.ogg;
#OFFSET:-0.100;
#SAMPLESTART:12.000;
#SAMPLELENGTH:12.000;
#SELECTABLE:YES;
#BPMS:0.000=137.000;
#STOPS:;
#KEYSOUNDS:;
#BANNER:纯情.png;
#BACKGROUND:纯情.png;
#CDTITLE:../CDTitles/4DSS.png;
#BGCHANGES:-14.700=纯情.avi=1.000=0=0=1,
229.000=纯情.png=1.000=0=0=1,
99999=-nosongbg-=1.000=0=0=0 
;

#NOTES:
     ds3ddx-single:
     Hard:
     Medium:
     5:
     :
00000000
00000000
00000000
00000000
,
00000000
00000000
00000000
00000000
,
00000000
00000000
00000000
00000000
,
00100000
00000101
00000100
10100000
,
00000010
11000000
01000000
00000011
,
00000100
00000100
00100000
00100000
,
00000010
00110000
01000000
00010100
,
00100000
01000010
00000100
10100010
,
01000000
00100100
00000010
01000101
,
00000100
00100000
00000010
11000000
,
00010000
00010000
00010000
10000001
,
00000010
01000000
00000100
00100000
,
00000011
00000011
11000000
11000000
,
00000100
00100000
00000100
00000011
,
01000000
00000010
00000100
11000000
,
00000100
00000100
01000000
00000011
,
00000101
00000000
10100000
00000000
00000010
01000000
00000100
00000000
,
10100000
00000010
10000000
00000001
,
00010000
10000000
00000001
00010100
,
11000000
00000010
11000000
00010101
,
00000100
00100000
00000100
10110000
,
00010100
00001010
11000000
00000011
,
01000010
10110000
00000100
00100000
,
01000000
00000010
00110000
10100101
,
00000100
00100000
00000011
01000010
,
01000000
00000000
01000000
00000000
00000100
00100000
00000100
00000000
,
10100000
10000000
00000001
00010000
,
10000000
00000000
10000000
00000000
,
00000001
10000000
00010000
00000011
,
11000000
00000000
00010101
10000000
,
00000100
10000000
00000001
00000010
,
00100000
01100000
00000100
00000110
,
00100000
00000000
00100010
00000000
00000100
01000000
00000100
00000000
,
10100000
00000100
00000010
00100000
,
01010000
00000000
00000100
00100000
,
00000100
00000101
10100000
00000011
,
01000000
00000000
10000001
00000000
00000000
00000100
00100000
00000100
,
01000000
01000000
00000011
10000000
,
00010000
00000011
00010100
00000011
,
00100000
00000000
00100000
00000000
00000010
01000000
00000100
00000000
,
00000011
00000000
11000000
00000000
00000100
00100000
00000100
00000000
,
00100000
01100000
00000100
00000110
,
01000000
00000000
00000010
00000000
00010100
11000000
00000011
01000000
,
00000100
00000100
00100000
01000011
,
00000010
01000000
00000100
00010101
,
00100000
00000100
01000000
01000000
,
00000011
01000000
00000010
00010100
,
00000010
00100000
00000100
10100011
,
01000000
00000100
00100000
11000101
,
00000100
00000000
00110100
00000000
01000000
00000010
01000000
00000010
,
11000000
00000100
00000010
01000000
,
00000100
00100000
00000101
10000000
,
01000000
00000100
01000000
10100101
,
00000100
00000001
00100000
10000000
,
00000010
01000000
00000100
00000000
00000100
00000000
10100000
00000000
,
00000100
01000000
00000100
11000011
,
00000010
01000000
00010000
11000011
,
01000000
00000000
00000010
00000000
00100000
00000100
00100000
00000100
,
11000000
00000011
01000000
00010100
,
11000011
00000000
00000000
00000000
;
#NOTES:
     ds3ddx-single:
     Easy:
     Easy:
     4:
     :
00000000
00000000
00000000
00000000
,
00000000
00000000
00000000
00000000
,
00000000
00000000
00000000
00000000
,
00100000
00000100
00000100
00100000
,
00000010
01000000
01000000
00010000
,
00000100
00000100
00100000
00100000
,
00000010
00010000
01000000
00010000
,
00100000
00000010
00000100
10100000
,
01000000
00100000
00000010
00000101
,
00000100
00100000
00000010
01000000
,
00010000
00010000
00010000
00000001
,
00000010
01000000
00000100
00100000
,
00000001
00000010
10000000
01000000
,
00000100
00100000
00000100
00000010
,
01000000
00000010
00000100
01000000
,
00000100
00000100
01000000
00000010
,
00000100
00000000
00100000
00000000
00000010
01000000
00000100
00000000
,
10000000
00000010
10000000
00000001
,
00010000
10000000
00000001
00010000
,
10000000
00000010
10000000
00010100
,
00000100
00100000
00000100
00110000
,
00010000
00000010
01000000
00000010
,
01000000
10100000
00000100
00100000
,
01000000
00000010
00100000
00100100
,
00000100
00100000
00000010
01000000
,
01000000
01000000
00000100
00000100
,
00100000
10000000
00000001
00010000
,
10000000
00000000
10000000
00000000
,
00000001
10000000
00010000
00000010
,
01000000
00000000
00000101
10000000
,
00000100
10000000
00000001
00000010
,
00100000
01000000
00000100
00000010
,
00100000
00000010
00000100
00000100
,
00100000
00000100
00000010
00100000
,
01000000
00000000
00000100
00100000
,
00000100
00000100
00100000
00000010
,
01000000
00000000
10000001
00000000
00000000
00000100
00000000
00000100
,
01000000
01000000
00000010
10000000
,
00010000
00000010
00010100
00000010
,
00100000
00000000
00100000
00000000
00000010
01000000
00000100
00000000
,
00000010
01000000
00000100
00000100
,
00100000
00100000
00000100
00000100
,
01000000
00000010
00000100
00000010
,
00000100
00000100
00100000
01000000
,
00000010
01000000
00000100
00000101
,
00100000
00000100
01000000
01000000
,
00000010
01000000
00000010
00010000
,
00000010
00100000
00000100
10000011
,
01000000
00000100
00100000
11000001
,
00000100
00000100
01000000
01000000
,
01000000
00000100
00000010
01000000
,
00000100
00100000
00000100
10000000
,
01000000
00000100
01000000
10000001
,
00000100
00000001
00100000
10000000
,
00000010
00000100
00000100
00100000
,
00000100
01000000
00000100
11000001
,
00000010
01000000
00010000
10000011
,
01000000
00000010
00100000
00100000
,
01000000
00000010
01000000
00000100
,
00000011
00000000
00000000
00000000
;
