#TITLE:미나;
#SUBTITLE:~ Answer the telephone;
#ARTIST:Mina;
#TITLETRANSLIT:;
#SUBTITLETRANSLIT:;
#ARTISTTRANSLIT:;
#GENRE:;
#CREDIT:locuuraa;
#LYRICSPATH:;
#MUSIC:미나.ogg;
#OFFSET:4.080;
#SAMPLESTART:10.960;
#SAMPLELENGTH:12.000;
#SELECTABLE:YES;
#BPMS:0.000=108.020;
#STOPS:;
#KEYSOUNDS:;
#BANNER:미나.png;
#BACKGROUND:미나.png;
#CDTITLE:../CDTitles/4DSS.png;
#BGCHANGES:-14.700=미나.avi=1.000=0=0=1,
229.000=미나.png=1.000=0=0=1,
99999=-nosongbg-=1.000=0=0=0 
;

#NOTES:
     ds3ddx-single:
     Hard:
     Medium:
     5:
     :
00000000
00000000
00000000
00000000
,
00000000
00000000
00000000
00000000
,
00000000
00000000
00000000
00000000
,
00000000
00000000
00000000
00000000
,
00000000
00000000
00000000
00000000
,
00000000
00000000
00000000
00000000
,
00000000
00000000
00000000
00000000
,
00000001
00000000
00000000
00000000
00000000
00000000
00000010
01000000
,
00000000
00000000
00000000
00010000
,
00000011
00000000
00000000
10000100
,
00000100
00000000
00100000
00000000
00010100
10000001
00010000
00000000
,
10100001
00010100
00000100
00000100
,
10000000
00001000
00000000
00000000
00000000
00000000
00011000
00000000
,
00000100
00000000
00000000
00000101
,
10100000
00000000
10000000
00000000
10100000
00000100
00000000
00000000
,
10100000
00000000
00000101
00000000
00000100
00010000
00010000
00000000
,
00000000
00000000
00000000
00000000
00000001
10000000
00000001
00000000
,
00010100
00110000
00000100
00000010
,
01000000
10000011
00000000
00000000
,
01000000
10000000
00000001
01000000
,
00110000
00010000
00100000
00100000
,
10100001
00100000
00100000
00010000
,
10100001
00100000
00100000
00010000
,
00000101
00000101
10100000
10100000
,
00010000
00110000
01000000
01000000
,
00010000
00000000
00000100
00010000
,
00110000
00010100
00110000
01010000
,
10000000
00000000
00000100
10000000
,
00000100
00000100
00100000
00000100
,
00110000
00000100
00100000
10000011
,
00000000
00000000
00000010
00000000
,
00000010
00000000
00000000
01000001
,
00010000
00000000
00001000
00000000
00010000
00001000
00010000
00000000
,
00000001
10000000
00000001
10000000
00000001
10000000
00000000
00000000
,
00000000
00000000
01000000
00100000
,
10000100
00000000
00000001
00000001
,
00000000
00000000
00100000
00100000
,
10000001
00010000
10000001
00000101
,
10000001
00010000
10000001
10100000
,
00000100
00100000
00000100
00100000
,
00000010
01000000
00000010
01000000
,
01000000
00000000
01000000
00000000
,
01000000
01000000
01000000
00000000
,
00000010
00000000
10000101
10000101
,
00010000
00000000
00010000
00001000
,
00000000
00100000
00000000
00000100
,
00000000
00100000
00000000
00010100
,
00100000
00000000
00000000
00010000
,
00100000
00000100
00000100
00000100
,
00000011
00000000
00000000
10000100
,
00000100
00000000
00100000
00000000
00010100
10000001
00010000
00000000
,
10100001
00010100
00000100
00000100
,
10000000
00001000
00000000
00000000
00000000
00000000
00011000
00000000
,
00000100
00000000
00000000
00000101
,
10100000
00000000
10000000
00000000
10100000
00000100
00000000
00000000
,
10100000
00000101
00000100
00110000
,
00100000
00000100
00000100
00000100
,
00100000
00000000
00000000
00000000
;
#NOTES:
     ds3ddx-double:
     Club:
     Easy:
     5:
     :
0000000000000000
0000000000000000
0000000000000000
0000000000000000
,
0000000000000000
0000000000000000
0000000000000000
0000000000000000
,
0000000000000000
0000000000000000
0000000000000000
0000000000000000
,
0000000000000000
0000000000000000
0000000000000000
0000000000000000
,
0000000000000000
0000000000000000
0000000000000000
0000000000000000
,
0000000000000000
0000000000000000
0000000000000000
0000000000000000
,
0000000000000000
0000000000000000
0000000000000000
0000000000000000
,
0000000100000000
0000000000000000
0000000000000000
0000000000000000
0000000000000000
0000000000000000
0000001000000000
0100000000000000
,
0000000000000000
0000000000000000
0000000000000000
0001000000000000
,
0000001100000000
0000000000000000
0000000000000000
0000000010000100
,
0000000000000100
0000000000000000
0000000000100000
0000000000000000
0000000000010100
0000000010000001
0000000000010000
0000000000000000
,
0000000010100001
0000000000010100
0000000000000100
0000000000000100
,
0000000010000000
0000000000001000
0000000000000000
0000000000000000
0000000000000000
0000000000000000
0001100000000000
0000000000000000
,
0000010000000000
0000000000000000
0000000000000000
0000010100000000
,
1010000000000000
0000000000000000
1000000000000000
0000000000000000
1010000000000000
0000010000000000
0000000000000000
0000000000000000
,
1010000000000000
0000000000000000
0000010100000000
0000000000000000
0000010000000000
0001000000000000
0001000000000000
0000000000000000
,
0000000000000000
0000000000000000
0000000000000000
0000000000000000
0000000000000001
0000000010000000
0000000000000001
0000000000000000
,
0000000000010100
0000000000110000
0000000000000100
0000000000000010
,
0000000001000000
0000000010000001
0000000000000000
0000000000000000
,
0000000001000000
0000000010000000
0000000000000001
0000000001000000
,
0000000000110000
0000000000010000
0000000000100000
0000000000100000
,
0000000010100001
0000000000100000
0000000000100000
0001000000000000
,
1000010100000000
0010000000000000
0010000000000000
0001000000000000
,
0000010100000000
0000010100000000
1010000000000000
1010000000000000
,
0001000000000000
0011000000000000
0100000000000000
0100000000000000
,
0001000000000000
0000000000000000
0000000000000100
0000000000010000
,
0000000000110000
0000000000010100
0000000000110000
0000000001010000
,
0000000010000000
0000000000000000
0000000000000100
0000000010000000
,
0001000000000000
0000010000000000
0010000000000000
0000010000000000
,
0011000000000000
0000010000000000
0010000000000000
1000001100000000
,
0000000000000000
0000000000000000
0000001000000000
0000000000000000
,
0000000001000000
0000000000000000
0000000000000000
0000000001000001
,
0000000000010000
0000000000000000
0000000000001000
0000000000000000
0000000000010000
0000000000001000
0000000000010000
0000000000000000
,
0000000000000001
0000000010000000
0000000000000001
0000000010000000
0000000000000001
0000000010000000
0000000000000000
0000000000000000
,
0000000000000000
0000000000000000
0100000000000000
0010000000000000
,
1000010000000000
0000000000000000
0000000100000000
0000000100000000
,
0000000000000000
0000000000000000
0010000000000000
0010000000000000
,
1000000100000000
0001000000000000
1000000100000000
0000010100000000
,
1000000100000000
0001000000000000
1000000100000000
1010000000000000
,
0000010000000000
0010000000000000
0000010000000000
0010000000000000
,
0000001000000000
0100000000000000
0000001000000000
0000010000000000
,
0000010000000000
0000000000000000
0000000000100000
0000000000000000
,
0000000001000000
0000000001000000
0000000001000000
0000000000000000
,
0000000000000010
0000000000000000
0000000010000101
0000000010000101
,
0000000000010000
0000000000000000
0000000000010000
0000000000001000
,
0000000000000000
0000000000100000
0000000000000000
0000010000000000
,
0000000000000000
0010000000000000
0000000000000000
0001010000000000
,
0010000000000000
0000000000000000
0000000000000000
0000000000010000
,
0000000000100000
0000000000000100
0000000000000100
0000000000000100
,
0000000000000011
0000000000000000
0000000000000000
0001010000000000
,
0000010000000000
0000000000000000
0010000000000000
0000000000000000
0001010000000000
1000000100000000
0001000000000000
0000000000000000
,
1010000100000000
0001010000000000
0000010000000000
0000010000000000
,
1000000000000000
0000100000000000
0000000000000000
0000000000000000
0000000000000000
0000000000000000
0001100000000000
0000000000000000
,
0000010000000000
0000000000000000
0000000000000000
0000000000000101
,
0000000010100000
0000000000000000
0000000010000000
0000000000000000
0000000010100000
0000000000000100
0000000000000000
0000000000000000
,
0000000010100000
0000000000000101
0000000000000100
0000000000110000
,
0000010000000000
0000000000100000
0000000000100000
0000010000000000
,
0000000000110000
0000000000000000
0000000000000000
0000000000000000
;
#NOTES:
     ds3ddx-single:
     Easy:
     Easy:
     3:
     :
00000000
00000000
00000000
00000000
,
00000000
00000000
00000000
00000000
,
00000000
00000000
00000000
00000000
,
00000000
00000000
00000000
00000000
,
00000000
00000000
00000000
00000000
,
00000000
00000000
00000000
00000000
,
00000000
00000000
00000000
00000000
,
00000001
00000000
00000000
00000000
00000000
00000000
00000010
01000000
,
00000000
00000000
00000000
00010000
,
00000010
00000000
00000000
00000100
,
00000000
00100000
00000000
00010000
,
00000000
00010000
00000000
00000100
,
10000000
00000000
00000000
00011000
,
00000000
00000000
00000000
00000101
,
00000000
10000000
00000000
00000000
,
00100000
00000000
00000100
00000000
,
00000000
00000000
00000000
00000000
00000001
10000000
00000001
00000000
,
00000000
00110000
00000000
00000010
,
00000000
10000010
00000000
00000000
,
01000000
00000000
00000001
00000000
,
00110000
00000000
00100000
00000000
,
00100000
00000000
00100000
00000000
,
00100001
00000000
00100000
00000000
,
00000100
00000100
00100000
00100000
,
00000000
00100000
00000000
01000000
,
00010000
00000000
00000100
00000000
,
00100000
00000000
00000100
00000000
,
10000000
00000000
00000100
00000000
,
00000100
00000000
00100000
00000000
,
00110000
00000000
00100000
00000000
,
00000000
00000000
00000010
00000000
,
00000010
00000000
00000000
01000000
,
00000000
00001000
00000000
00010000
,
00000001
00000000
00000001
00000000
,
00000000
00000000
01000000
00000000
,
10000100
00000000
00000001
00000000
,
00000000
00000000
00100000
00000000
,
00000001
00010000
10000000
00000000
,
10000001
00000000
00010000
00000000
,
00000100
00100000
00000100
00100000
,
00000010
01000000
00000010
01000000
,
00000000
00000000
01000000
00000000
,
01000000
00000000
01000000
00000000
,
00000010
00000000
00000100
00000100
,
00010000
00000000
00010000
00000000
,
00000000
00100000
00000000
00000100
,
00000000
00100000
00000000
00010000
,
00000000
00000000
00000000
00010000
,
00000000
00000100
00000000
00000100
,
00000000
00000000
00000000
10000100
,
00000000
00100000
00000000
00010000
,
00000000
00010000
00000000
00000100
,
00000000
00000000
00000000
00011000
,
00000000
00000000
00000000
00000101
,
00100000
00000000
00100000
00000000
,
10100000
00000100
00000000
00110000
,
00000000
00000100
00000000
00000100
,
00100000
00000000
00000000
00000000
;
