#TITLE:阿里阿里;
#SUBTITLE:~ Love You;
#ARTIST:王心凌;
#TITLETRANSLIT:Ài nǐ;
#SUBTITLETRANSLIT:;
#ARTISTTRANSLIT:Lee Jung Hyun;
#GENRE:;
#CREDIT:locuuraa;
#LYRICSPATH:;
#MUSIC:阿里阿里.ogg;
#OFFSET:0.980;
#SAMPLESTART:11.960;
#SAMPLELENGTH:12.000;
#SELECTABLE:YES;
#BPMS:0.000=144.000;
#STOPS:;
#KEYSOUNDS:;
#BANNER:阿里阿里.png;
#BACKGROUND:阿里阿里.png;
#CDTITLE:../CDTitles/4DSS.png;
#BGCHANGES:-14.700=阿里阿里.avi=1.000=0=0=1,
229.000=阿里阿里.png=1.000=0=0=1,
99999=-nosongbg-=1.000=0=0=0 
;

#NOTES:
     ds3ddx-single:
     Hard:
     Medium:
     4:
     :
00000000
00000000
00000000
00000000
,
00000000
00000000
00000000
00000000
,
00000000
00000000
00000000
00100000
,
00100000
00100000
00000100
01000000
,
01000000
01000000
00000010
00000100
,
00100000
00100000
01000000
00100000
,
00000100
00000000
00000100
00000000
00100000
00000100
00100000
00000000
,
01000000
00000000
01000000
00000000
00000010
01000000
00000010
00000000
,
00100000
00000000
00100000
00000000
00010000
10000000
00010000
00000000
,
00100000
00000010
10100000
00000011
,
01000010
00000000
00000000
00000000
00000000
00000000
00010000
10000000
,
00010000
10000000
00000100
00000000
00000100
00000000
00010000
00000001
,
00010000
00000001
00100000
00000000
00100000
00000000
00000010
00100000
,
00000010
00100000
10000000
00000000
10000000
00000000
00100000
01000000
,
00000000
00000000
00000100
00000010
01000000
00000010
10000000
00000001
,
10000000
00000001
00100100
00000000
00100100
00000000
00010000
10000000
,
00010000
00000001
01000010
00000000
01000010
00000000
00100000
00000100
,
00100000
00000010
10000000
00000000
00000001
00000000
00100000
00000100
,
00000000
00000000
01000000
00000010
00000000
00000000
00100000
00000000
,
00000100
00000000
00110000
00000000
00000010
00000010
00000100
00000000
,
00100000
00010100
00100000
01000000
,
00000010
00000100
00100000
10000000
,
00000100
00000000
00100000
00000000
00100000
00000100
01000000
00000000
,
00110000
00000000
00000100
00000000
01000000
00000010
01000000
00000000
,
00010100
00100000
00000100
00000010
,
01000000
00100000
00100000
00000100
,
10000000
00000001
00011000
00000100
,
00000100
00000000
01000000
00000000
00100000
00100000
00000100
00000000
,
00000010
00100000
00010100
00100000
,
01000000
00000100
00000010
10100000
,
00000101
10100000
00011000
00000100
,
00000100
00100000
00000100
01000000
,
00100000
00000100
01000000
00000010
,
00000100
10100000
10100000
01000000
,
00100000
00000101
00000101
00100000
,
00010100
00000010
00000101
01000000
,
10100000
00000100
00110000
01000000
,
00010100
00000010
00110000
01000000
,
00000010
00011000
10100000
10100000
,
00000101
00000101
00011000
11000000
,
11000000
00000011
00000011
00000100
,
00100000
00000000
01000000
00000000
00000010
00000000
00010000
10000000
,
00010000
00000001
10000000
10000000
10000000
00000000
00100100
00000000
,
00100100
00000000
00100000
00000010
00100000
00000000
01000010
00000000
,
01000010
00000000
00000100
01000000
00000100
00000000
00110000
00000000
,
01100000
00000000
00100000
00000100
00100000
00000000
00010100
00000000
,
00000110
00000000
00000100
00100000
00000100
00000000
10100000
00000000
,
00000101
00000000
00100000
00000010
00000100
00000000
11000000
00000000
,
00000011
00000000
01000000
00000100
01000000
00000000
00100100
00000000
,
01000010
00000000
00000110
00000000
01100000
00000000
00000100
00100000
,
00000010
01000000
10000001
00000000
00000000
00000000
00100000
00000100
,
00100000
01000000
00000100
00100000
00000100
00000010
00000010
00100000
,
00100000
00000010
00000010
01000000
01000000
01000000
00000100
00100000
,
00000100
00000010
00100000
00000100
00100000
01000000
01000000
00000100
,
00000100
01000000
01000000
00000010
00000010
00000000
00100000
00000100
,
00100000
01000000
00000100
00100000
00000100
00000010
00000010
00100000
,
00100000
00000010
00000010
01000000
01000000
01000000
00000100
00100000
,
00000100
00000010
00100000
00000100
00100000
01000000
01000000
00000100
,
00000100
01000000
01000000
00000010
00000010
00000000
11100000
00000000
;
#NOTES:
     ds3ddx-single:
     Easy:
     Easy:
     3:
     :
00000000
00000000
00000000
00000000
,
00000000
00000000
00000000
00000000
,
00000000
00000000
00000000
00100000
,
00000000
00100000
00000000
01000000
,
00000000
01000000
00000000
00000100
,
00000000
00100000
00000000
00100000
,
00000100
00000000
00100000
00100000
,
01000000
01000000
00000010
00000010
,
00100000
00100000
00010000
00010000
,
00100000
00000010
10000000
00000001
,
01000010
00000000
00000000
00010000
,
00010000
00000100
00000100
00010000
,
00010000
00100000
00100000
00000010
,
00000010
10000000
10000000
00100000
,
00000000
00000100
01000000
10000000
,
10000000
00100100
00100100
00010000
,
00010000
01000010
01000010
00100000
,
00100000
10000000
00000001
00100000
,
00000000
01000000
00000000
00100000
,
00000100
00110000
00000010
00000100
,
00100000
00010100
00100000
01000000
,
00000010
00000100
00100000
10000000
,
00000100
00000000
00100000
00000000
00100000
00000100
01000000
00000000
,
00010000
00000100
01000000
01000000
,
00010000
00100000
00000100
00000010
,
01000000
00100000
00100000
00000100
,
10000000
00000001
00001000
00000100
,
00000100
01000000
00100000
00000100
,
00000010
00100000
00000100
00100000
,
01000000
00000100
00000010
00100000
,
00000100
00100000
00010000
00000100
,
00000100
00100000
00000100
01000000
,
00100000
00000100
01000000
00000010
,
00000100
10000000
10000000
01000000
,
00100000
00000001
00000001
00100000
,
00010100
00000010
00000100
01000000
,
00100000
00000100
00100000
01000000
,
00000100
00000010
00100000
01000000
,
00000010
00000000
00100000
00100000
,
00000100
00000100
00000000
01000000
,
01000000
00000010
00000010
00000100
,
00100000
01000000
00000010
00010000
,
00010000
10000000
10000000
00000100
,
00100000
00100000
00100000
01000010
,
01000010
00000100
00000100
00010000
,
00100000
00100000
00100000
00000100
,
00000100
00000100
00000100
00100000
,
00000100
00100000
00000100
11000000
,
00000011
01000000
01000000
00100000
,
01000000
00000100
01000000
00000100
,
00000010
10000001
00000000
00100000
,
00100000
00000100
00000100
00000010
,
00100000
00000010
01000000
00000100
,
00000100
00100000
00100000
01000000
,
00000100
01000000
00000010
00100000
,
00100000
00000100
00000100
00000010
,
00100000
00000010
01000000
00000100
,
00000100
00100000
00100000
01000000
,
00000100
01000000
00000010
10100000
;
