#TITLE:讨人喜欢;
#SUBTITLE:~ Likeable;
#ARTIST:김종국;
#TITLETRANSLIT:;
#SUBTITLETRANSLIT:;
#ARTISTTRANSLIT:Kim Jong Kook;
#GENRE:;
#CREDIT:locuuraa;
#LYRICSPATH:;
#MUSIC:讨人喜欢.ogg;
#OFFSET:0.520;
#SAMPLESTART:11.980;
#SAMPLELENGTH:12.000;
#SELECTABLE:YES;
#BPMS:0.000=94.000;
#STOPS:;
#KEYSOUNDS:;
#BANNER:讨人喜欢.png;
#BACKGROUND:讨人喜欢.png;
#CDTITLE:../CDTitles/4DSS.png;
#BGCHANGES:-14.700=讨人喜欢.avi=1.000=0=0=1,
229.000=讨人喜欢.png=1.000=0=0=1,
99999=-nosongbg-=1.000=0=0=0 
;

#NOTES:
     ds3ddx-double:
     Club:
     Easy:
     5:
     :
0000000000000000
0000000000000000
0000000000000000
0100000000000000
,
0000001000000000
0000010000000000
1100000000000000
0000001000000000
,
0000010000000000
0000000000000000
0000000000100000
0000000001000000
0000000000100000
0000000000000000
0000000000000010
0000000000000000
,
0000000001000000
0000000000000000
0000000000000100
0000000000000000
0000000001000000
0000000000000010
0000000000100000
0000000000000000
,
0000000000000100
0000000000000000
0000000001000000
0000000000000100
0000000001000000
0000000000000000
0000010000000000
0000000000000000
,
0000000001000000
0000000000000000
0000001000000000
0000000000000000
0000000000100000
0000000000000000
0000001000000000
0000001000000000
,
0000000001000000
0000000000000000
0000010000000000
0000001000000000
0010000000000000
0000000000000000
0000001000000000
0000000000000000
,
0010000000000000
0000000000000000
0000001100000000
0000000000000000
0100000000000000
0100000000000000
0001010000000000
0000000000000000
,
0010000000000000
0000010000000000
0010000000000000
1010000000000000
,
0000010100000000
0000000000000000
0100000000000000
0000001000000000
0100000000000000
0000000000000000
1100000000000000
0000000000000000
,
0000001100000000
0000000000000000
0000010000000000
0000000000100000
0000000001000000
0000000000000000
0000000000000100
0000000000000000
,
0000000000100000
0000000000000001
0000000010000000
0000000000010100
,
0000000010000000
0000000000000011
0000000010000000
0000000000010000
,
0000000000010001
0000000010000000
0000000000001000
0000000001000000
,
0000010000000000
1100000000000000
0000001000000000
0001010000000000
,
1000000000000000
0000000000000000
0000000100000000
1000000000000000
0000000100000000
0000000000000000
1000000000000000
0000000000000000
,
0001000000000000
1001000000000000
0000000100000000
0100000000000000
,
0000001000000000
0000000000000000
0000010000000000
0000010000000000
0000000000100000
0000000000000000
0000000001000000
0000000000000000
,
0000000000000100
0000000000100100
0000000011000000
0000000000000010
,
0000000000010000
0000000000000000
0000000000000100
0000000000100000
0000000000000010
0000000000000000
0000000010000000
0000000000000000
,
0000000000010000
0000000000000000
0000010000000000
0000000001000000
0000010000000000
0000000000000000
0000001000000000
0000000000000000
,
0100000000000000
0000010000000000
1000000000000000
0000010000000000
,
0000000100000000
0000000000000000
0100000000000000
0000001000000000
0011000000000000
0000000000000000
0000010000000000
0000000000000000
,
0000010000000000
0010000000000000
0000001000000000
0000001100000000
,
0011000000000000
0000000000000000
0000000000100000
0000010000000000
0000000000100000
0000000000000000
0000000001000000
0000000000000000
,
0000000000000100
0000000000000000
0000000011000000
0000000000000000
0000000000000100
0000000000000000
0000000000000100
0000000000100000
,
0000000000000000
0000000000000000
0000000000000000
0000000000000101
0000000000000000
0000000000000000
0000000000000000
0000000000000000
0000000000100100
0000000000000000
0000000000000000
0000000000000000
0000000001000000
0000000000000000
0000000000000000
0000000000000000
,
0000000000100000
0000010000000000
0000001000000000
0100000000000000
,
0000000100000000
0000001000000000
0001000000000000
0100000000000000
,
0000001000000000
0000000000000000
0001000000000000
0001000000000000
0001000000000000
0000000000000000
0010000000000000
0000000000000000
,
0000001000000000
0000000000000000
0011000000000000
0000000000000000
0100000000000000
0000001000000000
0000001000000000
0000000000000000
,
0000010000000000
0000000000100000
0000010000000000
0000000000000000
0000000000010000
0000000000000000
0000000000000001
0000000000000000
,
0000000000011000
0000000000000010
0000000001000000
0000000000100000
,
0000010000000000
0000001000000000
0100000000000000
1000000000000000
,
0001000000000000
0001000000000000
0001000000000000
0000000000000000
0000000100000000
0000000000000000
1000000000000000
0000000000000000
,
0000000100000000
0001000000000000
0000010000000000
0000001100000000
,
0001000000000000
0000000000000000
0000010000000000
0000001000000000
0000010000000000
0000000000000000
0100000000000000
0000000000000000
,
0000010000000000
0100000000000000
0000010000000000
1000000000000000
,
0000001000000000
1011000000000000
0000000000000000
0000000000000000
,
0000000000000000
0000001000000000
0000000000000000
0000000000000000
,
0000000000100000
0000000000000000
0000000000000000
0000000000000001
0000000010000000
0000000000000000
0000000000000000
0000000000000000
,
0000000000000000
0000000000000000
0000000000000000
0000000000001000
0000000000000000
0000000000000000
0000000000000000
0000000000000000
0000000000000000
0000000000000000
0000000000000000
0000000000000000
0000000000000000
0000000000000000
0000000000000000
0000000000000000
,
0000000000000000
0000000000000000
0000000000000000
0000000000000000
0000000000000000
0000000000000000
0000000000000000
0000000000000000
0000000000010000
0000000010000000
0000000000000000
0000000000000000
0000000000000000
0000000000000000
0000000000000000
0000000000000000
;
#NOTES:
     ds3ddx-single:
     Hard:
     Medium:
     6:
     :
00000000
00000000
00000000
01000000
,
00000010
00000100
11000000
00000010
,
00100000
00000100
00000010
00000000
01000000
01000000
00000010
00000000
,
01000000
00000000
00000100
00000000
01000000
00000010
00100000
00100000
,
00000100
00100000
01010000
00000000
00000010
01000000
00010100
00000000
,
01000000
00000000
00000010
00000000
01000000
01000010
00000100
00000000
,
01000000
00000000
00000010
01000000
00100100
00000000
00000010
00100000
,
00000100
01000000
00000011
00000000
01000000
01000000
00010100
00000000
,
00100000
00000000
00000100
00100000
00000100
00000000
10100000
00000000
,
00000101
00000000
01000000
00000010
01000000
00000010
11000000
00000000
,
00000011
00000000
00100000
00100000
00000011
01000000
00000100
00000000
,
00100000
00000000
00000100
00000100
01000000
00000011
00100000
00000000
,
01000010
00000000
00000001
00010000
00000001
00000000
11000000
00000000
,
00010001
00000000
10000000
00000000
00001000
10000000
00000010
00000010
,
01000000
01000000
00000011
11000000
00000011
00000000
00010100
00000000
,
10000000
00000000
00000001
10000000
00000001
00000000
10000000
00000000
,
00010000
10010000
00000001
01000000
,
00000010
00000000
01000000
01000000
00000010
00000000
00100000
00000000
,
00000100
00000000
00100100
00000010
11000000
00000000
00000010
01000000
,
00000100
00100000
00000100
00100000
00100000
00000010
11000000
00000000
,
00000010
00000000
00100000
01000000
00100001
00000000
00000010
00000010
,
01000000
00000100
01000000
01000000
00000010
11000000
00000100
00000000
,
00000010
00000000
01000000
00000010
00110000
00000000
00000100
00100000
,
00000100
01000000
00100000
00000010
01000000
00000000
00000011
00000000
,
01100000
00000000
00000010
01000000
00000101
00000000
01000000
01000000
,
00000000
00000000
00000000
00000011
00000000
00000000
00000000
01000000
00000000
00000000
00000000
00000000
00000100
00000000
00100000
00000000
,
00000000
00000000
00000000
00000101
00000000
00000000
00000000
00000000
00100100
00000000
00000000
00000000
01000000
00000000
01000000
00000000
,
00000010
01000000
00000100
00000010
00100000
01000000
00000010
00000000
,
11000000
00000000
00000010
00000000
10100011
00000000
01000000
01000000
,
00000010
00000010
00100000
00100000
00000100
00000100
00100000
00000100
,
01000000
00000010
00010100
00000000
11000000
00000000
00000010
00000010
,
01000000
00000100
00000001
10000000
00010100
00000001
10000000
00000000
,
00011000
00000000
01011000
00000000
00100000
00000100
10000000
10000000
,
00000001
00000001
10000000
00010000
00000101
00000000
10000000
00000000
,
00010000
00010000
00010000
00000000
00000001
00010000
11000000
00000000
,
00000010
00000000
01000000
00000000
00000100
00110000
00000011
00000000
,
11000000
00000000
00000100
00000010
00010100
00000000
01000000
01000000
,
00000100
01000000
00000010
00010100
01000000
00000010
01000000
01000000
,
00000010
00000010
10110000
00000000
00000000
00000000
00000000
00000000
,
00000000
00000010
00000000
00000000
,
10100000
00000000
00000000
00000001
10000000
00000000
00000000
00000000
,
00000000
00000000
00000000
00001000
00000000
00000000
00000000
00000000
00000000
00000000
00000000
00000000
00000000
00000000
00000000
00000000
,
00000000
00000000
00000000
00000000
00000000
00000000
00000000
00000000
00010000
00000001
00000000
00000000
00000000
00000000
00000000
00000000
;
#NOTES:
     ds3ddx-single:
     Easy:
     Easy:
     5:
     :
00000000
00000000
00000000
01000000
,
00000010
00000100
11000000
00000010
,
00100000
00000010
01000000
00000010
,
01000000
00000100
01000000
00000010
,
00100000
01000000
00000010
00010000
,
01000000
00000100
01000010
00000100
,
01000000
00000010
00100000
00000010
,
01000000
00000000
00000011
00000000
10000000
10000000
00010100
00000000
,
00100000
00000100
00000100
10100000
,
00000101
01000000
00000001
00000010
,
10000000
00010000
00000011
00100000
,
00100000
00100100
01000000
00000011
,
01000000
00000001
10000000
00010000
,
00010001
10000000
00000001
00000010
,
01000000
00000000
00000010
01000000
00000010
00000000
00010100
00000000
,
10000000
00000000
00000001
10000000
00000001
00000000
10000000
00000000
,
00010000
10010000
00000001
01000000
,
00000010
01000000
00000010
00100000
,
00000100
00000000
00100100
00000010
01000000
00000000
00000010
00000000
,
00100000
00000100
00100000
11000000
,
00000010
00100000
01000000
00000010
,
01000000
00010000
00000010
11000000
,
00000010
00000000
01000000
00000000
00110000
00000000
00000100
00100000
,
00000100
00100000
01000000
00000011
,
00100000
00000010
01000100
01000000
,
00000000
00000000
00000000
00000011
00000000
00000000
00000000
01000000
00000000
00000000
00000000
00000000
00000100
00000000
00000000
00000000
,
00000000
00000000
00000000
00000101
00000000
00000000
00000000
00000000
00100100
00000000
00000000
00000000
01000000
00000000
00000000
00000000
,
00000010
00000100
00100000
00000010
,
11000000
00000010
10100011
01000000
,
00000010
00000000
00100000
00100000
00000100
00000000
00100000
00000100
,
01000000
00000000
00000100
00000000
01000000
00000000
00000010
00000010
,
01000000
00000100
00000100
10000001
,
00011000
01000000
00000010
10000000
,
00000000
10000000
00000001
10000000
,
00010000
00010000
00010000
00000000
00000001
00000000
10000000
00000000
,
00000010
01000000
00010000
10000000
,
00000010
00000000
00000100
00000000
00100000
00000000
01000000
01000000
,
00000100
00000010
01000000
01000000
,
00000010
10000000
00000000
00000000
,
00000000
00000010
00000000
00000000
,
10100000
00000000
00000000
00000001
10000000
00000000
00000000
00000000
,
00000000
00000000
00000000
00001000
00000000
00000000
00000000
00000000
00000000
00000000
00000000
00000000
00000000
00000000
00000000
00000000
;
