#TITLE:警告;
#SUBTITLE:~ Caution;
#ARTIST:Tashannie;
#TITLETRANSLIT:Jǐnggào;
#SUBTITLETRANSLIT:;
#ARTISTTRANSLIT:;
#GENRE:;
#CREDIT:locuuraa;
#LYRICSPATH:;
#MUSIC:警告.ogg;
#OFFSET:-0.100;
#SAMPLESTART:12.020;
#SAMPLELENGTH:12.000;
#SELECTABLE:YES;
#BPMS:0.000=110.020;
#STOPS:;
#KEYSOUNDS:;
#BANNER:警告.png;
#BACKGROUND:警告.png;
#CDTITLE:../CDTitles/4DSS.png;
#BGCHANGES:-14.700=警告.avi=1.000=0=0=1,
229.000=警告.png=1.000=0=0=1,
99999=-nosongbg-=1.000=0=0=0 
;

#NOTES:
     ds3ddx-single:
     Hard:
     Medium:
     4:
     :
00000000
00000000
00000000
00000000
,
00000000
00000000
00000000
00000000
,
00000000
00000000
00000000
00000000
,
00000000
00000000
00000000
00000000
,
10000000
10000000
00010000
00000000
01000000
01000000
00001000
00000000
,
00100000
00100000
00010000
00000000
00000100
00000100
00000010
00000000
,
00010000
00100000
01000000
10000000
00000010
00000000
00010001
00000000
,
00000100
00000100
00000100
00000000
01000000
00000000
00100000
00000000
,
10000000
00010000
10000000
00010000
01000000
00010000
00100000
01000000
,
00000000
00010000
00000000
00000100
00001000
00000010
00000000
00100000
,
00000100
00000000
00000000
00100000
00000000
01000000
01000000
01000000
,
00010000
00000000
10000000
00000000
00100000
00100000
00100000
00000000
,
00000000
00000100
10010000
00000000
00000000
00100000
00010001
00000000
,
00000010
01000000
00000100
00100000
00010000
10000000
00000001
10000000
,
00000010
00000000
01000010
00000000
00010000
00100000
00100000
00100000
,
00000100
00000000
00010000
10000000
01000000
01000000
01000000
00000000
,
00000100
00000000
00000100
10000000
00010000
00000000
00000010
01000000
,
00000010
01000000
00000001
00000000
10000000
10000000
10000000
00000000
,
00100100
01000100
01000010
00100010
,
01100000
01000010
00000110
00100100
,
11000000
01000001
11000000
00000000
10100000
10100000
10100000
00000000
,
00110000
00000000
00000110
00000000
00010100
00000000
01100000
00001000
,
00000000
00000000
00000100
00000010
01000000
00000000
00010000
00001000
,
00000000
00000000
00000001
00010000
00100000
00000100
00000010
01000000
,
00010000
00000000
10000001
00000000
00000010
00001000
00000001
00000100
,
00000110
00000000
00100000
00010000
00000100
00000001
10000000
00000000
,
01000000
00000000
00000010
00000000
,
00100000
00000000
00000100
00000000
,
10100000
11000000
10100000
00000101
,
00000011
00000101
11000000
00000011
,
00000100
00000000
00100000
00100000
10000000
00010000
10000000
00010000
,
00000001
00000000
00000000
00100000
00000000
00000000
00000000
00000000
,
00000010
00000000
00000100
00000110
,
00000101
00010010
00010100
00110000
,
01010000
10000000
00001000
00000001
,
00010000
10000000
00001000
00000001
,
00010000
00000010
01000000
00100000
,
00000100
01000000
00000010
00100000
,
00000100
11000000
01100000
00110000
,
00011000
00001100
00000110
00000011
,
00000101
00010001
10010000
00100100
,
01000000
00000010
00000100
00100000
00000001
00000000
00010000
00000000
,
00000100
00000000
10000000
10000000
00000000
00100000
00100000
00100000
,
00010000
00000000
00000000
01000000
00000010
00000100
00000100
00000100
,
10000000
10010000
01000000
00110000
,
00000100
00000010
00000100
00000000
00100000
01000000
00100000
00000000
,
10000001
00000000
00000000
00000000
00000100
01000000
01000000
01000000
,
00000010
00000000
00010000
10000000
00100000
00100000
00100000
00000000
,
00000100
00000110
00100000
01100000
,
00010000
00000100
00000010
01000000
00100000
00000000
00000001
00000000
,
10100000
00000000
00000000
00000000
;
#NOTES:
     ds3ddx-single:
     Easy:
     Easy:
     3:
     :
00000000
00000000
00000000
00000000
,
00000000
00000000
00000000
00000000
,
00000000
00000000
00000000
00000000
,
00000000
00000000
00000000
00000000
,
10000000
00010000
01000000
00001000
,
00100000
00000001
00000100
00000010
,
00010000
01000000
00000000
00000001
,
00000100
00000100
01000000
00100000
,
10000000
00000001
00010000
00100000
,
00000010
00010000
01000000
00010000
,
00000100
00000000
00100000
00000000
,
00010000
00000000
10000000
00000000
00100000
00000100
00100000
00000000
,
00000100
10000000
00100000
00000011
,
00000000
00000100
00100000
10000001
,
00000010
00000000
00010000
00000000
,
00000100
00000000
10000000
00000000
,
00000100
00000000
00000010
00000010
,
01000010
01000010
10000000
10000000
,
00010000
01000100
10000000
00000010
,
00100000
01000000
00000100
00000010
,
01000000
00010000
10000000
10000000
,
00010100
00000000
00000100
01000000
,
00000000
00000100
00000010
00000000
,
10000000
00010000
00010000
00000000
,
00010000
10000001
00000010
00000001
,
01000000
00000000
00000000
00000000
,
01000000
00000000
00000010
00000000
,
00100000
00000000
00000100
00000000
,
10100000
01000000
00000000
00000100
,
00000010
01000000
00000010
11000000
,
00000100
00000000
01000000
00000000
,
00000001
00000000
00100000
00000000
,
00000010
00000000
00000100
00010000
,
00100000
10000000
00000100
00000010
,
00100000
01000000
00000000
00000001
,
00000000
10000000
00001000
00000001
,
00000000
00000010
00000000
00100000
,
00000000
01000000
00000010
00100000
,
00000000
01000000
00000000
00000011
,
00011000
00000000
00000100
00000010
,
00100000
01000000
00010000
00000001
,
00000010
00100000
00000100
01000000
,
00000000
00000100
00000000
00100000
,
00100000
00000011
00000000
00000100
,
00000000
10000001
01000000
00010100
,
00000000
00000100
00100000
01000000
,
10000001
00000000
00000000
00000000
00000100
01000000
00000100
00000000
,
00000010
00010000
00100000
00000001
,
00000100
00000010
00100000
01000000
,
00010000
00000010
00100000
00000001
,
10000001
00000000
00000000
00000000
;
#NOTES:
     ds3ddx-double:
     Club:
     Easy:
     5:
     :
0000000000000000
0000000000000000
0000000000000000
0000000000000000
,
0000000000000000
0000000000000000
0000000000000000
0000000000000000
,
0010000000000000
0000010000000000
0000001000000000
0100000000000000
,
1010000000000000
0000010100000000
0000001000000000
0100000000000000
,
0000010000000000
0000001000000000
0000000000100000
0000000001000000
,
0000000000000010
0000000000010100
0000000001000000
0000000000000011
,
0000000001000000
0000000000110000
0000010000000000
0000000000100000
,
0000001000000000
0000000001000000
0000001001000000
0000010000000000
,
0000001000000000
0100000000000000
0100000000000000
0000010000000000
,
0001001000000000
0010000000000000
0101000000000000
0000001000000000
,
0000001000000000
0000010000000000
0000000000100000
0000001000000000
,
0000000001000000
0000000000000000
0000000000100000
0000000000000000
0000000000000100
0000000000100000
0000000000000010
0000000000000000
,
0000000001000000
0000000000000010
0000000001000000
0000000000110000
,
0000010000000000
0000000000000000
0001000000000000
0000000000000000
0100000000000000
0000001000000000
0100000000000000
0000000000000000
,
1000000000000000
0000010000000000
0100000000000000
0000010000000000
,
0000001000000000
0000000000000000
0010000000000000
0000000000000000
0000010100000000
0010000000000000
0000001000000000
0000000000000000
,
0000001000000000
0001000000000000
0000000000100000
0000000001000000
,
0000000000000010
0000000000000000
0000000000010000
0000000000000000
0000000010000000
0000000000010000
0000000000000101
0000000000000000
,
0000000000000100
0000000000000010
0000000000100000
0000000001000000
,
0000010000000000
0000000001000000
0000000000100000
0000001000000000
,
0000010000000000
0100000000000000
0000001100000000
1000000000000000
,
0000000100000000
0001010000000000
1000000000000000
1000000000000000
,
0001000000000000
0000000100000000
0000010000000000
0000001000000000
,
0000010000000000
0000000000110000
0000000001000000
0000000000000011
,
0000000001000000
0000000000011000
0000000000000100
0000000001000000
,
0000000000100000
0000000000000001
0000000000011000
0000000000000000
,
0000000000100000
0000000000000011
0000000001000000
0000000000100000
,
0000010000000000
0000001000000000
0000001000000000
0010000000000000
,
1010000000000000
0000001000000000
1000000100000000
0001000000000000
,
1000000000000000
0000000000000000
0000001100000000
0000000000000000
0010000000000000
0000001000000000
0010000000000000
0000000000000000
,
0000010000000000
0010000000000000
0000001000000000
0100000100000000
,
0000010000000000
1010000100000000
0000001000000000
0000001000000000
,
0000010000000000
0000000000100000
0000000001000000
0000000001100000
,
0000000000000001
0000000010000000
0000000000010100
0000000010000001
,
0000000000010100
0000000000100000
0000000000100000
0000000000000100
,
0000000000000100
0000000001000000
0000000000000011
0000000001000000
,
0000000000100000
0000010000000000
0000001000000000
0000000000100000
,
0000000001000000
0000010000000000
0000001000000000
0000000000100000
,
0000000000110000
0000001000000000
0000010000000000
1000000000000000
,
0001010000000000
0000000100000000
1000000000000000
0001000000000000
,
0001000000000000
0000000000000000
0000000100000000
0001000000000000
1010000000000000
0000000000000000
0000001000000000
0000000000000000
,
0100000000000000
0000001000000000
0000010000000000
0000000000100000
,
0000000001000000
0000000000000000
0000000000010000
0000000000000000
0000010000000000
0000000000000000
0000000001000000
0000000001000000
,
0000001000000000
0000000000100000
0000001000000000
0000000000100000
,
0000010000100000
0000010000000000
0000001000000000
1000000000000000
,
0001000000000000
0000000000000000
0000001100000000
0000000000000000
0010000000000000
0100000000000000
0010000000000000
0000000000000000
,
0000000100000000
0001000000000000
0000010000000000
0100000000000000
,
0000001100000000
0000010000000000
0000000000100000
0000000001000000
,
0000010000000000
0000000001000000
0000001000000000
0000010000000000
,
1010000000000000
0000010100000000
0100000000000000
0000000100000000
,
1010000000000000
0000000000000000
0000000000000000
0000000000000000
;
