#TITLE:花花公子;
#SUBTITLE:~ Playboy;
#ARTIST:3BOYS;
#TITLETRANSLIT:Huāhuā gōngzǐ;
#SUBTITLETRANSLIT:;
#ARTISTTRANSLIT:;
#GENRE:;
#CREDIT:locuuraa;
#LYRICSPATH:;
#MUSIC:花花公子.ogg;
#OFFSET:-0.080;
#SAMPLESTART:12.000;
#SAMPLELENGTH:12.000;
#SELECTABLE:YES;
#BPMS:0.000=136.000;
#STOPS:;
#KEYSOUNDS:;
#BANNER:花花公子.png;
#BACKGROUND:花花公子.png;
#CDTITLE:../CDTitles/4DSS.png;
#BGCHANGES:-14.700=花花公子.avi=1.000=0=0=1,
229.000=花花公子.png=1.000=0=0=1,
99999=-nosongbg-=1.000=0=0=0 
;

#NOTES:
     ds3ddx-single:
     Hard:
     Medium:
     5:
     :
00000000
00000000
00000000
00000000
,
00000000
00000000
00000000
01000000
,
00000000
00000000
00000000
00100000
,
00000000
00000000
00000000
11000011
,
00000000
00000000
00000000
00100000
,
00000100
00100000
00100000
00000010
,
01000000
00000010
00000010
00000100
,
00100000
00000100
00000100
01000000
,
00000010
10000000
00000001
00100000
,
00100001
00000100
10000100
00100000
,
01010000
00000100
00010010
00100000
,
01000000
00000010
00000100
00100000
,
00000010
01000000
00000100
00100100
,
00010000
01100000
00000001
01000010
,
10000000
00000110
10000000
00100000
,
00100000
00000100
01000001
00000100
,
00000100
00100000
10000010
00000010
,
00000100
01000000
00000011
01000000
,
00100000
00000010
11000000
00000100
,
00000100
00100000
00100000
01000000
,
00000010
00000100
00010000
00100000
,
10000100
00000100
00100001
00000100
,
00000110
00100000
01100000
00000010
,
00000010
01000000
00100000
00000100
,
00000110
00100000
01100000
00000010
,
01000001
01000000
10000010
01000000
,
00000011
00000010
11000000
00000100
,
01000000
00100000
01000000
00000011
,
11000000
00110000
00010100
10100001
,
00000000
00010100
00000000
10100000
,
00000000
00000011
00000000
11000000
,
00000000
00100001
00000000
10000100
,
00000000
00010010
00000000
01010000
,
00000000
01000000
00000000
00000100
,
00000000
00000010
00000000
01000000
,
00000000
00000000
00100000
00000000
00000000
00000000
00000100
10000000
,
00100000
00000001
00000000
00000000
00000000
00000000
01000000
00000000
,
01000000
00000100
00000100
00100000
,
00100000
00000010
00000010
00100000
,
01000000
00000000
00000010
00000000
00000100
00000000
00100000
00000100
,
00100000
00000100
10000001
00000000
00000000
00000000
00100000
00000000
,
00100000
00000010
00000010
00000100
,
00000100
01000000
01000000
00000100
,
00000010
00000000
01000000
00000000
00100000
00000000
00000100
00000001
,
00100000
10000000
00010000
00000000
00000000
00000000
00010000
00000000
,
10000100
00000000
00000000
00010000
,
00100001
00000000
00100000
00000100
,
00000010
00000000
01000000
00000000
00000100
00000000
00100000
00100000
,
00100000
00100000
10000100
00000000
00000000
00000000
00010000
00000000
,
00100001
00000000
00000000
00010000
,
10000100
00000000
00000100
00100000
,
01000000
00000000
00000010
00000000
00100000
00000000
00000100
00000100
,
00000100
00000100
00100001
00000000
00000000
00000000
01001000
00000000
;
#NOTES:
     ds3ddx-double:
     Club:
     Easy:
     5:
     :
0000000000000000
0000000000000000
0000000000000000
0000000000000000
,
0000000000000000
0000000000000000
0000000000000000
0000001000000000
,
0000000000000000
0000000000000000
0000000000000000
0010000000000000
,
0000000000000000
0000000000000000
0000000000000000
1100001100000000
,
0000000000000000
0000000000000000
0000000000000000
0010000000000000
,
0000010000000000
0010000000000000
0010000000000000
0000001000000000
,
0100000000000000
0000001000000000
0000001000000000
0000010000000000
,
0000000000100000
0000010000000000
0000010000000000
0100000000000000
,
0000001000000000
1000000000000000
0000000100000000
0010000000000000
,
0010000100000000
0000010000000000
1000010000000000
0010000000000000
,
0101000000000000
0000010000000000
0001001000000000
0010000000000000
,
0100000000000000
0000001000000000
0000010000000000
0000000000100000
,
0000000001000000
0000000000000010
0000000000000100
0000000000100100
,
0000000000010000
0000000001000000
0000000000000001
0000000001000010
,
0000000010000000
0000000000000010
0000000001000001
0000000000100000
,
0000000000100000
0000000000000100
0000000011000000
0000000000100000
,
0000010000000000
0010000000000000
1000001000000000
0000001000000000
,
0000010000000000
0100000000000000
0000001100000000
0100000000000000
,
0010000000000000
0000001000000000
1100000000000000
0000010000000000
,
0000010000000000
0010000000000000
0010000000000000
0100000000000000
,
0000001000000000
0000010000000000
0001000000000000
0010000000000000
,
1000010000000000
0000010000000000
0010000100000000
0000010000000000
,
0000011000000000
0000000000100000
0000000001100000
0000001000000000
,
0000001000000000
0000000001000000
0000000000100000
0000000000100000
,
0000000001100000
0000000000000100
0000000000000110
0000000000000010
,
0000000001000001
0000000001000000
0000000010000010
0000000001000000
,
0000001000000000
0000001000000000
0100000000000000
0000010000000000
,
0100000000000000
0010000000000000
0100000000000000
0000001100000000
,
1100000000000000
0011000000000000
0001010000000000
1010000100000000
,
0000000000000000
0001010000000000
0000000000000000
1010000000000000
,
0000000000000000
0000001100000000
0000000000000000
0000000011000000
,
0000000000000000
0000000000100001
0000000000000000
0000000010000100
,
0000000000000000
0000000001010000
0000000000000000
0000000000010010
,
0000000000000000
0000000001000000
0000000000000000
0000010000000000
,
0000000000000000
0000001000000000
0000000000000000
0100000000000000
,
0000000000000000
0000000000000000
0010000000000000
0000000000000000
0000000000000000
0000000000000000
0000010000000000
1000000000000000
,
0010000000000000
0000000100000000
0000000000000000
0000000000000000
0000000000000000
0000000000000000
0100000000000000
0000000000000000
,
0100000000000000
0000010000000000
0000010000000000
0000001000000000
,
0000001000000000
0000000001000000
0000000001000000
0000000000100000
,
0000000001000000
0000000000000000
0000000000000010
0000000000000000
0000000000000100
0000000000000000
0000000000100000
0000000000000100
,
0000000000100000
0000000000000100
0000000010000001
0000000000000000
0000000000000000
0000000000000000
0000000000100000
0000000000000000
,
0000000000100000
0000000001000000
0000000001000000
0000010000000000
,
0000010000000000
0100000000000000
0100000000000000
0000010000000000
,
0000001000000000
0000000000000000
0100000000000000
0000000000000000
0010000000000000
0000000000000000
0000010000000000
0000000100000000
,
0010000000000000
1000000000000000
0001000000000000
0000000000000000
0000000000000000
0000000000000000
0001000000000000
0000000000000000
,
1000010000000000
0000000000000000
0000000000000000
0000000000010000
,
0000000000100001
0000000000000000
0000000000100000
0000000000000100
,
0000000000000010
0000000000000000
0000000001000000
0000000000000000
0000000000000100
0000000000000000
0000000000100000
0000000000100000
,
0000000000100000
0000000000100000
0000000010000100
0000000000000000
0000000000000000
0000000000000000
0000000000010000
0000000000000000
,
0000000000100001
0000000000000000
0000000000000000
0001000000000000
,
1000010000000000
0000000000000000
0000010000000000
0010000000000000
,
0100000000000000
0000000000000000
0000001000000000
0000000000000000
0010000000000000
0000000000000000
0000010000000000
0000010000000000
,
0000010000000000
0000010000000000
0010000100000000
0000000000000000
0000000000000000
0000000000000000
0000001100000000
0000000000000000
;
