#TITLE:花火;
#SUBTITLE:~ Fireworks;
#ARTIST:高耀太;
#TITLETRANSLIT:Huāhuǒ;
#SUBTITLETRANSLIT:;
#ARTISTTRANSLIT:Gao Yaotai;
#GENRE:;
#CREDIT:locuuraa;
#LYRICSPATH:;
#MUSIC:花火.ogg;
#OFFSET:-0.260;
#SAMPLESTART:12.020;
#SAMPLELENGTH:12.000;
#SELECTABLE:YES;
#BPMS:0.000=142.000;
#STOPS:;
#KEYSOUNDS:;
#BANNER:花火.png;
#BACKGROUND:花火.png;
#CDTITLE:../CDTitles/4DSS.png;
#BGCHANGES:-14.700=花火.avi=1.000=0=0=1,
229.000=花火.png=1.000=0=0=1,
99999=-nosongbg-=1.000=0=0=0 
;

#NOTES:
     ds3ddx-double:
     Club:
     Easy:
     5:
     :
0000000000000000
1010000100000000
0000000000000000
0000000000000000
,
0000000000000000
0000000000000000
0000000000000000
0000000000000000
,
0000000000000000
0000010000000000
0000000000000000
0000000000000000
,
0000000000000000
0000000000000000
0000000000000000
0000000000000000
,
0000000000000000
0000000000100000
0000000000000000
0000001001000000
,
0000000000000000
0000010000000000
0000000000000000
0000001001000000
,
0000000000000000
0000010000000000
0000000000000000
0000000000100000
,
0000000000000000
0001000000000000
0000000000000000
0000000000000000
,
0000000000000000
1000001100000000
0000000000000000
0010000000000000
,
0000000000000000
0000010000000000
0000010000000000
0000010000000000
,
0000000000000000
1100000100000000
0000000000000000
0000010000000000
,
0000000000000000
0000000000100000
0000000000100000
0000000000100000
,
0000000000000000
0000000000100100
0000000000010000
0000000010000000
,
0000010000000000
0100001000000000
0001000000000000
0001000000000000
,
0001000000000000
0110000000000000
1000000000000000
0000011000000000
,
0000000100000000
0010010000000000
0000010000100000
0000001001000000
,
0000000000000000
0010000000000000
0001010000000000
0100000000000000
,
0001010000000000
0000001100000000
0000000000100000
0000000000000100
,
0000000000000000
0000000000000100
0000000000100000
0000000000000010
,
0000000000110000
0000001000000000
0100000000000000
0001000000000000
,
0000000000000000
0100000000000000
0011000000000000
0000010000000000
,
0001001000000000
0000000000000000
1000000000000000
0000000100000000
1000000000000000
0000000100000000
0010010000000000
0000000000000000
,
0000000000000000
0100000000000000
0000001000000000
0000010000000000
,
0010000000000000
0110000000000000
0010010000000000
0000011000000000
,
0000000000000000
0000000000100000
0000000001100000
0000000000000100
,
0000000000000110
0000000000100000
0000000000000100
0000000001000000
,
0000010000000000
0010000000000000
0010000000000000
0000010000000000
,
0000001000000000
0100000000000000
0010010000000000
0000001001000000
,
0000100000001000
0000000000100000
0000000000000100
0000000000000100
,
0000000010100000
0000010000000000
0001000000000000
0000001000000000
,
0100000000000000
0010000000000000
0000010000000000
0000001000000000
,
0000000001000000
0000000000100000
0000000000010100
0000000011000000
,
0000000000000000
0000000000000000
0000010000100000
0000000000000000
,
0000001001000000
0000000000000000
0000011000000000
0000000000000000
,
0000000001100000
0000000000000000
0000011000000000
0000000000000000
,
0000001001000000
0000000000000000
0010000000000000
0000001000000000
,
0010000000000000
0010000000000000
0000010000000000
0010000000000000
0000000000000000
0000000000000000
0000010100000000
0000000000000000
0000000000000000
0100000000000000
0000000000000000
0000000000000000
,
0011000000000000
0000001000000000
0000011000000000
0000000000100000
,
0000000001100000
0000000000000010
0000000001000000
0000000000000100
,
0000000000100000
0000000010000001
0000000000011000
0000000010000001
,
0000000000011000
0000000010010001
0000000000000000
0000000000000000
,
0000000000000000
0000000001000000
0000001000000000
0000010000000000
,
1010000000000000
0000001000000000
0000001000000000
0000001000000000
,
0000000000000000
0000011000000000
0000011000000000
0110000000000000
,
0110000000000000
0000010000000000
0000000000000000
0000001000000000
,
0000000000100000
0000000001000000
0000000001000000
0000000000010100
,
0000000000100000
0000000000000010
0000000001000000
0000000000000010
,
0000000000010000
0000000001000000
0000010000000000
0000001000000000
,
0100000000000000
1000000100000000
1000000100000000
1000000100000000
,
0001100000000000
0010010000000000
0010010000000000
0100001000000000
,
0100001000000000
0000000000100000
0000001000000000
0000000000100000
,
0000000000010000
0000000000100100
0000000000100100
0000000001000010
,
0000000000100100
0000010000000000
0000000000100000
0000010000000000
,
0001000000000000
0010000000000000
0100000000000000
0000010000000000
,
0000001000000000
0000000000000000
0010000000000000
0000001000000000
0100000000000000
0000010000000000
1000000100000000
0000000000000000
,
0001100000000000
0000010000000000
0000010000000000
0000000001000000
,
0000000001000000
0000000000100100
0000000000100100
0000000001000010
,
0000010000100000
0000000000000000
0001000000000000
0000000000000000
,
1000000000000000
0000000000000000
0001000000000000
0000000000000000
,
0000000100000000
0000000000000000
1001000000000000
0000000000000000
,
0000010000000000
0000000000000000
0000000000010000
0000000000000000
,
1100000000000000
0000000000000000
0000010000000000
0000000000000000
,
0010000000000000
0000000000000000
0000010000000000
0000000000000000
,
0100000000000000
0000000000000000
0010000000000000
0000000000000000
,
0000010000000000
0100001000000000
0100001000000000
0010010000000000
,
0010010000000000
1000011000000000
0000000000000000
0000000000000000
;
#NOTES:
     ds3ddx-single:
     Hard:
     Medium:
     5:
     :
00000000
10100001
00000000
00000000
,
00000000
00000000
00000000
00000000
,
00000000
00000100
00000000
00000000
,
00000000
00000000
00000000
00000000
,
00000000
00100000
00000000
00000011
,
00000000
00000100
00000000
01010000
,
00000000
00000100
00000000
00100000
,
00000000
00010000
00000000
00000000
,
00000000
10000011
00000000
00100000
,
00000000
00000100
00000100
00000100
,
00000000
11000001
00000000
00000100
,
00000000
00100000
00100000
00100000
,
00000000
00100100
00010000
00000001
,
10100000
01000010
00010000
00010000
,
00010000
01100000
10000000
00000110
,
00000001
00100100
00100100
01000010
,
00000000
00100000
00010100
01000000
,
00010100
00000011
00000011
00000011
,
00000000
00000100
00110000
00000010
,
00110000
01000000
00000010
00010000
,
00000000
01000000
00110000
00000100
,
00010010
00000000
10000000
00000001
10000000
00000001
00100100
00000000
,
00000000
01000000
00000010
00000100
,
00100000
01100000
00100100
00000110
,
00000000
00100000
01100000
00000100
,
00000110
00100000
00000100
10100000
,
00010100
00100000
00100000
00000100
,
00000010
01000000
00100100
01000010
,
10000001
00100000
00000101
00000100
,
10100000
00000101
00010000
00000010
,
01000000
00100000
00000100
00100000
,
01000000
00000010
11000000
00000011
,
00000000
00000000
00100100
00000000
,
01000010
00000000
00000110
00000000
,
00100100
00000000
01100000
00000000
,
01000010
00000000
10000001
00000000
,
00100000
00100000
00000100
00100000
00000000
00000000
00000101
00000000
00000000
01000000
00000000
00000000
,
00110000
00000010
00000110
00100000
,
01100000
01000000
00000010
00000100
,
00100000
10000001
00011000
10000001
,
00011000
10010001
00000000
00000000
,
00000000
00100000
00110000
00000100
,
00010100
11000000
11000000
11000000
,
00000000
00000110
00000110
01100000
,
01100000
00000100
01000000
00000010
,
00100000
11000000
11000000
00110000
,
00000101
00000011
00000011
00000011
,
00010000
01000000
00100000
00000100
,
00000010
10000001
10000001
10000001
,
00011000
00100100
00100100
01100000
,
01100000
00000101
00000101
00000101
,
00010000
00100100
00100100
00000110
,
00000110
01000000
01000000
00000101
,
00010000
10100000
01010000
00000101
,
00010010
00000000
00100000
00000010
01000000
00000100
10000001
00000000
,
00011000
00000101
00000101
10100000
,
10100000
01000010
01000010
00100100
,
00100100
00000000
00010000
00000000
,
10000000
00000000
00010000
00000000
,
00000001
00000000
10010000
00000000
,
00000101
00000000
00010001
00000000
,
11000000
00000000
00000100
00000000
,
00100000
00000000
00000100
00000000
,
01000000
00000000
00100000
00000000
,
00000100
01000010
01000010
00100100
,
00100100
10000110
00000000
00000000
;
