#TITLE:老鼠爱上猫;
#SUBTITLE:~ The Mouse Loves the Cat;
#ARTIST:罗智鸿;
#TITLETRANSLIT:Lǎoshǔ ài shàng māo;
#SUBTITLETRANSLIT:;
#ARTISTTRANSLIT:Luo Zhihong;
#GENRE:;
#CREDIT:locuuraa;
#LYRICSPATH:;
#MUSIC:老鼠爱上猫.ogg;
#OFFSET:1.540;
#SAMPLESTART:12.000;
#SAMPLELENGTH:12.000;
#SELECTABLE:YES;
#BPMS:0.000=141.920;
#STOPS:;
#KEYSOUNDS:;
#BANNER:老鼠爱上猫.png;
#BACKGROUND:老鼠爱上猫.png;
#CDTITLE:../CDTitles/4DSS.png;
#BGCHANGES:-14.700=老鼠爱上猫.avi=1.000=0=0=1,
229.000=老鼠爱上猫.png=1.000=0=0=1,
99999=-nosongbg-=1.000=0=0=0 
;

#NOTES:
     ds3ddx-single:
     Hard:
     Medium:
     5:
     :
00000000
00000000
00000000
00000000
,
00000001
00000001
00000001
00000001
,
10000000
10000000
10000000
10000000
,
00000001
10000000
00000001
10000000
,
00000001
00000001
10000000
10000000
,
00000100
00000100
00000100
00000100
,
00100000
00100000
00100000
00100000
,
01000000
00000010
01000000
00000010
,
01000000
01000000
00000010
00000010
,
00110000
00110000
00010100
00010100
,
11000000
11000000
00000011
00000011
,
10100000
00000101
11000000
00000011
,
10000100
10000100
00100001
00100001
,
10100000
01010000
00000011
00010100
,
00001010
11000000
00110000
00000101
,
00000100
01000000
00000010
00100000
,
00000100
00000010
01000000
00100000
,
00100100
00100100
00000110
00000110
,
00100100
00100100
01100000
01100000
,
00000100
00100100
01000000
01000010
,
00000100
01000100
00100000
00100010
,
11000000
11000000
11000000
11000000
,
00000011
00000011
00000011
00000011
,
10100000
00000101
11000000
00000011
,
01000000
00100000
00000100
00000010
,
10000001
00000000
00000000
00000000
,
00100000
00010000
00000100
00010000
,
01000000
00000010
00010000
00010000
,
00000100
10000000
00100000
00000001
,
00100100
00010000
00010000
00000000
,
01000000
00001000
00000010
00001000
,
10100000
00010000
00000000
00000000
00000000
00000000
00000000
00000000
,
01000000
00000010
00000100
00100000
,
00001000
00000001
00000000
00000000
00000000
00000000
00000000
00000000
,
00110000
10000000
00000000
00000000
00000000
00000000
00010100
00000001
00000000
00000000
00000000
00000000
,
00100010
00100010
01000100
01000100
,
00100000
00100001
00000100
10000100
,
01000000
01000001
00000010
10000010
,
00100000
00000100
01000000
00000010
,
01000000
00110000
00000010
00010100
,
01000000
01000010
00000100
00100100
,
00100000
00000100
11000000
11000000
,
00000011
00000011
00000000
10010000
,
00100000
01100000
00000100
00000110
,
00000001
10000000
00010000
00000001
,
00000010
01000000
00100000
00000100
,
10000001
00000010
01000000
00000100
,
00000110
00100000
01100000
00100000
,
00100100
00000100
00100100
01000000
,
10110000
00000010
00010101
00000011
,
11000000
00000000
00000011
00000000
00110000
10000000
00000000
00000000
,
00010100
00000001
00000000
00000000
00000000
00000000
00000000
00100000
,
00000010
01000000
00000100
00100000
00000010
01000000
00000100
00000000
,
00000001
00000001
00000001
00000001
,
10000000
10000000
10000000
10000000
,
00000100
00000110
00100000
01100000
,
00000001
00000001
10000000
10000000
,
00000101
00000101
10100000
10100000
,
01000000
11000000
00000010
00000011
,
01000000
00000010
01000000
00000010
,
01000000
01000000
00000010
00000010
,
00000100
00100000
01000000
00000010
,
00010100
00000001
00000000
00000000
00000000
00000000
00000000
00000000
;
#NOTES:
     ds3ddx-single:
     Easy:
     Easy:
     4:
     :
00000000
00000000
00000000
00000000
,
00000001
00000000
00000001
00000000
,
10000000
00000000
10000000
00000000
,
00000001
00000000
00000001
00000000
,
00000001
00000000
10000000
00000000
,
00000100
00000000
00000100
00000000
,
00100000
00000000
00100000
00000000
,
01000000
00000010
01000000
00000010
,
01000000
01000000
00000010
00000010
,
00100000
00100000
00000100
00000100
,
01000000
01000000
00000010
00000010
,
00100000
00000100
01000000
00000010
,
00000100
00000100
00100000
00100000
,
00100000
01000000
00000010
00000100
,
00000010
01000000
00100000
00000100
,
00000100
01000000
00000010
00100000
,
00000100
00000010
01000000
00100000
,
00000100
00100000
00000010
00000010
,
00100000
00100000
01000000
01000000
,
00000100
00000100
01000000
01000000
,
00000100
00000100
00100000
00100000
,
11000000
00000000
11000000
00000000
,
00000011
00000000
00000011
00000000
,
10100000
00000000
11000000
00000000
,
01000000
00100000
00000100
00000010
,
10000001
00000000
00000000
00000000
,
00100000
00000000
00000100
00000000
,
01000000
00000000
00010000
00000000
,
00000100
00000000
00100000
00000000
,
00100000
00000000
00010000
00000000
,
01000000
00000000
00000010
00000000
,
10100000
00000000
00000000
00000000
,
01000000
00000010
00000100
00100000
,
00001000
00000000
00000000
00000000
,
00110000
00000000
00010100
00000000
,
00100000
00000010
01000000
00000100
,
00100000
00000101
00000100
10100000
,
01000000
00000011
00000010
11000000
,
00100000
00000100
01000000
00000010
,
01000000
00100000
00000010
00000100
,
01000000
00000010
00000100
00100000
,
00100000
00000100
10000000
10000000
,
00000001
00000001
00000000
00010000
,
00100000
01000000
00000100
00000010
,
00000001
10000000
00010000
00000001
,
00000010
01000000
00100000
00000100
,
10000001
00000010
01000000
00000100
,
00000010
00100000
00100000
00100000
,
00000100
00000100
00000100
01000000
,
00110000
00000010
00010100
00000010
,
01000000
00000010
00110000
00000000
,
00010100
00000000
00000000
00000000
,
00000010
00000100
00000010
00000100
,
00000001
00000001
00000001
00000001
,
10000000
10000000
10000000
10000000
,
00000100
00000010
00100000
01000000
,
00000001
00000001
10000000
10000000
,
00000100
00000100
00100000
00100000
,
01000000
01000000
00000010
00000010
,
01000000
00000010
01000000
00000010
,
01000000
01000000
00000010
00000010
,
00000100
00100000
01000000
00000010
,
00010100
00000000
00000000
00000000
;
