#TITLE:爱超速;
#SUBTITLE:~ Love Override;
#ARTIST:罗百吉;
#TITLETRANSLIT:Ài chāosù;
#SUBTITLETRANSLIT:;
#ARTISTTRANSLIT:Luo Baiji;
#GENRE:;
#CREDIT:locuuraa;
#LYRICSPATH:;
#MUSIC:爱超速.ogg;
#OFFSET:0.740;
#SAMPLESTART:12.000;
#SAMPLELENGTH:12.000;
#SELECTABLE:YES;
#BPMS:0.000=141.900;
#STOPS:;
#KEYSOUNDS:;
#BANNER:爱超速.png;
#BACKGROUND:爱超速.png;
#CDTITLE:../CDTitles/4DSS.png;
#BGCHANGES:-14.700=爱超速.avi=1.000=0=0=1,
229.000=爱超速.png=1.000=0=0=1,
99999=-nosongbg-=1.000=0=0=0 
;

#NOTES:
     ds3ddx-single:
     Hard:
     Medium:
     4:
     :
00000000
00000000
00000000
00000000
,
00100000
00000100
00000000
00000000
00110000
00000000
00000000
00000000
,
00000000
00000000
00000000
10000000
00000000
00000000
00000000
00000000
,
00000001
00000000
00110000
00000000
,
00000000
00000000
00000000
00000011
00000000
00000000
00000000
00000000
,
10000000
00000000
00100000
00000000
,
00000100
00000000
00100000
00000000
,
00000010
00000000
00010100
00000000
,
00010000
00000000
00000001
00000000
01000000
00000100
01000000
00000100
,
00100000
00000010
00100000
00000100
01000000
00000000
00000010
00000000
,
01000000
01000000
00000010
01000000
00010100
00000000
01000000
00000000
,
00000010
00000010
01000000
00000000
00000100
00000000
01000000
00000000
,
00000010
01000000
00000010
00000000
00100000
00000100
00100000
00000100
,
01000000
00000010
01000000
00000010
00100000
00000000
00000101
00000000
,
00100000
00100000
00000010
01000010
,
00100000
01110000
00000100
00000010
,
11000000
00000011
00010100
10000000
,
00000001
00010100
01000000
01000000
,
00000010
00000010
00100000
00010101
,
00000100
10110000
00000100
00110100
,
01000000
11000011
00000100
00100000
,
00000011
01000000
01000000
00000100
,
00000100
00100000
00000100
01000000
,
10000010
00000000
00000010
00000000
01000000
00000010
01000000
00000010
,
00100000
00000100
00100000
00000100
01000000
00000010
01000000
00000010
,
00100000
00000100
01000000
00000010
11000000
00000000
00000000
00000000
,
00010000
00000001
01000000
01000010
,
00000100
00000110
00100000
01100000
,
00000100
10110000
00100000
00010101
,
00000100
00000000
10100101
00000000
00000010
01000000
10000100
00000000
,
00000010
00000000
01000000
00000010
01000000
00000000
00000011
00000000
,
01000000
00010100
00100000
00000011
,
01000000
01000000
00000100
00100000
00000011
00000000
01000000
00000000
,
00000010
00000000
01000011
00000000
00100000
00000100
01000000
00000010
,
00100000
00000100
00100000
00000100
01000000
00000000
00000010
00000000
,
00010100
11000000
00000011
01000000
,
00000100
10100000
00000010
00100000
,
00100100
00000000
00000010
01000000
00000010
00000000
11000000
00000000
,
00000010
00000010
00100000
01000000
,
00000010
00000100
00100000
00000010
,
00000010
00000000
01000000
00000000
00000010
01000000
00000100
01000000
,
00000010
01000000
00000010
00000000
01000000
01000000
00000010
00000010
,
00100000
00100000
00000100
00000000
01000000
00000000
00000010
00000000
,
00000010
11000000
00100000
00000100
,
00100000
00000101
00100000
01110000
,
00000100
00010110
00100000
10100010
,
00000100
00000000
01000101
00000000
01000000
00000010
01000000
00000010
,
00100000
00000100
10100000
00000000
00000100
00100000
00000100
00100000
,
00000010
01000000
00000011
00000000
00100000
01000000
00100000
01000000
,
00000100
00000010
00000100
00000000
01000000
00000010
01000000
00000000
,
00000100
00100000
11000011
00000100
,
01000000
00000010
00100000
00100000
,
00000101
00000000
01000000
00000000
01000000
00000010
00100000
00000100
,
01000000
00000010
01000000
00000010
00100000
00000100
01000000
00000010
,
00100000
00000100
01000000
00000010
11000000
00000000
00000000
00000000
,
00000010
01000000
00000000
00000000
00010000
00000000
00000000
00000000
,
10000001
00000000
00000001
00000000
,
10000000
00000000
00010000
10000000
,
00000001
10000000
00000001
00000000
,
00010000
10000000
00000100
00000000
,
10100000
00000000
00100000
00000000
,
00000011
00000000
00100000
00000000
,
00010000
00000000
00000001
00000000
00010000
00010000
00000000
00000000
,
10000000
10000000
00000000
00000000
00000101
00000000
00000000
00000000
;
