#TITLE:爱大了受伤了;
#SUBTITLE:~ Hollaback Girl (Remix);
#ARTIST:DJ冰河时代;
#TITLETRANSLIT:Ài dàle shòushāngle;
#SUBTITLETRANSLIT:;
#ARTISTTRANSLIT:DJ Ice Age;
#GENRE:;
#CREDIT:locuuraa;
#LYRICSPATH:;
#MUSIC:爱大了受伤了.ogg;
#OFFSET:-0.160;
#SAMPLESTART:11.980;
#SAMPLELENGTH:12.000;
#SELECTABLE:YES;
#BPMS:0.000=130.000;
#STOPS:;
#KEYSOUNDS:;
#BANNER:爱大了受伤了.png;
#BACKGROUND:爱大了受伤了.png;
#CDTITLE:../CDTitles/4DSS.png;
#BGCHANGES:-14.700=爱大了受伤了.avi=1.000=0=0=1,
229.000=爱大了受伤了.png=1.000=0=0=1,
99999=-nosongbg-=1.000=0=0=0 
;

#NOTES:
     ds3ddx-single:
     Hard:
     Medium:
     4:
     :
00000000
00000000
00000000
00000000
,
00100000
00100000
00000100
00000100
,
01000000
01000000
00000010
00000010
,
00100000
00000000
00000100
00000000
00100000
00000000
10000000
00000001
,
00100000
00000100
00100000
00000000
00000010
00000000
00000010
00000000
,
01000000
01000000
00100000
00000010
,
01000000
00000100
00100000
01000000
,
00000010
00000000
00000100
00000000
00100000
00000000
00000001
10000000
,
00000010
01000000
00000010
00000000
00010000
00000000
10100000
00000000
,
00000101
00110000
00110000
00000010
,
00110000
01000000
01000000
00000011
,
10000000
00000100
00000100
00110000
,
00000101
01000000
00100000
00000100
,
00000100
00000010
00000100
00100000
,
00100000
00000100
01000000
00000100
,
00100000
00000010
00100000
00000100
,
01000000
00110000
00010100
10100000
,
00000101
00000100
00000010
01000000
,
10100000
00000100
00000010
01000000
,
00100000
00010100
10100000
10100000
,
10100000
00000010
00000011
01000000
,
11000000
00100000
00000100
00100000
,
00000011
00000000
10000000
00000000
,
00010000
00000000
10000001
10000001
,
00000000
00100000
10100000
00000100
,
00110000
00000100
00000010
11000000
,
01010000
00000010
00000010
00000100
,
00000100
00100010
11000000
01000100
,
00000001
00000100
00000101
00100000
,
00010100
00100000
01000000
00000011
,
00010010
01000000
01000000
00100000
,
00100000
00100100
01000010
10000001
,
00000000
00000000
00000000
00000000
,
00000000
00100000
00000011
00000100
,
11000000
00100000
00000100
00100000
,
00000100
00010000
01000000
01000000
,
00000010
00000010
00100000
00000100
,
00010010
01000000
01000000
00000100
,
00000100
00100000
00000100
01000000
,
00000010
10000000
00000100
00100000
,
00000100
01000000
00000010
00000100
,
00110000
00000100
00000101
00100000
,
00110000
00100000
10100000
00000100
,
00010100
00100000
00000011
01000000
,
00000101
00100000
00100000
00010100
,
00110000
01000000
11000000
00000010
,
00000011
01000000
00010100
00000010
,
00110000
00000010
00010010
00100000
,
01010000
00100000
01010000
00000100
,
00010010
00000000
00000000
10000001
00000000
00000000
00000000
00000000
;
