#TITLE:爱你;
#SUBTITLE:~ Ali Ali (アリアリ);
#ARTIST:李贞贤;
#TITLETRANSLIT:Ālǐ ālǐ;
#SUBTITLETRANSLIT:;
#ARTISTTRANSLIT:Cyndi Wang;
#CREDIT:locuuraa;
#BANNER:爱你.png;
#BACKGROUND:爱你.png;
#LYRICSPATH:;
#CDTITLE:../CDTitles/4DSS.png;
#MUSIC:爱你.ogg;
#OFFSET:-0.240;
#SAMPLESTART:12.020;
#SAMPLELENGTH:12.000;
#SELECTABLE:YES;
#BPMS:0.000=100.000;
#STOPS:;
#BGCHANGES:-14.700=爱你.avi=1.000=0=0=1,
229.000=爱你.png=1.000=0=0=1,
99999=-nosongbg-=1.000=0=0=0 
;

#NOTES:
     ds3ddx-single:
     Hard:
     Medium:
     4:
     :
00000000
00000000
00000000
00000000
,
00000000
00000000
00000000
00000000
,
00000000
00000000
00000000
00000000
,
10000101
00000000
00100000
00100000
,
01000000
00000010
01000000
00000000
00000100
00000000
00000100
00000000
,
00000010
01000000
00000010
00000000
00100000
00000000
00000100
00000000
,
00100000
00000010
01000000
00000000
00000010
00000000
01000000
00000000
,
00000010
00100000
00000100
00000000
11000001
00000000
00000000
00000000
,
00000000
00000000
00010000
00000000
,
10100000
00000000
00010000
00000000
,
00000101
00000000
00001000
00000000
,
00000011
00000000
00001000
00000000
,
11000000
00000000
00000101
10100000
,
00010010
01010000
00000011
11000000
,
00000100
00100000
10000001
00000000
01010000
00000000
00010010
00000000
,
11000000
00000011
00100001
10000100
,
00001000
00001000
00001001
00000000
01000000
00000000
00000010
00000000
,
00100000
00000010
01000000
00000100
,
00000010
00100000
00000101
10100000
,
10000001
10000001
00000010
10010000
,
00010001
00000000
00100000
00100000
10000101
00000000
00000010
00000000
,
00100000
01011000
00000100
00011010
,
00100000
00010000
00000001
00000000
11000000
00000000
00000011
00000000
,
00000011
00010100
00001010
00010100
,
00100010
10000001
01000001
00010100
,
00110000
00010100
00000010
01000000
,
00000101
00110001
10000011
00100010
,
00100100
00000000
01000010
00000000
00110000
00000001
00001000
10000000
,
00010100
00000000
00000100
00000101
,
00100000
10100000
00000100
00000110
,
00100000
01100000
00000100
11000000
,
00000010
10100000
00000010
01000000
,
10000001
00011000
00000011
11000000
,
00000011
00000011
10100000
00000101
,
10100000
10100000
01010000
00010100
,
10100000
00000011
00010000
00010000
,
11000011
00000000
00010010
00110000
,
00000101
11000000
00010000
00010000
,
10000000
00001000
00000001
00010000
00000100
00000100
00000000
00000000
,
00100000
00100000
00000000
00000000
10000011
00000000
00000000
00000000
;
#NOTES:
     ds3ddx-single:
     Easy:
     Easy:
     2:
     :
00000000
00000000
00000000
00000000
,
00000000
00000000
00000000
00000000
,
00000000
00000000
00000000
00000000
,
10000001
00000000
00100000
00100000
,
01000000
01000000
00000100
00000100
,
00000010
00000010
00100000
00000100
,
00100000
01000000
00000010
01000000
,
00000010
00000100
10000001
00000000
,
00000000
00000000
00010000
00000000
,
10000000
00000000
00010000
00000000
,
00000001
00000000
00001000
00000000
,
00000001
00000000
00001000
00000000
,
10000000
00000000
00000100
00100000
,
00000010
01000000
00000010
01000000
,
00000100
00000001
01000000
00000010
,
01000000
00000010
00100000
00000100
,
00010000
00000001
01000000
00000010
,
00100000
00000010
01000000
00000100
,
00000010
00100000
00000001
00100000
,
00000001
10000000
00000010
00010000
,
00010000
00100000
10000001
00000010
,
00100000
01000000
00000100
00000010
,
00100000
00000001
10000000
00000001
,
00000001
00000100
00000010
00000100
,
00000010
10000000
01000000
00000100
,
00100000
00000100
00000010
01000000
,
00000100
00100001
10000010
00100000
,
00000100
00000010
00100000
00000000
,
00010100
00000000
00000100
00000101
,
00100000
10100000
00000100
00000110
,
00100000
01100000
00000100
01000000
,
00000010
00100000
00000010
01000000
,
00000000
00000000
00000010
01000000
,
00000010
00000010
00100000
00000100
,
00100000
00100000
01000000
00000100
,
00100000
00000010
00000000
00000000
,
10000001
00000000
00000010
00100000
,
00000100
01000000
00000000
00000000
,
10000000
00000001
00000100
00000000
,
00100000
00000000
10000001
00000000
;
#NOTES:
     ds3ddx-double:
     Club:
     Easy:
     3:
     :
0000000000000000
0000000000000000
0000000000000000
0000000000000000
,
0000000000000000
0000000000000000
0000000000000000
0000000000000000
,
0000000000000000
0000000000000000
0000000000000000
0000000000000000
,
1000010100000000
0000000000000000
0010000000000000
0010000000000000
,
0100000000000000
0000001000000000
0100000000000000
0000000000000000
0000001000000000
0000000000000000
0000001000000000
0000000000000000
,
0000010000000000
0000000000100000
0000010000000000
0000000000000000
0000000000000100
0000000000000000
0000000001000000
0000000000000000
,
0000000000000100
0000000001000000
0000000000000100
0000000000000000
0000001000000000
0000000000000000
0000000001000000
0000000000000000
,
0000001000000000
0000000001000000
0000001000000000
0000000000000000
1100000000000000
0000000000000000
0000000000000000
0000000000000000
,
0000000000000000
0000000000000000
0001000000000000
0000000000000000
,
1010000000000000
0000000000000000
0001000000000000
0000000000000000
,
0000010100000000
0000000000000000
0001010000000000
0000000000000000
,
0000000000110000
0000000000000000
0000100000000000
0000000000000000
,
1100000000000000
0000000000000000
0000010100000000
1010000000000000
,
0001001000000000
0101000000000000
0000001100000000
0000010000000000
,
0000000000100000
0000010000000000
0000000000100000
0000000000000000
0000000000000101
0000000000000000
0000000000001000
0000000000000000
,
0000000000100000
0000000000000000
0000000001000000
0000000000000000
0000010000000000
0000000000000000
0000001000000000
0100000000000000
,
0000001000000000
0000000000000000
0100000000000000
0000001000000000
,
0010000000000000
0000001000000000
0100000000000000
0000010000000000
,
0000001000000000
0000000000100000
0000000001000000
0000010000000000
,
0000010000100000
0000001001000000
0000001000000000
0000000000100000
,
0000000001000000
0000000000000000
0000000000000010
0000000001000000
0000000000000010
0000000000000000
0000000001000000
0000000000000000
,
0000000000100000
0000010000000000
0000001001000000
0000001000000000
,
0000000000100000
0000001000000000
0000000000100000
0000000000000000
0000010000000000
0000000000000000
0000001000000000
0000000000000000
,
0000000000100000
0000000001000000
0000001000000000
0000010000000000
,
0100000000000000
0000010000000000
0100000000000000
0000000000000000
1000000000000000
0000000000000000
0001010000000000
0000000000000000
,
0011000000000000
0001010000000000
0000001000000000
0100000000000000
,
0000001000000000
0000011000000000
0000010000100000
0000000001100000
,
0000000001000010
0000000000000000
0000000000000110
0000000000000000
0000000000110000
0000000000000000
0000000001000000
0000000000100000
,
0000010000000000
0000000000000000
0000010000000000
0000010100000000
,
0010000000000000
1010000000000000
0000010000000000
0000011000000000
,
0000000000100000
0000010000100000
0000000000100000
0000101000000000
,
0000010000000000
0000000001001000
0000000001000000
0000001000000000
,
1000000000000000
0001000000000000
0000001100000000
1100000000000000
,
0000001100000000
0000010000000000
0000000001000000
0000001000000000
,
0000000000000100
0000000010000001
0000000001010000
0000000000000101
,
0000000010100000
0000000001000000
0000001000000000
0000000000000000
,
1100001100000000
0000000000000000
0001001000000000
0011000000000000
,
0000010100000000
1100000000000000
0000001000000000
0000010000000000
,
0000000000100000
0000000001000000
0000000000000011
0000000000000000
0000000001000000
0000000001000000
0000000000000000
0000000000000000
,
0000000000000010
0000000000000010
0000000000000000
0000000000000000
0000000010100001
0000000000000000
0000000000000000
0000000000000000
;
#NOTES:
     ds3ddx-single:
     Easy:
     Easy:
     1:
     :
00000000
00000000
00000000
00000000
;
