#TITLE:温馨一刻;
#SUBTITLE:~ A warm moment;
#ARTIST:劲乐团;
#TITLETRANSLIT:Wēnxīn yīkè;
#SUBTITLETRANSLIT:;
#ARTISTTRANSLIT:Power Band;
#GENRE:;
#CREDIT:locuuraa;
#LYRICSPATH:;
#MUSIC:温馨一刻.ogg;
#OFFSET:0.280;
#SAMPLESTART:11.660;
#SAMPLELENGTH:12.000;
#SELECTABLE:YES;
#BPMS:0.000=122.000;
#STOPS:;
#KEYSOUNDS:;
#BANNER:温馨一刻.png;
#BACKGROUND:温馨一刻.png;
#CDTITLE:../CDTitles/4DSS.png;
#BGCHANGES:-14.700=温馨一刻.avi=1.000=0=0=1,
229.000=温馨一刻.png=1.000=0=0=1,
99999=-nosongbg-=1.000=0=0=0 
;

#NOTES:
     ds3ddx-single:
     Hard:
     Medium:
     4:
     :
00000000
00000000
00000000
00100000
,
10110000
00000100
00010101
01000000
,
10000010
00000010
01000001
00010100
,
01000000
00000000
00000010
01000000
00000101
00000000
10100000
00000000
,
00000101
00000000
00100000
00000100
11000000
00000000
00000010
00000000
,
00000001
00000000
01000000
00000010
00100000
00000100
10100000
00000000
,
00000100
00000000
00100000
01000000
01110000
00000000
00000100
00000000
,
00001010
00000000
01000000
01000000
00000010
00000000
00110000
10000000
,
00000010
01000000
00000100
00000000
00110100
00000000
00100000
00000000
,
00000100
00000000
01000000
00000010
01000000
00000100
00100000
00000000
,
00000011
00000000
00100000
00000000
00100010
00000000
00000100
01000000
,
00000101
00000000
01000000
00000000
00000010
00000000
10000000
00010000
,
00000101
00100000
00000010
00000000
01000000
00000000
00000101
00000000
,
00100000
00000000
00100101
00000000
01000000
01000000
00000010
00000000
,
00000101
00100000
01100000
00000100
,
00010010
00000000
10000000
00000001
00110000
00000000
00000100
00000000
,
11000000
00000000
00000010
01000000
00000100
00100000
00000101
00000000
,
10100000
00010100
00000101
01000000
,
11000011
00000000
00000100
00000010
00010100
00000000
00100000
00100000
,
00000010
00000000
00000000
01000000
00000011
00000000
00000000
00000000
00000000
00000000
00000000
00000000
00100000
00000000
00000000
00000000
00000000
00000000
00000100
00000000
00000000
00000000
00000000
00000000
,
01000000
00000011
01000000
00000011
,
00010100
00000000
00100000
00000010
11000000
00000010
01000000
00000000
,
00000100
00100000
10110000
00000100
,
01000000
00100000
01110000
00000100
,
00010010
10000000
00000011
00010100
,
00100000
00000001
10000000
00010100
,
00010000
00000000
00010000
00000000
00000001
10000000
00010100
00000000
,
01000000
00000000
00000010
01000000
00010100
00000000
01000000
00000000
,
00000001
00000010
10000000
00010000
,
10100101
00100000
00100000
00000010
,
01000000
00000000
00000100
00000000
00000101
00000000
00100000
01000000
,
00100000
00000000
00000010
00000000
01000000
00000000
00010000
10000000
,
00000101
00000000
00000001
10000000
00010100
00000000
01000000
00000000
,
00000100
00000000
00100000
00000100
00100000
00000010
01000000
00000000
,
00000101
00000000
10000000
00000001
00110000
00000000
01000000
00000000
,
00000100
00000000
00000100
01000000
11000101
00000000
00000010
00000010
,
01000000
01000000
00000100
00000000
00100000
00000000
00000011
00000000
,
10000000
00000001
00010000
10100000
,
00000101
00000000
10000000
00000001
11000000
00000000
00000011
00000000
,
00100000
10100100
00000101
01000000
,
00000100
10100000
00000011
00110000
,
10000000
00000000
00000011
00000000
00100000
01000000
00100000
00000000
,
00000100
01000000
00000011
00010100
,
10000000
00000011
01000000
00100100
,
01100000
01000010
00000110
00110100
,
01000000
00000000
01000000
00000000
00000011
01000000
00000101
00000000
,
00100000
00000000
00000100
00100000
00000101
00000000
01000000
01000000
,
00000010
00000000
00000000
01000000
00000011
00000000
00000000
00000000
00000000
00000000
00000000
00000000
00100000
00000000
00000000
00000000
00000000
00000000
00010101
00000000
00000000
00000000
00000000
00000000
,
00000001
10000000
00010100
00000000
00100000
00000000
01000000
00000000
,
00000100
00000010
01000000
00000010
,
10100000
00000000
00000100
00000000
10100101
00000000
00000100
00000100
,
00100000
00000000
00000000
00000100
11000000
00000000
00000000
00000000
00000000
00000000
00000000
00000000
00000010
00000000
00000000
00000000
00000000
00000000
10000000
00000000
00000000
00000000
00000000
00000000
,
00000001
00010000
00010101
11000000
,
00000010
01000000
00000100
10100000
;
