#TITLE:派对动物;
#SUBTITLE:~ Party Animal;
#ARTIST:方杰;
#TITLETRANSLIT:Pàiduì dòngwù;
#SUBTITLETRANSLIT:;
#ARTISTTRANSLIT:Fang Jie;
#GENRE:;
#CREDIT:locuuraa;
#LYRICSPATH:;
#MUSIC:派对动物.ogg;
#OFFSET:1.400;
#SAMPLESTART:11.440;
#SAMPLELENGTH:12.000;
#SELECTABLE:YES;
#BPMS:0.000=106.980;
#STOPS:;
#KEYSOUNDS:;
#BANNER:派对动物.png;
#BACKGROUND:派对动物.png;
#CDTITLE:../CDTitles/4DSS.png;
#BGCHANGES:-14.700=派对动物.avi=1.000=0=0=1,
229.000=派对动物.png=1.000=0=0=1,
99999=-nosongbg-=1.000=0=0=0 
;

#NOTES:
     ds3ddx-single:
     Hard:
     Medium:
     4:
     :
00000000
00000000
00000000
00000000
,
00000000
00000000
00000000
00000000
,
00000000
00000000
00000000
00000000
,
00000000
00000000
00000000
00000000
,
00000000
00000000
00000000
10100000
,
00000101
00000000
01000000
00000010
10100000
00000000
00000100
00000000
,
00010010
00100000
01010000
00000010
,
11000000
00000000
01000000
00000010
00110000
00000000
00010100
00000000
,
00000101
11000000
00000010
01000000
,
00000100
00000000
00100000
10000000
00100000
00000000
00000100
00010000
,
00000100
00000000
01000000
00000010
01000000
00000000
00000010
00000010
,
01000000
00000000
00100000
00000100
00001010
00000000
01000000
00000000
,
00000010
10100000
00000101
00100000
,
01000000
00000100
00000010
10000000
,
00000001
00000000
00100000
00000100
00100000
00000000
00000010
00000010
,
01000000
00000100
01000000
00000100
,
00000101
00000000
01000000
00000010
11000000
00000000
00000100
00000000
,
00110000
00000010
01000000
00000100
,
11000001
00010000
00000000
00000100
,
11000000
00000100
00000010
01000000
,
00000011
00000000
00010000
00000000
00010000
00000000
01000000
01000000
,
00000101
00000000
00100000
00000100
10100000
00000000
00000010
00000000
,
01000000
00000000
00010100
00000000
00000101
00000000
01000000
00000010
,
00110000
00000100
00100010
00100000
,
11100000
00000010
01000000
00000100
,
00000011
00000000
00100000
00000100
11000000
00000000
00000010
00000010
,
01000000
00000000
00000100
00100000
00000011
00000000
00100000
00000000
,
10000000
00000100
00000001
10000000
,
00000001
00010100
01000000
00000100
,
00000011
01000000
00000100
00100000
,
11000000
00000100
00100001
01000000
,
10000010
00000000
00000100
00100000
00000100
00100000
00000011
00000000
,
01000000
00000000
00000100
00100000
00000010
00100000
00000101
00000000
,
01000000
00000010
01000000
00010100
,
00000001
00000000
01000000
00000010
00100000
00000100
10100000
00000000
,
00000100
00100000
00000011
10000000
,
00010000
00000010
01000000
00010000
,
00010000
00000000
01000000
00000010
11000000
00000000
00000001
10000000
,
00010100
00000000
00100000
00010000
00000010
00000000
01000000
01000000
,
00000011
00000000
00000100
00010000
00100000
00010000
00000101
00000000
,
01000000
00000000
00000100
00000000
00010110
00000000
01000000
00000010
,
00100000
00000000
00100000
00000100
10100000
00000000
00000010
00000000
,
01000001
00000000
00010100
00000000
00000010
00000000
01000000
01000000
,
00000010
00000000
01000000
00000010
11000000
00000000
00010000
00000000
,
00010000
00000000
00000100
00000100
10100000
00000000
00000000
00000000
,
00000000
00000000
10000001
00000000
;
