#TITLE:本草纲目;
#SUBTITLE:~ Compendium of Materia Medica;
#ARTIST:周杰伦;
#TITLETRANSLIT:Běncǎo gāngmù;
#SUBTITLETRANSLIT:;
#ARTISTTRANSLIT:Jay Chou;
#GENRE:;
#CREDIT:locuuraa;
#LYRICSPATH:;
#MUSIC:本草纲目.ogg;
#OFFSET:1.560;
#SAMPLESTART:11.960;
#SAMPLELENGTH:12.000;
#SELECTABLE:YES;
#BPMS:0.000=100.900;
#STOPS:;
#KEYSOUNDS:;
#BANNER:本草纲目.png;
#BACKGROUND:本草纲目.png;
#CDTITLE:../CDTitles/4DSS.png;
#BGCHANGES:-14.700=本草纲目.avi=1.000=0=0=1,
229.000=本草纲目.png=1.000=0=0=1,
99999=-nosongbg-=1.000=0=0=0 
;

#NOTES:
     ds3ddx-single:
     Hard:
     Medium:
     3:
     :
00000000
00000000
00000000
00000000
,
00000000
00000000
00000000
00000000
,
00000000
00000000
00000000
00000000
,
00000000
00000000
00000000
00000000
,
00000000
00000000
00000000
00000100
,
00100000
00000101
10100000
00000010
,
01000000
00000011
11000000
00000100
,
00000011
00100000
11000000
00000100
,
00100000
00000000
00000010
01000000
00000011
00000000
00100000
00000000
,
00000100
01000000
00000010
00000100
,
10100000
01000000
00000101
00000010
,
01000000
00000000
00000100
00100000
00000101
00000000
00000100
00000000
,
01000000
00000000
00000100
00100000
01010000
00000000
00000100
00000000
,
01000000
00000010
00000010
10100000
,
00000010
00000000
00000100
00100000
01001000
00000000
00000011
00000000
,
11000000
00000100
00000100
01000000
,
11000011
00000000
00000100
01000000
00000100
00000000
10100000
00000000
,
01000000
00000101
00000010
00100000
,
00000100
01000010
10000011
00000100
,
00110011
01000000
11010100
01000000
,
00000010
00000011
11000000
00000100
,
00100000
00000000
00000010
01000000
00000011
00000000
01000000
00000000
,
00000010
00000000
00100000
00000100
10100000
00000000
00000010
00000000
,
00000011
01000000
11000000
00000100
,
00100000
00000000
00000010
01000000
00010100
00000000
00000100
00000000
,
00000111
00100000
11100000
00000010
,
01000000
00000000
00000100
00100000
01011000
00000000
00000100
00000000
,
00011010
00100000
01011000
00000010
,
01000000
00000000
00000100
00100000
00000011
00000000
01000000
00000000
,
00000010
00000000
01000000
00000010
11000000
00000000
00000010
00000000
,
01000000
00000000
00000100
00100000
01001000
00000000
00000010
00000000
,
01000000
00000000
00000010
01000000
00010010
00000000
00000100
00000000
,
00100000
00000000
00000100
00100000
01010000
00000000
00000010
00000000
,
01000000
00000000
00000010
00000010
11000000
00000000
01000000
00000000
,
00000010
00000000
01000000
01000000
00000011
00000000
00000100
00000000
,
00100000
00000000
00000100
00100000
00000101
00000000
01000000
00000000
,
00000010
00000000
01000000
00000010
11000000
00000000
00010100
00000000
;
#NOTES:
     ds3ddx-single:
     Easy:
     Easy:
     2:
     :
00000000
00000000
00000000
00000000
,
00000000
00000000
00000000
00000000
,
00000000
00000000
00000000
00000000
,
00000000
00000000
00000000
00000000
,
00000000
00000000
00000000
00000100
,
00100000
00000010
01000000
00000010
,
01000000
00000100
00100000
00000100
,
00000010
00100000
01000000
00000100
,
00100000
00000010
11000000
00000000
,
00000101
00000000
00000010
00000000
,
10100000
00000000
00100000
00000010
,
01000000
00000000
10100000
00000100
,
01000000
00000100
00000000
00000100
,
01000000
00000010
00000010
00100000
,
00000011
00000000
00000000
00000011
,
01000000
00000100
00010000
01000000
,
01000010
00000001
00000000
00100000
,
01000000
00000100
00000010
00000000
,
00000100
00000000
11000011
00000100
,
00100010
01000000
01000100
01000000
,
00000010
00000010
01000000
00000100
,
00100000
00000000
00000011
01000000
,
00000010
00000000
10100000
00000010
,
00000011
00000000
11000000
00000100
,
00100000
00000010
00010000
00000100
,
00000010
00100000
01000000
00000010
,
01000000
00000100
00011000
00000100
,
01000000
00100000
00000010
00000010
,
01000000
00000100
00000011
01000000
,
00000010
00000010
01000000
00000010
,
00000100
00100000
00000010
00000010
,
01000000
00000000
00000010
01000000
00000010
00000000
00000100
00000000
,
00110000
00000001
10000000
00010000
,
01000000
00000000
00000010
00000010
01000000
00000000
01000000
00000000
,
00000010
00000000
01000000
01000000
00000011
00000000
00000100
00000000
,
00100000
00000100
00100000
00000011
,
00000010
01000000
11000000
00010100
;
#NOTES:
     ds3ddx-double:
     Club:
     Easy:
     3:
     :
0000000000000000
0000000000000000
0000000000000000
0000000000000000
,
0000000000000000
0000000000000000
0000000000000000
0000000000000000
,
0000000000000000
0000000000000000
0000000000000000
0000000000000000
,
0000000000000000
0000000000000000
0000000000000000
0000000000000000
,
0000000000000000
0000000000000000
0000000000000000
0000010000000000
,
0010000000000000
0000001000000000
0000010000000000
0000000001000000
,
0000001000000000
0000000001000000
0001010000000000
0000010000000000
,
0000001100000000
0010000000000000
1100000000000000
0000010000000000
,
0010000000000000
0000001000000000
0000000000100000
0000000000000011
,
0000000001000000
0000000000000000
0000000000000010
0000000001000000
0000000000010100
0000000000000000
0000000001000000
0000000000000000
,
0000010000000000
0000000000000000
0010000000000000
0000010000000000
1100000000000000
0000000000000000
0000001000000000
0000000000000000
,
0100000000000000
0000000000000000
0000010000000000
0010000000000000
0000010100000000
0000000000000000
0000010000000000
0000000000000000
,
0100000000000000
0000000000000000
0000001000000000
0000010000000000
0000000000110000
0000000000000000
0000000001000000
0000000000000000
,
0000001000000000
0000000000000000
0000000001000000
0000010000000000
0000001000000000
0000000000000000
1010000000000000
0000000000000000
,
0000001000000000
0000000000000000
0000010000000000
0010000000000000
1100000000000000
0000000000000000
0000001100000000
0000000000000000
,
1100000000000000
0000000000000000
0000010000000000
0000001000000000
0000000001000000
0000000000000000
0000001000000000
0000000000000000
,
0000001001000000
0000000000000000
0000010000000000
0000000000100000
0000001000000000
0000000000000000
0010000000000000
0000000000000000
,
0000000000110000
0000000000000000
0000010000000000
0000001000000000
1010000000000000
0000000000000000
0010000000000000
0000000000000000
,
0000001000000000
0000001000000000
0000000001000000
0000010000000000
,
0000000000110000
0000010000000000
0001010000000000
0100000000000000
,
0000001000000000
0000010000000000
0000000000100000
0000000001000000
0000000000000010
0000000000010100
0000000000100000
0000000000000000
,
0000000000000010
0000000001000000
0000010000100000
0100000000000000
,
0000001001000000
0000000000000010
0000000001000000
0000000000100000
,
0000001000000000
0000000000000000
0000010000000000
0010000000000000
0000001100000000
0000000000000000
0000010000000000
0000000000000000
,
0010000000000000
0000000000100000
0000010000000000
0000010000000000
,
0001011000000000
0010000000000000
0110000000000000
0000001000000000
,
0100000000000000
0000000000000000
0000010000000000
0010000000000000
0000000001000000
0000000000000000
0000000000100000
0000000000000000
,
0001010000000000
0000010000000000
0000000000110000
0000001000000000
,
0000000001000000
0000000000000000
0000000000100000
0000000000000100
0000000000000011
0000000000000000
0000000001000000
0000000000000000
,
0000000000100000
0000000000000000
0000010000000000
0000001000000000
1100000000000000
0000000000000000
0000001000000000
0000000000000000
,
0001010000000000
0000000000000000
0000000000100000
0000000001000000
0000000000000011
0000000000000000
0000000001000000
0000000000000000
,
0000000000100000
0000000000000000
0000010000000000
0000000000100000
0001010000000000
0000000000000000
0000010000000000
0000000000000000
,
0000000000110000
0000000000000000
0000000000100000
0000010000000000
0000001000000000
0000000000000000
0100000000000000
0000000000000000
,
1100000000000000
0000000000000000
0000001000000000
0000001000000000
1100000000000000
0000000000000000
0100000000000000
0000000000000000
,
0000001000000000
0000000000000000
0000010000000000
0000010000000000
0000000000110000
0000000000000000
0000001000000000
0000000000000000
,
0000000001000000
0000000000000000
0000000000100000
0000000001000000
0000000000110000
0000000000000000
0000001000000000
0000000000000000
,
0000000000100000
0000000000000000
0000010000000000
0000000000100000
0001010000000000
0000000000000000
0001001000000000
0000000000000000
;
