#TITLE:我的答铃;
#SUBTITLE:~ My Darling;
#ARTIST:郭美美;
#TITLETRANSLIT:Wǒ de dá líng;
#SUBTITLETRANSLIT:;
#ARTISTTRANSLIT:Jocie Kwok;
#GENRE:;
#CREDIT:locuuraa;
#LYRICSPATH:;
#MUSIC:我的答铃.ogg;
#OFFSET:0.080;
#SAMPLESTART:11.960;
#SAMPLELENGTH:12.000;
#SELECTABLE:YES;
#BPMS:0.000=130.000;
#STOPS:;
#KEYSOUNDS:;
#BANNER:我的答铃.png;
#BACKGROUND:我的答铃.png;
#CDTITLE:../CDTitles/4DSS.png;
#BGCHANGES:-14.700=我的答铃.avi=1.000=0=0=1,
229.000=我的答铃.png=1.000=0=0=1,
99999=-nosongbg-=1.000=0=0=0 
;

#NOTES:
     ds3ddx-single:
     Hard:
     Medium:
     1:
     :
00000000
00000000
00000000
00100000
,
00010000
00000100
00010000
01000000
,
00000010
00000010
01000000
00000100
,
00000100
00100000
01000000
00000010
,
00000010
00000000
00100000
00000000
00000001
00000000
00100000
00000100
,
11000000
00000000
00000100
00100000
00000011
00000000
01000000
01000000
,
00000010
00000100
01000000
11000011
,
00000000
00010000
00000000
00100101
,
10000000
00000000
00100000
00000101
,
00100000
00100000
00000100
00100000
,
01010000
00000100
00010010
01000000
,
10000010
00000100
00010101
01000000
,
00000010
00000000
10000000
00010000
10100000
00000000
00000100
00000000
,
00000010
01000000
00000011
00000100
,
10110000
00000000
00000010
01000000
00000101
00000000
10000000
00000000
,
10000000
00000001
00010100
00100000
,
00000010
00000010
01000000
00010000
,
00010100
00000000
01000000
01000000
00000011
00000000
00000100
00000000
,
01000000
00000100
10100100
00000100
,
00000010
00100000
01000000
00000010
,
11000000
00000000
00010000
10000000
00000101
00000000
00100000
00000000
,
11000000
00000100
00000011
01000000
,
00000101
00000010
10100000
00000100
,
00110100
01000000
00000010
10000000
,
00000001
00010100
00000010
01000000
,
01000000
00000100
10100000
00000100
,
00010110
00100000
01110000
00000100
,
00100101
01000000
01000011
00000100
,
01000000
00000000
00000100
00100000
00000011
00000000
00100000
00000000
,
10000000
00000100
00000001
00010000
,
01000000
00000100
00000011
01000000
,
01000000
00000100
00000011
01000000
,
00100000
00000100
10000001
00110000
,
00000101
11000000
00000101
11000000
,
00000011
01000000
00000100
00100000
,
11000000
00000010
00000011
01000000
,
00010100
00000100
00001010
01000000
,
00110000
01000000
00000010
00010000
,
00010100
00000000
01000000
01000000
00000011
00000000
10100011
00000000
,
00000010
01000000
00000101
10100000
,
00000100
01000000
00000011
00000100
,
01000000
00000000
00000010
01000000
00000011
00000000
01000000
00000000
,
10000010
00010100
10100000
01000000
,
00000101
00000000
01000000
00000010
10100000
00000000
00000100
00000000
,
00100101
00000000
00100000
00000100
01000000
00000010
10100000
00000000
,
00000000
00000101
00000000
01000000
,
00000100
00100000
01000000
00000011
,
01000000
00000000
00000100
00000100
10100000
00000000
00000100
00000000
,
00000010
00000000
01000000
00000010
01000000
00000010
10100000
00000000
,
00000100
00000011
01000000
00010100
,
01000000
00000000
00000010
01000000
00000011
00000000
10100000
00000000
;
