#TITLE:成人礼;
#SUBTITLE:~ Adult Ceremony;
#ARTIST:朴志胤;
#TITLETRANSLIT:Chéngrén lǐ;
#SUBTITLETRANSLIT:;
#ARTISTTRANSLIT:Park Ji-Yeon;
#GENRE:;
#CREDIT:locuuraa;
#LYRICSPATH:;
#MUSIC:成人礼.ogg;
#OFFSET:2.300;
#SAMPLESTART:12.000;
#SAMPLELENGTH:12.000;
#SELECTABLE:YES;
#BPMS:0.000=104.900;
#STOPS:;
#KEYSOUNDS:;
#BANNER:成人礼.png;
#BACKGROUND:成人礼.png;
#CDTITLE:../CDTitles/4DSS.png;
#BGCHANGES:-14.700=成人礼.avi=1.000=0=0=1,
229.000=成人礼.png=1.000=0=0=1,
99999=-nosongbg-=1.000=0=0=0 
;

#NOTES:
     ds3ddx-double:
     Club:
     Easy:
     5:
     :
0000000000000000
0000000000000000
0000000000000000
0000000000000000
,
0000010000000000
0000001000000000
0000000000100000
0000000001000000
,
0000001000000000
0000010000000000
0000000001000000
0000000000100000
,
0000000001000000
0000000000000010
0000000001000000
0000000000010100
,
0000000000000010
0000000011000011
0000000001000000
0000000000110100
,
0000000001000000
0000010000000000
1010000000000000
0000000000000000
,
0011000000000000
0000000000000000
1100000000000000
0000000000000000
0000010000000000
0010000000000000
0000010000000000
0010000000000000
,
0001000000000000
0000000000000000
1000000000000000
0000000000000000
0010000000000000
0010000000000000
0000010000000000
0000000000000000
,
0001000000000000
0000000000000000
0000000100000000
0000000000000000
0000010000000000
0000010000000000
0010000000000000
0000000000000000
,
0100000000000000
0000000000000000
0000001000000000
0000000000000000
0000010000000000
0000010000000000
0000000000100000
0000000000000000
,
0000001000000000
0000000000000000
0000000001000000
0000000000000000
0000001000000000
0000001000000000
0000000000100000
0000000000000000
,
0001000000000000
0000000000000000
0000000000010000
0000000000000000
0000010000000000
0000010000000000
0000000001000000
0000000000000000
,
0001010000000000
0000000000000000
0000001100000000
0000000000000000
1100000000000000
0000000000000000
0011000000000000
0000000100000000
,
0101001000000000
0000000000000000
0000000000000000
0000000000000000
,
0010000000000000
0000010000000000
0010000000000000
0000001000000000
,
0100000000000000
0010000000000000
0000001000000000
0000010000000000
,
0000000000100000
0000001000000000
0000000000100000
0000001000000000
,
0000000000100000
0000000001000000
0000000000000100
0000000000000010
,
0000000001000010
0000000000000100
0000000000100000
0000001000000000
,
0000000001000000
0000010000000000
0000000000100000
0000010000000000
,
0000000001000000
0000010000000000
0000000000110000
0000000000000100
,
0000000000100100
0000000001000010
0000000000100010
0000000001000100
,
0000000001000000
0000000010000000
0000000000000001
0000000000100000
,
0000000000000010
0000000001000000
0000000000010100
0000000001000000
,
0000000000100000
0000010000000000
0000000000100000
0000010000000000
,
0000000001000000
0001000000000000
0010000000000000
0000010100000000
,
0000010000000000
1010000100000000
0100000000000000
0000010000000000
,
0000001000000000
0010000000000000
0100000000000000
0000010000000000
,
0000001000000000
0000000000100000
0000000001000000
0000000000000010
,
0000000000100100
0000000001000010
0000000001000100
0000000000100010
,
0000000000000011
0000000001000000
0000000000110000
0000001000000000
,
0000010000000000
0000000001000000
0001010000000000
0000001000000000
,
0000000000100000
0000000001000000
0000000000000010
0000000001000000
,
0000000000010000
0000000010000000
0000000000000001
0000000000011000
,
0000000000000000
0000000010100000
0000000000000011
0000000000100000
,
0000000000000100
0000000010000000
0000000000010000
0000000000000011
,
0000000001000000
0000000000100000
0000010000000000
0000001000000000
,
0010001000000000
0000000000000000
0100010000000000
0000000000000000
0010000000000000
0000010000000000
0010000000000000
0000000000000000
,
0010000000000000
0010000000000000
0000010000000000
0100000000000000
,
0001010000000000
0000010100000000
1010000000000000
0000001100000000
,
0100000000000000
0000000000000000
0000010000000000
0001000000000000
0010000000000000
0000000000000000
0000001000000000
0000000000000000
,
1010000000000000
1100000000000000
0000001100000000
0000010100000000
,
0100000000000000
0000000100000000
1000000000000000
0001000000000000
,
0000001000000000
0000000000100000
0000000001000000
0000001000000000
,
0000010000000000
0000000001000000
0000010000000000
0000001000000000
,
0000000000110000
0000001000000000
0000010000000000
0010000000000000
,
1000010100000000
0000000000000000
0000000000000000
0000000000000000
,
0000000000000000
0000000000000000
0000000000000000
0000000000000000
0000000000000000
0000100000000000
0000000000000000
0000000000000000
;
#NOTES:
     ds3ddx-single:
     Hard:
     Medium:
     4:
     :
00000000
00000000
00000000
00000000
,
00100000
00000010
00000100
01000000
00010000
00000000
10000001
00000000
,
00000100
00000010
01000000
00100000
10000000
00000000
00000001
00000000
,
01000000
00000100
00000010
00100000
10000000
00000000
00010000
00000000
,
00000010
00100000
01000000
00000100
00010000
00000000
00010000
00000000
,
10100000
00000000
00000101
00000000
,
00110000
00000000
11000000
00000000
00000100
00100000
00000100
00100000
,
00010000
00000000
10000000
00000000
00100000
00100000
00000100
00000000
,
00010000
00000000
00000001
00000000
00000100
00000100
00100000
00000000
,
01000000
00000000
00000010
00000000
00000100
00000100
00100000
00000000
,
00000001
00000000
10000000
00000000
00000010
00000010
01000000
00000000
,
10000000
00000000
00000001
00000000
01000000
01000000
00000010
00000000
,
00010100
00000000
00000011
00000000
11000000
00000000
00110000
00000001
,
01010010
00000000
00000000
00000000
,
00100000
00000100
00100000
00000010
,
01000000
00100000
00000010
00000100
,
00100000
01000000
00000100
00000010
,
01000000
00100000
00000100
00000010
,
01000010
00000100
00100000
01000000
,
01000010
00000100
00100000
00000100
,
01000010
10000000
00100000
00000100
,
00100100
00010000
01000010
00010000
01100000
10000000
00000110
00000001
,
10100000
00100000
00000100
00000010
,
00100000
01000000
00000100
00000010
,
00100000
01000000
00100000
00000100
,
00000010
01000000
00100000
00000101
,
00000100
00100000
01000000
00000100
,
00000010
00100000
01000000
00000100
,
00000010
00000100
00100000
01000000
,
00100100
00000110
01000010
01100000
,
00000011
01000000
00110000
00000010
,
10100000
01000000
00000101
00000010
,
00100000
01010000
00000100
00010010
,
01000000
00110000
00000010
00010100
,
11000000
00100000
00000011
00000100
,
00100000
00000101
00000010
11000000
,
00100000
00010010
00000100
01010000
,
00100100
00010000
01000010
00010000
01100000
10000000
00000110
00000001
,
00100000
00100000
00000100
01000000
,
00000100
00000100
00100000
00000010
,
01000000
00000100
00100000
00000010
,
10100000
11000000
00000011
00000101
,
01000000
00000010
01000000
00000100
,
00100000
00000100
00100000
00000010
,
01000000
00100000
00000100
00000010
,
00110000
11000000
00000011
00010100
,
10100001
00000000
00000000
00000000
,
00000000
00000000
00000000
00000000
00000000
00011000
00000000
00000000
;
#NOTES:
     ds3ddx-single:
     Easy:
     Easy:
     4:
     :
00000000
00000000
00000000
00000000
,
00100000
00000100
00010000
10000001
,
00000100
01000000
10000000
00000001
,
01000000
00000010
10000000
00010000
,
00000010
01000000
00010000
00010000
,
10100000
00000000
00000101
00000000
,
00100000
01000000
00000100
00100000
,
00010000
10000000
00100000
00000100
,
00010000
00000001
00000100
00100000
,
01000000
00000010
00000100
00100000
,
00000001
10000000
00000010
01000000
,
10000000
00000001
01000000
00000010
,
00010000
00000001
11000000
00000000
,
01000010
00000000
00000000
00000000
,
00100000
00000100
00100000
00000010
,
01000000
00100000
00000010
00000100
,
00100000
01000000
00000100
00000010
,
01000000
00100000
00000100
00000010
,
00000000
00000100
00100000
00000000
,
01000010
00000100
00000000
00000100
,
01000010
00000000
00100000
00000100
,
00100100
00000000
01000000
00000010
,
10100000
00100000
00000100
00000010
,
00100000
01000000
00000100
00000010
,
00100000
00000000
00100000
00000100
,
00000010
00000000
00100000
00000101
,
00000100
00100000
00000000
00000100
,
00000010
00100000
00000000
00000100
,
00000010
00000000
00100000
00000000
,
00100100
00000000
01000010
00000000
,
00000001
10000000
00110000
00000010
,
10100000
00000000
00000100
00000010
,
00100000
01000000
00000100
00000010
,
01000000
00010000
00000001
00000100
,
00000000
00100000
00000000
00000100
,
00100000
00000101
00000000
00000000
,
00100000
00000010
00000100
01000000
,
00010000
10000000
00000100
00100000
,
00000100
00100000
00000100
01000000
,
00000100
00000100
00100000
00000010
,
01000000
00000100
00100000
00000010
,
10100000
00000000
00000011
00000000
,
01000000
00000010
01000000
00000100
,
00100000
00000100
00100000
00000010
,
01000000
00100000
00000100
00000010
,
00100000
01000000
00000010
00000100
,
10100001
00000000
00000000
00000000
,
00000000
00000000
00000000
00000000
00000000
00011000
00000000
00000000
;
