#TITLE:恋爱达人;
#SUBTITLE:~ Love Master;
#ARTIST:徐熙娣 & 徐熙娣;
#TITLETRANSLIT:Liàn'ài dá rén;
#SUBTITLETRANSLIT:;
#ARTISTTRANSLIT:Dee Hsu & Show Luo;
#GENRE:;
#CREDIT:locuuraa;
#LYRICSPATH:;
#MUSIC:恋爱达人.ogg;
#OFFSET:0.140;
#SAMPLESTART:11.980;
#SAMPLELENGTH:12.000;
#SELECTABLE:YES;
#BPMS:0.000=98.000;
#STOPS:;
#KEYSOUNDS:;
#BANNER:恋爱达人.png;
#BACKGROUND:恋爱达人.png;
#CDTITLE:../CDTitles/4DSS.png;
#BGCHANGES:-14.700=恋爱达人.avi=1.000=0=0=1,
229.000=恋爱达人.png=1.000=0=0=1,
99999=-nosongbg-=1.000=0=0=0 
;

#NOTES:
     ds3ddx-double:
     Club:
     Easy:
     3:
     :
0000000000000000
0000000000000000
0000000000000000
0000000000000000
,
0000000000000000
0000000000000000
0000000000000000
0000000000000000
,
0000000000000000
0000000000000000
0000000000000000
0000000000000000
,
0000000000000000
0000000000000000
0000000000000000
0000000000000000
,
0000000000000000
1010000000000000
0000000000000000
0000010100000000
,
0000000000000000
1100000000000000
0000000000000000
0000001100000000
,
0000000000000000
0011000000000000
0000000000000000
0000000000110000
,
0000000000000000
0000000000000000
0000000001000000
0000000000000000
0000000000000010
0000000000000000
0000000001000000
0000000000000010
,
0000000000110000
0000000000000000
0000000001000100
0000000000000000
0000000001000000
0000000000000000
0000000000100000
0000010000000000
,
0000000000110000
0000000000000000
0010000000000000
0000000000000000
0000000000000000
0000000000000000
0000001000000000
0100000000000000
,
0000001100000000
0010000000000000
0000010000000000
1100000000000000
,
0000001100000000
0000000110000000
0000000000000000
0000000000000000
,
0000000000000000
0000010000000000
1100000000000000
0010000000000000
,
0000001100000000
0000000000000000
0000010000000000
0000000000000000
0010000000000000
0000000000000000
0000001000000000
0000010000000000
,
0000000000100000
0000000000100000
0000010000000000
0000000001000000
,
0000001001000000
0000000000000000
0000010000000000
0000010000000000
0000000001000000
0000000000000000
0000001000000000
0000010000000000
,
1010000000000000
0000000000000000
0000010000000000
0000000000000000
0000000000000000
0000000000000000
0100000000000000
0000001000000000
,
0101000000000000
0000000000000000
0000010000000000
0000000000000000
0010000000000000
0000000000000000
0100001000000000
0000001000000000
,
0000010000000000
0000000000100000
0000000000100000
0000000000000011
,
0000000001000000
0000000000110000
0000010000000000
0000000001000000
,
0000001000000000
0000000001001000
0000000000000000
0000000000000000
0000000000000000
0000000000000000
0000000000000000
0000000000000000
,
1100000000000000
0000000100000000
0000000000000000
0000000000000000
,
0000001100000000
1100000000000000
0001010000000000
0000000000000000
0000000000000000
0000000000000000
0000000000000000
0000000000000000
,
0000000000000000
0000000000000000
0000000100000000
0000000000000000
1000000000000000
0000000000000000
0000000000000000
0001100000000000
,
0000000000000000
0000000000000000
0000000000000000
0000001000000000
0000000000000000
0000010000000000
0000000000110000
0000000000000000
,
0000000001000000
0000000000000000
0000000000000000
0000010000000000
0000000000000000
0010000000000000
0000010000000000
0010000000000000
,
0000010000000000
1010000000000000
0000000000000000
0000010000000000
0000000000000000
0100000000000000
0000001100000000
0000000000000000
,
0010000000000000
0000001000000000
0000000000000000
1100000000000000
0000000000000000
0000001000000000
0000000000000000
0000010000000000
,
0000000000000000
0000000000100000
0000000000000000
0000000000010100
0000000000000000
0000000000100000
0000000000000000
0000000000000100
,
0000000000100000
0000000001001000
0000000000000000
0000000000000010
0000000000000000
0000000001000000
0000000000000000
0000000000100000
,
0000010000000000
0000001000000000
0000000000000000
0010000000000000
0000000000000000
0000001000000000
0000000000000000
0100000000000000
,
0000000000000000
0011010000000000
0000000000000000
0000001000000000
0000000000000000
0000001000000000
0000000000000000
0000010000000000
,
0000000000100000
0000010000000000
0000000000000000
0000010000000000
0000000000000000
0000011000000000
0000000000000000
0000000000100000
,
0000000000000000
0000000001100000
0000000000000000
0001010000000000
0000000000000000
0000000000110000
0000000000000000
0000000001000000
,
0000001000000000
0000010000000000
0000000000000000
1010000000000000
0000000000000000
0000000000000000
0000000000000000
0000010100000000
,
0000000000000000
0000000000000000
0000000000000000
0000000110000000
0000000000000000
0000000000000000
0000000000000000
0001010000000000
,
0000000000000000
0000000000000000
0000000000000000
0000000001001000
0000000000000000
0000000000000000
0000000000000000
0000000000000000
,
0000000000000000
0000000000000000
0000001000000000
1100000000000000
0000000000000000
0000000000000000
0000000000000000
0000000000000000
,
0000000000000000
0000000000000000
0000010000000000
0000000000110000
0000000000000000
0000000000000000
0000000000000000
0000000000000000
,
0000000000000000
0000000000000000
0000000000000000
0000000000000000
0000000000001000
0000000000000000
0000000000000000
0001000000000000
,
0000000000000000
0000000000110000
0000000000000000
0000000000000000
0000000000000000
0000000000000000
0000000000000000
0000000000000000
;
#NOTES:
     ds3ddx-single:
     Hard:
     Medium:
     3:
     :
00000000
00000000
00000000
00000000
,
00000000
00000000
00000000
00000000
,
00000000
00000000
00000000
00000000
,
00000000
00000000
00000000
00000000
,
00000000
10100000
00000000
00000101
,
00000000
11000000
00000000
00000011
,
00000000
00110000
00000000
00010100
,
00000000
00000000
01000000
00000000
00000010
00000000
01000000
00000010
,
00110000
00000000
01000100
00000000
01000000
00000000
00000100
01000000
,
00000101
00000000
00000100
00000000
00100000
00000000
00000010
01000000
,
00000011
00100000
00000100
11000000
,
00000011
00110000
00000000
00000000
,
00000000
00000100
11000000
00100000
,
00000011
00000000
00000100
00000000
00100000
00000000
00000100
00100000
,
00010100
00100000
00000100
01000000
,
11000011
00000000
00000100
00000100
10100000
00000000
00000010
01000000
,
00010100
00000000
00000100
00000000
00000000
00000000
01000000
00000010
,
01010000
00000100
00100000
10100011
,
11000101
00000100
00100000
01110000
,
00000100
00010110
00100000
00000100
,
01000000
00000011
00000000
00000000
00000000
00000000
00000000
00000000
,
11000000
00000000
00000001
00001000
00000000
00000000
00000000
00000000
,
00000011
11000000
00010000
00000000
00000000
00000000
00000000
00000000
,
00000000
00000000
00000001
00000000
10000000
00000000
00000000
01011000
,
00000000
00000000
00000000
00000101
00000000
01000000
00010100
00000000
,
00000000
00000000
00000000
00100000
00000000
00000100
00100000
00000100
,
00100000
00000101
00000000
00100000
00000000
00000010
11000000
00000000
,
00000100
01000000
00000011
00000000
00000000
00000000
00000000
00000000
,
00000000
00000000
00000000
00110000
00000000
00000100
00000000
00000100
,
00100000
01001000
00000000
00000011
00000000
11000000
00000000
00000011
,
01000000
00010100
00000000
00100000
00000000
00000010
00000000
01000000
,
00000000
00110100
00000000
00000010
00000000
00000010
00000000
01000000
,
00000000
11000011
00000000
00000100
00000000
00000110
00000000
00100000
,
00000000
01100000
00000000
00000101
00000000
10100000
00000000
00000010
,
01000000
00000011
00000000
10100000
00000000
00000000
00000000
00000101
,
00000000
00000000
00000000
11000000
00000000
00000000
00000000
00000011
,
00000000
00000000
00000000
00110000
00000000
00000000
00000000
00000000
,
00000000
00000000
00000010
11000000
00000000
00000000
00000000
00000000
,
00000000
00000000
01000000
00000011
00000000
00000000
00000000
00000000
,
00000000
00000000
00000001
10000000
,
00010100
00000000
00000000
00000000
;
#NOTES:
     ds3ddx-single:
     Easy:
     Easy:
     3:
     :
00000000
00000000
00000000
00000000
,
00000000
00000000
00000000
00000000
,
00000000
00000000
00000000
00000000
,
00000000
00000000
00000000
00000000
,
00000000
10100000
00000000
00000101
,
00000000
11000000
00000000
00000011
,
00000000
00110000
00000000
00010100
,
00000000
00000000
01000000
00000000
00000010
00000000
00000000
00000010
,
00000000
00000000
00000100
00000000
01000000
00000000
00000000
01000000
,
00000000
00000100
00100000
00000000
,
00000011
00100000
00000100
11000000
,
00000010
00110000
00000000
00000000
,
00000000
00000100
00000000
00100000
,
00000000
00000100
00100000
00000100
,
00000000
00100000
00000100
00000000
,
01000000
00000100
00100000
00000000
,
00000100
00000000
00000000
01000000
,
00000000
00000100
00100000
00000000
,
01000100
00000000
00100000
00000000
,
00000100
00000000
00100000
00000100
,
01000000
00000011
00000000
00000000
00000000
00000000
00000000
00000000
,
11000000
00000001
00000000
00000000
,
00000011
00010000
00000000
00000000
,
00000000
00000000
00000001
00000000
10000000
00000000
00000000
01000000
,
00000000
00000000
00000000
00000001
00000000
00000000
00010100
00000000
,
00000000
00000000
00000000
00100000
00000000
00000000
00000000
00000000
,
00100000
00000000
00000000
00000100
00000000
00000000
00100000
00000000
,
00000100
00000011
00000000
00000000
,
00000000
00000000
00000000
00110000
00000000
00000000
00000000
00000000
,
00100000
00000000
00000000
00000001
00000000
10000000
00000000
00000011
,
00000000
00100000
00000000
00000100
,
00000000
00100100
00000000
00000000
00000000
00000010
00000000
01000000
,
00000000
00000011
00000000
00000000
00000000
00000100
00000000
00000000
,
00000000
01000000
00000000
00000001
00000000
10100000
00000000
00000000
,
00000000
00000011
00000000
10100000
00000000
00000000
00000000
00000101
,
00000000
00000000
00000000
01000000
00000000
00000000
00000000
00000010
,
00000000
00000000
00000000
00110000
00000000
00000000
00000000
00000000
,
00000000
00000000
00000010
11000000
00000000
00000000
00000000
00000000
,
00100000
00000000
00000000
00000011
00000000
00000000
00000000
00000000
,
00000000
00000000
00000001
10000000
,
00010100
00000000
00000000
00000000
;
