#TITLE:存在巴赫;
#SUBTITLE:~ Alive;
#ARTIST:特别版;
#TITLETRANSLIT:Cúnzài bāhè;
#SUBTITLETRANSLIT:;
#ARTISTTRANSLIT:Special Edition;
#GENRE:;
#CREDIT:locuuraa;
#LYRICSPATH:;
#MUSIC:存在巴赫.ogg;
#OFFSET:-0.280;
#SAMPLESTART:12.020;
#SAMPLELENGTH:12.000;
#SELECTABLE:YES;
#BPMS:0.000=130.000;
#STOPS:;
#KEYSOUNDS:;
#BANNER:存在巴赫.png;
#BACKGROUND:存在巴赫.png;
#CDTITLE:../CDTitles/4DSS.png;
#BGCHANGES:-14.700=存在巴赫.avi=1.000=0=0=1,
229.000=存在巴赫.png=1.000=0=0=1,
99999=-nosongbg-=1.000=0=0=0 
;

#NOTES:
     ds3ddx-double:
     Club:
     Easy:
     6:
     :
0000000000000000
0000000000000000
0000000000000000
0000000000000000
,
0000000000000000
0000000000000000
0000000000000000
1010000000000000
,
0000000000000000
0000010000000000
0000000000000000
0100000000000000
,
0000000000000000
0000001000000000
0000000000000000
0000010000000000
,
0000000000100000
0000010000100000
0000000000000000
0000000000100000
,
0000000000000100
0000000001000000
0000000000100000
1010000000000000
,
0000000000000000
0000001100000000
0000000000000000
0000000000110000
,
0000000000000000
0000000000000101
0000000000000000
0000000001000000
,
0000000000000000
0000010000000000
0000000000000000
0100000000000000
,
0000000000000000
0000001000000000
0000000000000000
1100000000000000
,
0000001100000000
0000000000000000
1010000000000000
0000000000000000
0000010100000000
0000000000000000
0010000000000000
0000010000000000
,
0010000000000000
0000010000000000
0100000000000000
0000001000000000
0100000000000000
0000001000000000
0000010000000000
0000001000000000
,
0000010000000000
0000001000000000
0000010000000000
0000000000100000
0000010000000000
0000000000100000
0000000001000000
0000000000000100
,
0000000001000000
0000000000000100
0000000000000010
0000000001000000
0000000000000100
0000000000100000
0000000000000010
0000000001000000
,
0000000000000010
0000000001000000
0000000000000100
0000000000100000
0000000000000100
0000000000100000
0000000001000000
0000001000000000
,
0000000000100000
0000010000000000
0000000001000000
0000001000000000
0000000000100000
0000010000000000
0000001000000000
0100000000000000
,
0000001000000000
0100000000000000
0000010000000000
0100000000000000
0010000000000000
0000001000000000
0100000000000000
0000001000000000
,
0100000000000000
0000001000000000
0010000000000000
0000001000000000
0010000000000000
0000001000000000
0100000000000000
0000010000000000
,
0010000000000000
0000001000000000
0000010000000000
0000000000100000
0000010000000000
0000000000100000
0000000001000000
0000000000000010
,
0000000000000100
0000000000000010
0000000001000000
0000000000100000
0000000000000010
0000000000000100
0000000000000010
0000000001000000
,
0000000000000100
0000000000100000
0000000000000010
0000000001000000
0000000000100000
0000010000000000
0000000000000000
0000001000000000
,
0100000000000000
0000001000000000
0010000000000000
0000010000000000
0010000000000000
0000010000000000
0010000000000000
0000001000000000
,
0000010000000000
0000000000100000
0000000001000000
0000010000000000
0000000001000000
0000010000000000
0000000001000000
0000001000000000
,
0000000000100000
0000010000000000
0000000001000000
0000001000000000
0000000001000000
0000001000000000
0000000001000000
0000001000000000
,
0000000001000000
0000001000000000
0000010000000000
0010000000000000
0000001000000000
0100000000000000
0000010000000000
0010000000000000
,
0000010000000000
0000001000000000
0100000000000000
0000001000000000
0100000000000000
0000001000000000
0010000000000000
0000010000000000
,
0010000000000000
0000001000000000
0100000000000000
0000001000000000
0100000000000000
0010000000000000
0000010000000000
0010000000000000
,
0000010000000000
0100000000000000
0010000000000000
0000010000000000
0010000000000000
0000010000000000
0100000000000000
0000001000000000
,
0100000000000000
0000001000000000
0010000000000000
0100000000000000
0010000000000000
0100000000000000
0000010000000000
0000001000000000
,
0000010000000000
0000001000000000
0000000000100000
0000000001000000
0000000000000010
0000000000000100
0000000001000000
0000000000000010
,
0000000001000000
0000000000000010
0000000001000000
0000000000100000
0000000000000100
0000000000100000
0000000000000100
0000000000000000
,
0000000000000110
0000000001100000
0000011000000000
0110000000000000
,
0100001000000000
0000000000000000
0100010000000000
0000000000000000
0010001000000000
0010001000000000
0100001000000000
0000000000000000
,
0010010000000000
0000000000000000
0110000000000000
0000000000000000
0000011000000000
0000000000000000
0000000001100000
0000000000000110
,
0000000000000000
0000000000000000
0000000001000000
0000000000000010
0000000000000000
0000000000000000
0000000001000000
0000000000100000
,
0000010000000000
0000001000000000
0100000000000000
0000001000000000
0010000000000000
0000010000000000
0010000000000000
0000010000000000
,
0010000000000000
0100000000000000
0010000000000000
0100000000000000
0000010000000000
0000001000000000
0000010000000000
0000001000000000
,
0000000000100000
0000000001000000
0000000000100000
0000000001000000
0000000000000100
0000000000000010
0000000000000100
0000000000000010
,
0000000001000000
0000000000000010
0000000000100000
0000000000000100
0000000001000000
0000000000100000
0000010000000000
0000000001000000
,
0000001000000000
0000000001000000
0000001000000000
0000010000000000
0000000001000000
0000001000000000
0000000000100000
0000010000000000
,
0000000001000000
0000010000000000
0000000001000000
0010000000000000
0000001000000000
0100000000000000
0000010000000000
0100000000000000
,
0000001000000000
0100000000000000
0000001000000000
0000010000000000
0000000000100000
0000010000000000
0000000000100000
0000001000000000
,
0000000001000000
0000001000000000
0000000001000000
0000001000000000
0000000000100000
0000000001000000
0000000000000010
0000000000000100
,
0000000000000010
0000000001000000
0000000000000100
0000000001000000
0000000000000100
0000000001000000
0000000000100000
0000010000000000
,
0000001000000000
0010000000000000
0000001000000000
0100000000000000
0000010000000000
0100000000000000
0000001000000000
0000010000000000
,
0000000000100000
0000001000000000
0000000000100000
0000001000000000
0000000001000000
0000010000000000
0000000001000000
0000001000000000
,
0000000000100000
0000010000000000
0000000000100000
0000010000000000
0000000000100000
0000001000000000
0000000001000000
0000001000000000
,
0000000001000000
0000010000000000
0000001000000000
0000000000100000
0000000001000000
0000000000000100
0000000000000010
0000000001000000
,
0000000000000010
0000000001000000
0000000000100000
0000000001000000
0000010000000000
0000001000000000
0100000000000000
0000001000000000
,
0010000000000000
0000010000000000
0100000000000000
0000010000000000
0010000000000000
0000001000000000
0100000000000000
0000001000000000
,
0000010000000000
0000001000100000
0000000001000000
0000000000000010
0000000001000000
0000000000000100
0000000001000000
0000010000000000
,
0100000000000000
0000001000000000
0010000000000000
0000010000000000
0100000000000000
0000001000000000
0100000000000000
0100000000000000
,
0000001000000000
0000001000000000
0010000000000000
0010000000000000
0000010000000000
0000010000000000
0010000000000000
0000001000000000
,
0100000000000000
0000010000000000
0010000000000000
0000010000000000
0000010000000000
0100000000000000
0010010000000000
0000000000000000
,
0000000000000000
0010000000000000
0000010100000000
0000000000000000
0000000000000000
0000000000000000
0000000000000000
0000000000000000
;
#NOTES:
     ds3ddx-single:
     Hard:
     Medium:
     6:
     :
00000000
00000000
00000000
00000000
,
00000000
00000000
00000000
10100000
,
00000000
00000100
00000000
01000000
,
00000000
00000010
00000000
01000010
,
00000000
00100100
00000000
00100000
,
00000100
01000000
00000010
11000000
,
00000000
00000011
00000000
10100000
,
00000000
00000101
00000000
00110000
,
00000000
00010100
00000000
01010000
,
00000000
00010010
00000000
11000000
,
00000011
00000000
10100000
00000000
00000101
00000000
00100000
00000100
,
00100000
00000100
00100000
00000100
00100000
00000100
01000000
00000010
,
01000000
00000010
01000000
00000010
01000000
00000010
00100000
01000000
,
00100000
01000000
00100000
01000000
00100000
01000000
00000100
00000010
,
00000100
00000010
00000100
00000010
00000100
00000010
00100000
00000010
,
00100000
00000010
00100000
00000010
00100000
00000010
01000000
00000100
,
01000000
00000100
01000000
00000100
01000000
00000100
00100000
00000100
,
00100000
01000000
00100000
00000100
00100000
01000000
00000100
00100000
,
00000100
00000010
00000100
00100000
00000100
00000010
00100000
01000000
,
00000100
00000010
00100000
01000000
00000100
00000010
00100000
00000100
,
01000000
00000010
01000000
00000010
00100000
00000100
00100000
00000010
,
01000000
00000010
00000100
01000000
00000010
01000000
00000100
00000010
,
01000000
00100000
00000100
00100000
00000010
01000000
00100000
01000000
,
00100000
00000100
01000000
00100000
01000000
00000010
00100000
00100000
,
00000100
00000100
00100000
00000100
00100000
00000100
01000000
01000000
,
00000010
00000010
01000000
00000010
01000000
00000010
00100000
00000100
,
00100000
00100000
01000000
00000010
01000000
01000000
00000100
00100000
,
00000100
01000000
00100000
00000100
00100000
00000010
00000100
01000000
,
00100000
00000010
00100000
00000010
00000100
01000000
00000010
01000000
,
00000100
00000010
01000000
00000010
00100000
01000000
00000100
00000010
,
01000000
00000010
00100000
01000000
00000010
01000000
00000011
00000000
,
00110000
00000101
10100000
10000100
,
00100001
00000000
11000000
00000000
00000100
00000100
10000001
00000000
,
00110000
00000000
10000001
00000000
00010100
00000000
00100000
00000100
,
00000000
00000000
01000000
00000010
00000000
00000000
00110000
00000000
,
10000000
00000000
00010100
00000001
00000001
00000000
00010100
00000000
,
00000001
00000000
00110000
10000000
10000000
00000000
00110000
00000000
,
00010100
00000000
01000000
00000010
00000010
00000000
11000000
00000000
,
11000000
00000011
00000000
10100000
00000101
00000000
00110000
00000000
,
00000000
00010100
00000000
01000100
,
00100010
00000000
00000000
10000000
00000011
00000000
00100000
01000000
,
00000100
00000010
00000000
01000010
01000010
00000000
01010000
00000000
,
00010010
00110000
00010100
00100000
,
00000100
00000000
00000000
00000000
01000000
00000000
00000000
00000000
00000010
00000000
00000000
00000000
00110000
10000000
00000000
00000000
,
00010100
00000001
00000000
00000000
10000000
00000000
00000001
00000000
00000000
00000000
00000000
00000000
11000000
00010000
00000000
00000000
,
00000011
00010000
00000000
00000000
00000001
00000000
10000000
00000000
00000000
00000000
00000000
00000000
00100001
00000000
00000000
00000000
,
10000100
00000000
00010000
00010000
00000000
00000000
10000010
00000000
,
01000001
00000000
00010000
00010000
00000000
00000000
00100000
00000100
,
00100000
00000010
00100000
01000000
00000100
00000010
01000000
00000100
,
00100000
00000010
00100000
00000100
01000000
00000010
00100000
00100000
,
00000100
00000100
00100000
00000100
01000000
00000010
01000000
00100000
,
01000000
00000100
00000010
00000100
00000010
00100000
01000000
01000000
,
00000010
00000010
00100000
00100000
00000100
00000100
00100000
01000000
,
00000100
00000010
00100000
00000100
00000010
01000000
00100100
00000000
,
00000000
00100000
00000101
00000000
00000000
00000000
00000000
00000000
;
