#TITLE:土耳其进行曲;
#SUBTITLE:~ Turkish March;
#ARTIST:王利峰;
#TITLETRANSLIT:Tǔ'ěrqí jìnxíngqǔ;
#SUBTITLETRANSLIT:;
#ARTISTTRANSLIT:Wang Lifeng;
#GENRE:;
#CREDIT:locuuraa;
#LYRICSPATH:;
#MUSIC:土耳其进行曲.ogg;
#OFFSET:0.960;
#SAMPLESTART:12.000;
#SAMPLELENGTH:12.000;
#SELECTABLE:YES;
#BPMS:0.000=132.150;
#STOPS:;
#KEYSOUNDS:;
#BANNER:土耳其进行曲.png;
#BACKGROUND:土耳其进行曲.png;
#CDTITLE:../CDTitles/4DSS.png;
#BGCHANGES:-14.700=土耳其进行曲.avi=1.000=0=0=1,
229.000=土耳其进行曲.png=1.000=0=0=1,
99999=-nosongbg-=1.000=0=0=0 
;

#NOTES:
     ds3ddx-single:
     Hard:
     Medium:
     6:
     :
00000000
00000000
00000000
00000000
,
00100000
00000000
10000000
00000000
,
00100000
00000000
00000001
00000000
,
00100000
00000000
00000100
00000000
,
01000000
00000000
00000010
00010000
,
00000000
01000000
01100000
01000000
,
01000010
00000100
00000110
00000100
,
00100100
10100000
00000101
00110000
,
00000101
00000011
11000000
00000011
,
00010000
00000000
10000000
00000000
00000010
00000010
01000000
00000000
,
00010000
00000000
00000001
00000000
00100000
00100000
00000100
00000000
,
10000000
00000000
00010000
00000000
00100000
00000100
01000000
00000000
,
00000001
00000000
00010000
00000000
00000100
00100000
00000010
00000000
,
00100000
10100000
00000100
00000101
,
00100000
01010000
00000100
00010010
,
00100000
00100000
00000100
00000100
,
00000010
00000010
01000000
01000000
,
00100000
00000100
11000001
00000000
00000010
00100000
00000100
00100000
,
00000010
01000000
00010000
00000001
00001000
10000000
00000001
00000000
,
00000100
00100000
10000011
00000000
01000000
00000100
00100000
00000100
,
01000000
00000010
00010000
10000000
00001000
00000001
10000000
00000000
,
01000000
00000010
10100001
00000000
00000100
01000000
00000010
00000100
,
00100000
00000100
00010000
00000001
00001000
10000000
00000001
00000000
,
00000010
01000000
10000101
00000000
00100000
00000010
01000000
00000100
,
00100000
00000100
00010000
00000001
00001000
10000000
00000001
00000000
,
00100000
00000100
00100000
00000100
11000000
00000100
00100000
00000010
,
11000000
00100000
00000100
00000010
00110000
00100000
00000010
00000100
,
01010000
00000000
00100000
00000100
00000101
00100000
00100000
00000100
,
00000101
01000000
00000010
00000100
10100000
00000000
00100100
00000000
,
00000100
00100000
00000100
00100000
00000011
00100000
00000100
01000000
,
00000011
00000100
00100000
01000000
00010100
00000100
01000000
00100000
,
00010010
00000000
00000100
00100000
10100000
00000100
00000100
00100000
,
10100000
00000010
01000000
00100000
00000101
00000000
00100100
00000000
,
01000000
00000010
01000000
00000010
00000101
01000000
00000100
01000000
,
00000101
00000010
01000000
00100000
00010010
00000010
00100000
01000000
,
00010100
00000000
00000010
01000000
11000000
00000010
00000010
01000000
,
11000000
00000100
00100000
01000000
00000011
00000000
01000010
00000000
,
00100000
00000100
00100000
00000100
11000000
00000100
00100000
00000010
,
11000000
00100000
00000100
00000010
00110000
00100000
00000010
00000100
,
01010000
00000000
00100000
00000100
00000101
00100000
00100000
00000100
,
00000101
01000000
00000010
00000100
10100000
00000000
00100100
00000000
,
00000100
00100000
00000100
00100000
00000011
00100000
00000100
01000000
,
00000011
00000100
00100000
01000000
00010100
00000100
01000000
00100000
,
00010010
00000000
00000100
00100000
10100000
00000100
00000100
00100000
,
10100000
00000010
01000000
00100000
00000101
00000000
00100100
00000000
,
01000000
00000010
01000000
00000010
00000101
01000000
00000100
01000000
,
00000101
00000010
01000000
00100000
00010010
00000010
00100000
01000000
,
00010100
00000000
00000010
01000000
11000000
00000010
00000010
01000000
,
11000000
00000100
00100000
01000000
00000011
00000000
01000010
00000000
,
00100000
00000100
11000001
00000000
00000010
00100000
00000100
00100000
,
00000010
01000000
00010000
00000001
00001000
10000000
00000001
00000000
,
00000100
00100000
10000011
00000000
01000000
00000100
00100000
00000100
,
01000000
00000010
00010000
10000000
00001000
00000001
10000000
00000000
,
01000000
00000010
10100001
00000000
00000100
01000000
00000010
00000100
,
00100000
00000100
00010000
00000001
00001000
10000000
00000001
00000000
,
00000010
01000000
10000101
00000000
00100000
00000010
01000000
00000100
,
00100000
00000100
00010000
00000001
00001000
10000000
00000001
00000000
,
00100100
01000010
00110000
00000000
;
