#TITLE:喜欢你没道理;
#SUBTITLE:~ There's no reason to like you;
#ARTIST:張韶涵;
#TITLETRANSLIT:Xǐhuān nǐ méi dàolǐ;
#SUBTITLETRANSLIT:;
#ARTISTTRANSLIT:Angela Zhang;
#GENRE:;
#CREDIT:locuuraa;
#LYRICSPATH:;
#MUSIC:喜欢你没道理.ogg;
#OFFSET:0.280;
#SAMPLESTART:11.960;
#SAMPLELENGTH:12.000;
#SELECTABLE:YES;
#BPMS:0.000=112.010;
#STOPS:;
#KEYSOUNDS:;
#BANNER:喜欢你没道理.png;
#BACKGROUND:喜欢你没道理.png;
#CDTITLE:../CDTitles/4DSS.png;
#BGCHANGES:-14.700=喜欢你没道理.avi=1.000=0=0=1,
229.000=喜欢你没道理.png=1.000=0=0=1,
99999=-nosongbg-=1.000=0=0=0 
;

#NOTES:
     ds3ddx-single:
     Hard:
     Medium:
     5:
     :
00000000
00000000
00000000
00000000
,
00000000
00000000
00000000
00000000
,
00000000
00000000
00000000
00000000
,
00000000
00000000
00000000
00000000
,
00000000
00000000
00100000
00010000
00000100
00000000
00000100
00010000
,
00100000
00000000
01000000
00000000
00000010
00000000
00100000
01000000
,
01000010
00000000
01000000
10000000
00000010
00000000
00000010
00000001
,
01000000
00000000
00100000
00000000
00000100
00000000
01000000
00100000
,
00100100
00000000
00100000
00000001
00000100
00000000
00000100
10000000
,
00100000
00000000
00000010
00000000
01000000
00000000
00000100
00100000
,
00000100
00000000
01000000
00000001
00000010
00000000
00000010
10000000
,
01000000
00000000
00100000
00010000
00000100
00000000
01000000
00000010
,
01000000
00000000
00000000
00000000
,
00000000
00000000
00100000
00000000
00000100
00000000
00100000
10000000
,
00100000
00000100
00100000
01000000
,
00000010
00000000
00100000
00010000
00000001
10000000
00000100
00000010
,
00000100
00100100
10000000
00100000
,
01000000
00000000
00000100
10000000
00000001
10000000
01000000
00000010
,
01000000
00000100
00110000
00000100
,
11000000
00000000
00000010
10000000
00000001
10000000
01000000
00100000
,
01010000
00100000
00000101
00000100
,
00110000
00000000
01000000
00000000
10100000
00000000
00000100
00000001
,
00100000
10000000
00000100
00000000
00100000
00000000
00000010
00000000
,
01000000
00000000
00100000
00000000
00000100
00000000
00100000
10000000
,
00000001
10000000
00000100
00000000
00100000
00000000
00000100
00000000
,
00100000
01000000
00000010
00000100
,
00110000
00000100
00000100
00100000
,
00100000
01000000
00000010
00000100
,
00010000
00000000
00100100
00000000
10000000
00000000
00100000
01000000
,
00100000
00000000
00100000
00000100
00100000
00000100
00000001
00000001
,
00000001
00100000
01000000
00000010
,
00000100
00000000
00100000
00000000
01000000
00000000
00000100
00000010
,
00000100
00000000
01000010
00000000
00000001
00000000
00000010
00000100
,
00000010
00000000
00000010
01000000
00000010
01000000
10000000
10000000
,
10000000
01000000
00100000
00000100
,
00000010
00000000
01000000
00000000
00000100
00000000
01000000
00100000
,
01000000
00000000
00100000
00010000
00000100
00000000
00000100
00010000
,
00100000
00000000
01000000
00000000
00000010
00000000
00100000
01000000
,
01000010
00000000
01000000
10000000
00000010
00000000
00000010
00000001
,
01000000
00000000
00100000
00000000
00000100
00000000
01000000
00100000
,
00100100
00000000
00100000
00000001
00000100
00000000
00000100
10000000
,
00100000
00000000
00000010
00000000
01000000
00000000
00000100
00100000
,
00000100
00000000
01000000
00000001
00000010
00000000
00000010
10000000
,
01000000
00000000
00100000
00010000
00000100
00000000
01000000
00000010
,
01000000
00010000
00000000
00000000
;
