#TITLE:吻;
#SUBTITLE:~ KISS;
#ARTIST:The Vengaboys;
#TITLETRANSLIT:;
#SUBTITLETRANSLIT:;
#ARTISTTRANSLIT:;
#GENRE:;
#CREDIT:locuuraa;
#LYRICSPATH:;
#MUSIC:吻.ogg;
#OFFSET:0.080;
#SAMPLESTART:11.980;
#SAMPLELENGTH:12.000;
#SELECTABLE:YES;
#BPMS:0.000=138.000;
#STOPS:;
#KEYSOUNDS:;
#BANNER:吻.png;
#BACKGROUND:吻.png;
#CDTITLE:../CDTitles/4DSS.png;
#BGCHANGES:-14.700=吻.avi=1.000=0=0=1,
229.000=吻.png=1.000=0=0=1,
99999=-nosongbg-=1.000=0=0=0 
;

#NOTES:
     ds3ddx-single:
     Hard:
     Medium:
     4:
     :
00000000
00000000
00000000
11000000
,
00000000
00000000
00000001
00010000
,
00000001
10000000
00010000
00010000
,
00100000
00000001
10000000
00000011
,
00000000
00000000
00000000
00100000
,
00100000
00000100
00000100
01000000
,
00000010
00100000
00000101
00100000
,
00000010
11000000
00000100
00000100
,
00100000
10100101
00000000
00100000
,
00000010
00000010
01000000
11000000
,
00000011
10100000
00000101
01000000
,
11000011
00000100
00000100
00100000
,
00000010
01000100
00000000
00000010
,
00000000
00000010
00100000
00000100
,
00000010
01000000
00000101
00100000
,
00000001
00000010
10000000
00000010
,
00100100
00000001
10000000
00010100
,
00100000
00100000
00000010
10100010
,
00000010
01000000
00000100
00010010
,
01000000
00000010
00110000
00000100
,
00100100
00000000
00000010
01000000
00000010
00000000
01000000
00000000
,
01000000
00000010
00000101
00000010
,
11000000
00000000
00000010
01000000
00010100
00000000
01000000
00000000
,
00000100
00000000
00100000
00000010
00100000
00000000
11000101
00000000
,
00000000
00100000
00000101
00000000
,
01000000
01000000
00000100
00100000
,
00000011
10100000
00000010
01000000
,
00010000
00000001
10000000
00010100
,
00001000
00000000
00000000
00100000
,
00000100
00000000
00100000
00000000
00000100
00000000
01000000
00000010
,
00110000
00000010
11000000
00000010
,
00100000
00000000
00000100
00000000
01000000
00000010
00110000
00000000
,
00000010
01000000
00000100
10000001
,
01000010
00000000
01000010
00000000
00000010
01000000
00000100
00000000
,
00110000
00000010
00000010
10100000
,
00000011
00000000
00000000
00000000
01000000
00000000
00000000
00000000
00000010
11000000
00000000
00000000
00000000
00000000
00000000
00000000
,
00000001
00000000
00000000
01000000
,
00000100
10100000
00000100
10100000
,
00000010
01000000
00000011
01000000
,
01000000
00110100
00000010
01000000
,
00000100
00100000
11000011
00000001
,
01000000
00010100
01000000
00000010
,
00110000
00000010
00000010
00100100
,
00100100
01000010
01000010
01000100
,
00100010
11000000
00000010
00100000
,
00100000
00000000
00000101
00000000
01000000
00000000
00000100
01000000
,
00000100
11000000
00000010
00000100
,
11000000
00000000
00000011
00000000
00000100
11000000
00000000
00000000
,
00000010
00100000
00000100
00100000
,
00000010
00000010
01000000
00000010
,
00100000
00000010
00100000
00000000
00000011
00000000
11000000
00000000
,
00000100
10000000
00000011
00010000
,
10000000
00000101
00000000
00000000
;
#NOTES:
     ds3ddx-single:
     Easy:
     Easy:
     4:
     :
00000000
00000000
00000000
10000000
,
00000000
00000000
00000001
00010000
,
00000001
10000000
00010000
00000000
,
00100000
00000001
10000000
00000010
,
00000000
00000000
00000000
00100000
,
00100000
00000100
00000100
01000000
,
00000010
00100000
00000001
00100000
,
00000010
10000000
00000100
00000100
,
00100000
00000101
00000000
00100000
,
00000010
00000010
01000000
01000000
,
00000001
00100000
00000100
01000000
,
00000011
00000100
00000100
00100000
,
00000010
01000000
00000000
00000010
,
00000000
00000010
00100000
00000100
,
00000010
01000000
00000100
00100000
,
00000001
00000010
10000000
00000010
,
00100100
00000001
10000000
00000100
,
00100000
00100000
00000010
10000000
,
00000010
01000000
00000100
00000010
,
01000000
00000010
00010000
00000100
,
00100000
00000010
00000010
01000000
,
01000000
00000010
00000100
00000010
,
01000000
00000010
00000100
01000000
,
00000100
00100000
00100000
00000101
,
00000000
00100000
00000101
00000000
,
01000000
01000000
00000100
00100000
,
00000010
00100000
00000010
01000000
,
00010000
00000001
10000000
00000100
,
00010000
00000000
00000000
00100000
,
00000100
00100000
00000100
01000000
,
00010000
00000010
10000000
00000010
,
00100000
00000100
01000000
00010000
,
00000010
01000000
00000100
10000001
,
01000000
00000010
00000000
00000100
,
00010000
00000010
00000010
00100000
,
00000010
01000000
00000010
00000000
,
00000001
00000000
00000000
01000000
,
00000100
00100000
00000100
00100000
,
00000010
01000000
00000010
01000000
,
01000000
00000100
00000010
01000000
,
00000100
00100000
00000011
10000000
,
01000000
00010000
01000000
00000010
,
00010000
00000010
00000010
00100000
,
00000100
01000000
00000010
00000100
,
00100000
10000000
00000010
00100000
,
00100000
00000100
01000000
00000100
,
00000100
10000000
00000010
00000100
,
10000000
00000010
00000100
00000000
,
00000010
00100000
00000100
00100000
,
00000010
00000010
01000000
00000010
,
00100000
00100000
00000001
10000000
,
00000100
10000000
00000010
00010000
,
10000000
00000100
00000000
00000000
;
