#TITLE:发疯;
#SUBTITLE:~ Going Crazy;
#ARTIST:李贞贤;
#TITLETRANSLIT:Fāfēng;
#SUBTITLETRANSLIT:;
#ARTISTTRANSLIT:Lee Jung Hyun;
#GENRE:;
#CREDIT:locuuraa;
#LYRICSPATH:;
#MUSIC:发疯.ogg;
#OFFSET:-0.160;
#SAMPLESTART:12.020;
#SAMPLELENGTH:12.000;
#SELECTABLE:YES;
#BPMS:0.000=132.000;
#STOPS:;
#KEYSOUNDS:;
#BANNER:发疯.png;
#BACKGROUND:发疯.png;
#CDTITLE:../CDTitles/4DSS.png;
#BGCHANGES:-14.700=发疯.avi=1.000=0=0=1,
229.000=发疯.png=1.000=0=0=1,
99999=-nosongbg-=1.000=0=0=0 
;

#NOTES:
     ds3ddx-double:
     Club:
     Easy:
     5:
     :
0000000000000000
0000000000000000
0000000000000000
0000000000000000
,
0000000000000000
0000000000000000
0000000000000000
0000000000000000
,
0000000000000000
0000000100000000
1000000000000000
0001000000000000
,
0000000100000000
1000000000000000
0000100000000000
0000000100000000
,
0001000000000000
1010000000000000
0000001100000000
0000000000100000
,
0000000000100000
0000000000000100
0000000001000000
0000000000000011
,
0000000001000000
0000000000010000
0000000000000000
0000000010000001
,
0000000000000000
0000000000010000
0000000000000000
0000000000000000
,
0000000000000000
0000000000000000
0000010000000000
0000000000000000
0000001000000000
0100000000000000
0000000000000000
0000000000000000
,
0000010100000000
0100000000000000
0100000000000000
0000000000000000
0000010000000000
0010000000000000
0000000000000000
0000000001000000
,
0000001000000000
0000000001000000
0000001000000000
0000000000000000
0000000000000100
0000000010000000
0000000000000000
0000000000000000
,
0000000000000100
0000000000100000
0000000000000100
0000000000100000
0000000000000010
0000000011000000
0000000000000000
0000000000000010
,
0000000001000000
0000000000100000
0001010000000000
0000000000000000
0010000000000000
0000000000000000
0000001000000000
0000000000000000
,
0100000000000000
0000000000000000
0000001000000000
0000000000000000
0000001000000000
0000000000000000
0000010000000000
0000000000100000
,
0000000001000000
0000001000000000
0000000001000000
0001010000000000
,
0000000000110000
0000001000000000
0000001001000000
0000000000100000
,
0000010000100000
0000001000000000
0000001000000000
0000000000100000
,
0000000001000000
0000000000000010
0000000001000000
0000000000010100
,
0000000001000000
0000010000000000
0000010000000000
0010000000000000
,
0010000000000000
0000001000000000
1100001100000000
0000010000000000
,
0100000000000000
0000001100000000
0000010000000000
0000000000100000
,
0000000001000000
0000000000000000
0000010000000000
0000000000000000
0010000000000000
0000000000000000
0000001000000000
0100000000000000
,
0000001000000000
0100000000000000
0000001100000000
0000000000000000
1100000000000000
0000000000000000
0001010000000000
0000000000000000
,
0000000110000000
0000000000000000
0000000000100000
0000000000000100
,
0000000000100000
0000000000000101
0000000010100000
0000001000000000
,
0000000000100000
0000000000000000
0000000001000000
0000000000000000
0000000011000011
0000000000000000
0000000000000100
0000000001000000
,
0000000000000100
0000001000000000
0000000000000000
1000000000000000
,
0000000000000000
0000000000000000
0000000000000000
0000001000000000
0000000000000000
0000000000000000
0000000000000000
0000000000000000
0100000000000000
0100000000000000
0000000000000000
0000000000000000
0000001000000000
0000000000000000
0000000000000000
0000000000000000
,
0100000000000000
0000010000000000
0000011000000000
0000000000100000
,
0000000001100000
0000000000000000
0000000000000010
0000000000000000
0000000001000000
0000000000000000
0000000001000000
0000000001000000
,
0000000000000011
0000000000010100
0000000001000000
0000010000000000
,
1010001100000000
0000000000000000
0100000000000000
0000000000000000
1100010100000000
0000000000000000
0000010000000000
0010000000000000
,
0000001000000000
0100000000000000
0000001000000000
0000010000000000
,
0000010000100000
0000001000000000
0000000000000001
0000000001000000
,
0000000000000100
0000000000100001
0000000001000000
0001000000000000
,
0000010000000000
0000000000000000
0000000000000000
0000000000000000
0000000000000000
0000000000000000
0000000000000000
0000001000000000
0100000000000000
0000000000000000
0000000000000000
0000000000000000
0000010000000000
0000000000000000
0000000000000000
0000000000000000
,
0000000000100000
0000000000000000
0000000000000000
0000000000000000
0000000000000000
0000000000000000
0000000000000000
0000000000000000
0000001000000000
0000000001000000
0000000000000000
0000000000000000
0000010000000000
0000000000000000
0000000000000000
0000000000000000
,
0000000000110000
0000000000000100
0000000001000000
0000001000000000
,
0000000000000000
0000000001000000
0000000000000000
0000000000000001
,
0000000010000000
0001000000000000
0000000000000000
0000000100000000
,
0001000000000000
1000000000000000
0000100000000000
0000000100000000
,
0000000000000000
1100000000000000
0000000000000000
0000001100000000
,
0000000000000000
0000000000110000
0000000000000000
0000000010000101
,
0000000000000000
0000000010000000
0000000000000000
0001000000000000
,
0000000000000000
1000000000000000
0000000000000000
0000000000000000
,
0000000000000000
0000000000000000
0100000000000000
0000000000000000
0000001000000000
1100000000000000
0000000000000000
0000000000000000
,
0000010000000000
0100000000000000
0000010000000000
0000000000000000
0010000000000000
0000010100000000
0000000000000000
0000000000000000
,
0000000000000000
0000001000000000
0000001000000000
0000000000000000
0100000000000000
0000001000000000
1010000000000000
0000000000000000
,
0000001000000000
0000010000000000
0000000000100000
0000000011000000
,
0000000000000010
0000000001000010
0000000000100000
0000000000100010
,
0000000000000100
0000000000100100
0000001000000000
0000010000000000
,
0010000000000000
0000000000000000
0010000000000000
0000010000000000
0010000000000000
0000010000000000
0100000000000000
0000001000000000
,
0100000000000000
0000001000000000
0010000000000000
0000001000000000
0010000000000000
0000001000000000
0010000000000000
0000010000000000
,
0100000000000000
0000001000000000
1100000000000000
0000000000000000
0000000000000000
0000000000000000
0000000000000000
0000000000000000
;
#NOTES:
     ds3ddx-single:
     Hard:
     Medium:
     4:
     :
00000000
00000000
00000000
00000000
,
00000000
00000000
00000000
00000000
,
00000000
00000001
10000000
00010000
,
00010000
10000000
00001000
00000001
,
00010000
10100000
00000011
10000000
,
10000000
00010000
00000001
11000000
,
00010100
10000000
00000000
10000001
,
00000000
00010000
00000000
00000000
,
00000000
00000000
00100000
00000000
00000010
01000000
00000000
00000000
,
00000101
01000000
01000000
00000000
00000100
00100000
00000000
00000010
,
01000000
00000010
01000000
00000000
00000011
11000000
00000000
00000000
,
00000100
00100000
00000100
00100000
00000010
11000000
00000000
00000010
,
01000000
00000100
10100000
00000000
00000100
00000000
00000010
00000000
,
01000000
00000000
00000010
00000000
00000010
00000000
00000100
00100000
,
00000010
01000000
00000010
10100000
,
00000101
01000000
01000011
00000100
,
10100100
00000010
00000010
01000000
,
00010100
00000010
01000000
00000101
,
10100000
00000100
00000100
00100000
,
00100000
00000010
11000011
00000100
,
01000000
00000011
01000000
00000100
,
00000001
00000000
00100000
00000000
10000000
00000000
00000010
01000000
,
00000010
01000000
00000011
00000000
11000000
00000000
00010100
00000000
,
10000001
00000000
10000000
00000100
,
00100000
00000101
10100000
00000010
,
00100000
00000000
00000100
00000000
10100101
00000000
00000100
01000000
,
00000100
11000000
00000000
00000001
,
00000000
00000000
00000000
01000000
00000000
00000000
00000000
00000000
01000000
01000000
00000000
00000000
00000010
00000000
00000000
00000000
,
01000000
00010100
00000110
00100000
,
01101000
00000000
00000010
00000000
01000000
00000000
01000000
01000000
,
00000011
00010100
01000000
00000010
,
10100011
00000000
01000000
00000000
11000101
00000000
00000100
00100000
,
00000010
01000000
00000010
00100000
,
10100101
00000010
01000001
00000010
,
00000100
00100001
00000010
10000000
,
00000100
00000000
00000000
00000000
00000000
00000000
00000000
00000010
01000000
00000000
00000000
00000000
00000100
00000000
00000000
00000000
,
10100000
00000000
00000000
00000000
00000000
00000000
00000000
00000000
01000000
00000010
00000000
00000000
00100000
00000000
00000000
00000000
,
00000101
00100000
01000000
00000011
,
00000000
00000011
00000000
00000001
,
10000000
00010000
00000000
00000001
,
00010000
10000000
00001000
00000001
,
00000000
11000000
00000000
00000011
,
00000000
10100000
00000000
10000101
,
00000000
00010000
00000000
00000001
,
00000000
10000000
00000000
00000000
,
00000000
00000000
01000000
00000000
00000010
11000000
00000000
00000000
,
00000100
01000000
00000100
00000000
00100000
00000101
00000000
00000000
,
00000000
00000010
00000010
00000000
01000000
00000010
10100000
00000000
,
00000010
01000000
00010100
11000000
,
00000011
01000010
00100000
10100011
,
00000100
00100100
00000010
11000000
,
00000010
00000000
00100000
00000100
00100000
00000100
01000000
00000010
,
01000000
00000010
00100000
00000010
00100000
00000010
00100000
00000100
,
01000000
00000010
11000000
00000000
00000000
00000000
00000000
00000000
;
#NOTES:
     ds3ddx-single:
     Easy:
     Easy:
     4:
     :
00000000
00000000
00000000
00000000
,
00000000
00000000
00000000
00000000
,
00000000
00000001
00000000
00010000
,
00000000
10000000
00000000
00000001
,
00000000
00100000
00000000
10000000
,
00000000
00010000
00000000
01000000
,
00000000
10000000
00000000
10000001
,
00000000
00010000
00000000
00000000
,
00000000
00100000
00000010
00000000
,
00000100
00000000
00000100
00000000
,
01000000
00000000
01000000
00000000
00000010
01000000
00000000
00000000
,
00000100
00000100
00000010
00000000
,
01000000
10100000
00000100
00000010
,
01000000
00000010
00000010
00000100
,
00000010
01000000
00000010
10000000
,
00000001
01000000
00000011
00000100
,
10100000
00000010
00000010
01000000
,
00010100
00000010
01000000
00000101
,
10100000
00000100
00000100
00100000
,
00100000
00000010
11000000
00000100
,
01000000
00000011
01000000
00000100
,
00000001
00100000
10000000
00000010
,
00000010
00000010
01000000
00000100
,
10000001
00000000
10000000
00000100
,
00100000
00000001
10000000
00000010
,
00100000
00000100
00000101
00000100
,
00000100
10000000
00000000
00000001
,
00000000
00000000
00000000
01000000
00000000
00000000
00000000
00000000
01000000
00000000
00000000
00000000
00000010
00000000
00000000
00000000
,
01000000
00010100
00000010
00100000
,
01010000
00000010
01000000
01000000
,
00000010
00000100
01000000
00000010
,
00000011
01000000
00000101
00000100
,
00000010
01000000
00000010
00100000
,
10100000
00000010
01000001
00000010
,
00000100
00100000
00000010
10000000
,
00000100
00000000
01000000
00000100
,
00100000
00000000
01000000
00100000
,
00000100
00100000
01000000
00000010
,
00000000
00000010
00000000
00000001
,
10000000
00010000
00000000
00000001
,
00010000
10000000
00001000
00000001
,
00000000
01000000
00000000
00000010
,
00000000
00100000
00000000
00000101
,
00000000
00010000
00000000
00000001
,
00000000
10000000
00000000
00000000
,
00000000
01000000
00000010
00000000
,
00000100
00000100
00100000
00000000
,
00000000
00000010
01000000
00100000
,
00000010
01000000
00010000
10000000
,
00000001
01000000
00100000
00000011
,
00000100
00000100
00000010
10000000
,
00000010
00100000
00100000
01000000
,
01000000
00100000
00100000
00100000
,
01000000
11000000
00000000
00000000
;
