#TITLE:发光体;
#SUBTITLE:~ Luminous Body;
#ARTIST:何洁;
#TITLETRANSLIT:Fāguāng tǐ;
#SUBTITLETRANSLIT:;
#ARTISTTRANSLIT:He Jie;
#GENRE:;
#CREDIT:locuuraa;
#LYRICSPATH:;
#MUSIC:发光体.ogg;
#OFFSET:0.120;
#SAMPLESTART:12.020;
#SAMPLELENGTH:12.000;
#SELECTABLE:YES;
#BPMS:0.000=200.000;
#STOPS:;
#KEYSOUNDS:;
#BANNER:发光体.png;
#BACKGROUND:发光体.png;
#CDTITLE:../CDTitles/4DSS.png;
#BGCHANGES:-14.700=发光体.avi=1.000=0=0=1,
229.000=发光体.png=1.000=0=0=1,
99999=-nosongbg-=1.000=0=0=0 
;

#NOTES:
     ds3ddx-double:
     Club:
     Easy:
     8:
     :
0000000000000000
0000000000000000
0000000000000000
0000000000000000
0010000000000000
0000010000000000
0100000000000000
0000001000000000
,
0010000000000000
0000001000000000
0100000000000000
0000010000000000
0010000000000000
0000010000000000
0100000000000000
0000001000000000
,
0100000000000000
0000010000000000
0010000000000000
0000001000000000
0100000000000000
0100000000000000
0000010000000000
0010000000000000
,
0000001000000000
0000000000000000
0000000000000000
0000010000000000
0000000000100000
0000000000000000
0000000001000000
0000000000000000
0000000000000000
0000000000000010
0000000000000000
0000000000000000
0000000001000000
0000000000000000
0000000000000000
0000000001000000
0000000000000000
0000000000000000
0000000000000100
0000000000000000
0000000000000000
0000000001000000
0000000000000000
0000000000000000
,
0000000000000100
0000000001000000
0000000000000010
0000000000100000
0000000000000100
0000000001000000
0000000000000010
0000000001000000
,
0000000000100000
0000010000000000
0000001000000000
0100000000000000
0000010000000000
0010000000000000
0000001000000000
0000001000000000
,
0100000000000000
0000001000000000
0010000000000000
0000001000000000
0100000000000000
0000010000000000
0100000000000000
0000001000000000
,
0100000000000000
0000010000000000
0100000000000000
0100000000000000
0000001000000000
0010000000000000
0000001000000000
0100000000000000
,
0000001000000000
0000010000000000
0100000000000000
0000010000000000
0100000000000000
0000001000000000
0000010000000000
0000000000100000
,
0000000001000000
0000000000000010
0000000001000000
0000000001000000
0000000000000100
0000000001000000
0000000000000010
0000000001000000
,
0000000000000010
0000000001000000
0000000000100000
0000010000000000
0000001000000000
0100000000000000
0000010000000000
0010000000000000
,
0000001000000000
0000001000000000
0010000000000000
0000001000000000
0010000000000000
0000001000000000
0100000000000000
0000010000000000
,
0100000000000000
0000010000000000
0100000000000000
0000010000000000
0100000000000000
0000001000000000
0000010000000000
0000000000100000
,
0000000001000000
0000000000000010
0000000000000100
0000000000000010
0000000001000000
0000000000000100
0000000001000000
0000000000000010
,
0000000001000000
0000000000100000
0000010000000000
0000001000000000
0100000000000000
0000001000000000
0010000000000000
0000010000000000
,
0010000000000000
0000010000000000
0010000000000000
0000001000000000
0010000000000000
0000010000000000
0100000000000000
0000001000000000
,
0010000000000000
0000001000000000
0100000000000000
0100000000000000
0000010000000000
0100000000000000
0000010000000000
0000010000000000
,
0100000000000000
0000001000000000
0000010000100000
0000000000000000
0000000001000000
0000000000000010
0000000000100000
0000000000000010
,
0000000000100000
0000000000000010
0000000001000000
0000000000100000
0000010000000000
0000000000100000
0000010000000000
0000000000100000
,
0000001000000000
0000000001000000
0000001000000000
0000000001000000
0000001000000000
0000010000000000
0010000000000000
0000001000000000
,
0100000000000000
0100000000000000
0000001000000000
0010000000000000
0000001000000000
0000010000000000
0000000000100000
0000000001000000
,
0000000000000010
0000000001000000
0000000000000100
0000000000100000
0000000000000100
0000000001000000
0000000000000010
0000000001000000
,
0000000000000100
0000000000100000
0000000000000010
0000000001000000
0000000001000000
0000000000000010
0000000000000010
0000000000100000
,
0000000000000010
0000000001000000
0000000000000100
0000000000000100
0000000001000000
0000000000000100
0000000000100000
0000000000000010
,
0000000001000000
0000000000000010
0000000001000000
0000000000000010
0000000000100100
0000000000000000
0000000001000010
0000000000000000
,
0000010000100000
0000001001000000
0010010000000000
0100001000000000
,
0100010000000000
0010001000000000
0010010000000000
0100001000000000
,
0010010000000000
0100001000000000
0010001000000000
0100010000000000
,
0010001000000000
0000000000000000
0100010000000000
0000000000000000
0100000000000000
0000001000000000
0100000000000000
0000010000000000
,
0010000000000000
0010000000000000
0000001000000000
0000000000000000
0100000000000000
0000000000000000
0000010000000000
0000000000000000
0010000000000000
0000000000000000
0000001000000000
0000000000000000
0100000000000000
0000000000000000
0000010000000000
0000000000000000
,
0010000000000000
0000001000000000
0100000000000000
0000010000000000
0010000000000000
0000001000000000
0000010000000000
0000000000100000
,
0000000001000000
0000000000000010
0000000000000100
0000000000000010
0000000001000000
0000000000000010
0000000000100000
0000000000000010
,
0000000001000000
0000000000000100
0000000000100000
0000000000000010
0000000001000000
0000000000000100
0000000001000000
0000000000000010
,
0000000000100000
0000000000000100
0000000000100000
0000000000000010
0000000001000000
0000000000000010
0000000001000000
0000000000000010
,
0000000001000000
0000000000000100
0000000000100000
0000000000000010
0000000001000000
0000000000000100
0000000001000000
0000000000000010
,
0000000000100000
0000000000000100
0000000000100000
0000000000000010
0000000001000000
0000000000000100
0000000000100000
0000000000000010
,
0000000001000000
0000000000000010
0000000001000000
0000000000000010
0000000001000000
0000000000100000
0000010000000000
0000001000000000
,
0100000000000000
0100000000000000
0000010000000000
0100000000000000
0000001000000000
0010000000000000
0000010000000000
0010000000000000
,
0000001000000000
0100000000000000
0000010000000000
0100000000000000
0000010000000000
0010000000000000
0000010000000000
0100000000000000
,
0000001000000000
0100000000000000
0000010000000000
0000010000000000
0100000000000000
0000001000000000
0010000000000000
0000001000000000
,
0010000000000000
0000001000000000
0100000000000000
0000001000000000
0010000000000000
0000010000000000
0100000000000000
0000001000000000
,
0000010000000000
0000000000100000
0000000001000000
0000000000000010
0000000001000000
0000000000000010
0000000000100000
0000000000000010
,
0000000001000000
0000000000000100
0000000000100000
0000000000000100
0000000001000000
0000000000000100
0000000001000000
0000000000100000
,
0000000000000100
0000000001000000
0000000000000010
0000000001000000
0000000000000100
0000000000100000
0000000000000010
0000000001000000
,
0000000000000010
0000000000000100
0000000000000010
0000000001000000
0000000000000100
0000000001000000
0000000000000100
0000000000100000
,
0000000000000010
0000000001000000
0000000000000100
0000000000100000
0000000000000010
0000000000100000
0000000000000100
0000000001000000
,
0000000000000010
0000000000100000
0000000000000100
0000000001000000
0000000000100000
0000010000000000
0000000001000000
0000001000000000
,
0000000000100000
0000010000000000
0000000000100000
0000010000000000
0000000000100000
0000010000000000
0000000000100000
0000001000000000
,
0000000001000000
0000001000000000
0000000001000000
0000010000000000
0000000001000000
0000010000000000
0000000001000000
0000001000000000
,
0000000000100000
0000001000000000
0000000000100000
0000001000000000
0000000001000000
0000000000100000
0000000000000100
0000000001000000
,
0000000000000010
0000000000100000
0000000000000010
0000000000100000
0000000000000010
0000000001000000
0000000000000100
0000000001000000
,
0000000000000010
0000000000100000
0000000000000010
0000000001000000
0000000000000100
0000000000100000
0000000000000010
0000000000100000
,
0000000000000100
0000000000100000
0000000000000010
0000000001000000
0000000000000100
0000000001000000
0000000000000010
0000000000100000
,
0000000000000100
0000000000100000
0000000000000100
0000000000100000
0000000000000010
0000000001000000
0000000000000100
0000000001000000
,
0000000000000010
0000000000100000
0000000000000010
0000000001000000
0000000000100000
0000010000000000
0000001000000000
0100000000000000
,
0000010000000000
0010000000000000
0000001000000000
0100000000000000
0000010000000000
0100000000000000
0000001000000000
0010000000000000
,
0010000000000000
0000001000000000
0000010000000000
0000000000100000
0000000001000000
0000000000000010
0000000000000100
0000000000000010
,
0000000001000000
0000000000000100
0000000000100000
0000000000000010
0000000001000000
0000000000000100
0000000001000000
0000000000000010
,
0000000000100000
0000000000000100
0000000000100000
0000000000000100
0000000001000000
0000000000000010
0000000000100000
0000000000000100
,
0000000001000000
0000000000000010
0000000001000000
0000000000000100
0000000000100000
0000000000000010
0000000001000000
0000000000000100
,
0000000001000000
0000000000000100
0000000001000000
0000000000000010
0000000001000000
0000000000100000
0000010000000000
0000000000100000
,
0000010000000000
0000000000100000
0000001000000000
0000000000100000
0000001000000000
0000000001000000
0000001000000000
0000000001000000
,
0000010000000000
0000000000100000
0000010000000000
0000000000100000
0000010000000000
0000001000000000
0100000000000000
0000010000000000
,
0010000000000000
0000001000000000
0010000000000000
0000001000000000
0100000000000000
0000010000000000
0010000000000000
0000001000000000
,
0100000000000000
0000010000000000
0100000000000000
0000001000000000
0000010000000000
0000000000100000
0000000001000000
0000000000000010
,
0000000001000000
0000000000000010
0000000001000000
0000000000000100
0000000000100000
0000000000000010
0000000000100000
0000000000000100
,
0000000000100000
0000000000000010
0000000001000000
0000000000000100
0000000001000000
0000000000000010
0000000000100000
0000000000000100
,
0000000001000000
0000000000000010
0000000001000000
0000000000000100
0000000000100000
0000000000000010
0000000001000000
0000000000000010
,
0000000001000000
0000000000000100
0000000001000000
0000000000100000
0000010000000000
0000001000000000
0100000000000000
0000010000000000
,
0100000000000000
0000001000000000
0010000000000000
0000010000000000
0010000000000000
0100000000000000
0000010000000000
0000001000000000
,
0100000000000000
0000001000000000
0010000000000000
0000001000000000
0000010000000000
0000000000100000
0000000001000000
0000000000000010
,
0000000001000000
0000000000000100
0000000001000000
0000000000000010
0000000000100000
0000000000000010
0000000001000000
0000000000000010
,
0000000001000000
0000000000000100
0000000001000000
0000000000100000
0000010000000000
0000001000000000
0100000000000000
0000001000000000
,
0100000000000000
0000010000000000
0100000000000000
0000010000000000
0010000000000000
0000001000000000
0010000000000000
0000010000000000
,
0010000000000000
0000010000000000
0100000000000000
0000001000000000
0010000000000000
0000001000000000
0100000000000000
0000010000000000
,
0010000000000000
0000010000000000
0010000000000000
0000001000000000
0100000000000000
0000010000000000
0010000000000000
0000001000000000
,
0000010000000000
0000000000100000
0000000001000000
0000000000000010
0000000000000000
0000000000000000
0000000000000000
0000000000000000
;
#NOTES:
     ds3ddx-single:
     Hard:
     Medium:
     8:
     :
00000000
00000000
00000000
00000000
00000000
00000000
00000000
00000000
01000000
01000000
00000000
00000010
00000000
01000000
00000000
00000000
,
00000010
00000010
00000000
00000000
01000000
00000000
00000010
00000000
01000000
01000000
00000000
00000000
00000010
00000000
00000000
00100000
,
00100000
00000000
00000000
00000100
00000000
01000000
00000000
00000000
00000010
00000010
00000000
00000000
01000000
00000000
00000010
00000000
,
01000000
00000000
00000100
00000000
00100000
00000000
00000010
00000000
01000000
00000000
00000010
00100000
00000000
00000100
00000000
01000000
,
00000000
00000010
00000010
00000010
00000000
00000000
00000000
00000000
00000100
00000000
00100000
00000000
00000010
00000000
00000010
00000000
,
00100000
00000010
01000000
00000010
01000000
00000010
00100000
00000100
,
01000000
00000100
01000000
00000010
01000000
00000010
00100000
00000100
,
01000000
00000010
00000010
01000000
00000100
00100000
00000010
01000000
,
00000010
00000100
01000000
00000100
01000000
01000000
00000100
00100000
,
00000010
00000010
01000000
00000100
00100000
00000100
00100000
00000010
,
01000000
00100000
00000010
01000000
00000010
01000000
00000100
00100000
,
00000010
00000010
00100000
00000010
00100000
00000010
00000100
01000000
,
00000100
01000000
00000010
01000000
00000100
00000010
01000000
00000100
,
00100000
00000010
01000000
00000010
00100000
00000010
00000100
01000000
,
00000010
01000000
00000100
00000010
01000000
00000010
00100000
00000100
,
00100000
00000100
00100000
00000010
00100000
00000100
01000000
00000010
,
00100000
01000000
00000010
00000010
01000000
00000100
01000000
00000010
,
01000000
00000100
00000010
00100000
00000010
01000000
00000100
01000000
,
00000010
00000010
01000000
00000100
00000100
00100000
00000010
01000000
,
00000100
00000010
00100000
01000000
00000010
01000000
00000100
01000000
,
00000100
00100000
00000100
01000000
00000010
01000000
00000100
01000000
,
00000010
00000100
00000010
01000000
00100000
00000010
01000000
00000100
,
00100000
00100000
00000010
01000000
01000000
00000010
00100000
00000010
,
01000000
00000010
00100000
00000100
01000000
00000010
01000000
00000100
,
00100000
00000100
01000000
00000000
01000100
00000000
00100010
00000000
,
01000100
01100000
00000110
00100100
,
01000010
00100010
01000100
01000010
,
01000010
00100100
01100000
00000110
,
00100010
00000000
01000100
00000000
01000000
00000010
01000000
00000100
,
00100000
00000010
01000000
00000100
01000000
00100000
00000010
01000000
,
00000010
00100000
00000100
01000000
00000100
00100000
00000010
00100000
,
00000100
00000010
01000000
00000010
01000000
00000100
01000000
00000010
,
01000000
00000100
00000010
00100000
01000000
00000100
00100000
00000100
,
01000000
00000010
00100000
00000010
00100000
00000010
01000000
00000010
,
00100000
00000010
00100000
00000100
01000000
00000010
00100000
01000000
,
00000100
00100000
00000010
01000000
01000000
00000010
00100000
01000000
,
00000100
00000010
00100000
00000010
01000000
00000100
00100000
00000010
,
01000000
00000010
00000010
01000000
00000100
00100000
01000000
00000010
,
00000100
00100000
00000010
00100000
00000010
01000000
00000100
00100000
,
00000010
01000000
00000100
00000010
00100000
01000000
00000100
01000000
,
00000010
00100000
00000100
00100000
00000100
01000000
00000010
00100000
,
01000000
00100000
01000000
00000100
00000010
00100000
00000100
01000000
,
00100000
00000010
00000010
01000000
00000100
00100000
01000000
00000010
,
00000010
01000000
00000100
00100000
00000100
00000100
00100000
00000100
,
01000000
00000010
01000000
00000100
00100000
00000100
00000010
01000000
,
00000100
00100000
00000010
01000000
00000010
01000000
00000100
00100000
,
00000010
01000000
00000100
00100000
00000010
01000000
00000100
00100000
,
01000000
00000010
01000000
00000100
00100000
00000100
00100000
00000010
,
01000000
00000010
01000000
00000100
00100000
00000100
00000010
00000100
,
00000010
00100000
01000000
00000100
00000010
01000000
00000010
00100000
,
00000010
01000000
00100000
00000100
00100000
00000010
01000000
00000100
,
00100000
00000010
00100000
00000100
01000000
00000010
00100000
00000100
,
01000000
00000010
01000000
00000010
01000000
00000100
00100000
00000010
,
00100000
00000100
00100000
01000000
00000100
00000010
00000100
00000010
,
00100000
00000100
01000000
00000010
01000000
00000010
00000100
01000000
,
00100000
00000100
00100000
00000100
01000000
01000000
00000010
00100000
,
00000010
01000000
00000010
00000010
01000000
00000010
00100000
00000010
,
01000000
00000100
00100000
01000000
00000100
00000010
01000000
01000000
,
00000100
00100000
00000010
00000010
01000000
00000100
00100000
00000010
,
01000000
00000010
01000000
00000100
01000000
00000100
01000000
00000100
,
00100000
00000100
01000000
00000010
01000000
00000100
00100000
00000010
,
00100000
00000010
01000000
00000100
01000000
00000010
00100000
00000100
,
01000000
00000010
00000010
01000000
00000100
00100000
00000010
01000000
,
00000100
00000100
00100000
00000010
01000000
00000100
00100000
00000010
,
01000000
00000100
00000010
00100000
01000000
00000010
00000010
01000000
,
00000100
01000000
00100000
00000010
01000000
00000010
01000000
00000010
,
00100000
00000010
01000000
00000100
00100000
00000100
01000000
00000100
,
01000000
00000010
00000010
00100000
00000100
01000000
00000010
00000010
,
01000000
01000000
00000010
00100000
00000100
01000000
00000010
00000100
,
01000000
00000010
00000100
00000010
01000000
00100000
00000010
01000000
,
00000100
00100000
00000010
01000000
00000100
00000000
00100000
01000000
,
00100000
01000000
00000100
00000010
00000100
00000010
01000000
00000010
,
01000000
00000010
00000100
01000000
01000000
00000100
00100000
00000010
,
01000000
00000100
01000000
00000100
00100000
00000010
00100000
00000100
,
00100000
00000100
01000000
00000010
00100000
00000010
01000000
00000100
,
00100000
00000100
00100000
00000010
01000000
00000100
01000000
00000100
,
01000000
00000000
00000000
00000000
00000010
01000000
00000000
00000000
00000000
00000000
00000000
00000000
00000000
00000000
00000000
00000000
;
