#TITLE:两个人;
#SUBTITLE:~ Two Person;
#ARTIST:박장현;
#TITLETRANSLIT:Liǎng gèrén;
#SUBTITLETRANSLIT:;
#ARTISTTRANSLIT:Park Jang-hyun;
#GENRE:;
#CREDIT:locuuraa;
#LYRICSPATH:;
#MUSIC:两个人.ogg;
#OFFSET:0.140;
#SAMPLESTART:11.940;
#SAMPLELENGTH:12.000;
#SELECTABLE:YES;
#BPMS:0.000=100.000;
#STOPS:;
#KEYSOUNDS:;
#BANNER:两个人.png;
#BACKGROUND:两个人.png;
#CDTITLE:../CDTitles/4DSS.png;
#BGCHANGES:-14.700=两个人.avi=1.000=0=0=1,
229.000=两个人.png=1.000=0=0=1,
99999=-nosongbg-=1.000=0=0=0 
;

#NOTES:
     ds3ddx-single:
     Hard:
     Medium:
     5:
     :
00000000
00000000
00000000
00000000
,
00000000
00000000
00000000
00000000
,
00000000
00000000
00000000
00000000
,
00000000
00000000
00000000
00000000
,
00000000
00100000
00100000
00100000
,
10000101
01000000
10000010
00000010
,
01000001
00100000
00000100
00000010
,
01000000
00100000
01100000
00000100
,
00000110
00000010
01000000
00100000
,
00000100
00100000
10100000
00000100
,
00000101
00100000
01000000
00000101
,
00000101
01000000
11000000
00000010
,
00000011
00000100
00000010
10100000
,
00000010
01000010
01000001
10000010
,
00100000
00100100
10000100
00100001
,
00000100
00000010
01000000
00100000
,
00000100
00000000
00100000
00100000
00100000
00100000
10000001
00000000
,
00010000
00000100
10000010
00100000
,
01000001
00000100
00110000
00100000
,
00010100
00100000
01000001
00000100
,
10000010
00100000
01000000
00000010
,
00000100
00100000
00010100
01000000
,
00010010
00100000
01000000
00000100
,
00000010
01000000
10000010
00000010
,
01000001
00000010
00000100
00100000
,
01000000
00000010
11000000
00100000
,
00010100
00100000
01000000
00000010
,
00000100
01000000
00110000
00000100
,
00010010
00000100
00000010
01000000
,
00100000
00000100
00100001
00100000
,
10000100
00100000
00000100
01000000
,
00100000
00000100
11000000
00000010
,
00110000
00000100
00100000
01000000
,
00000010
00000100
00100001
00000100
,
00110000
01000000
00110000
00000010
,
00010100
00100000
01000001
00000010
,
00100001
01000000
00110000
00000100
,
00010010
00100000
10100000
00000100
,
00000101
01000000
11000000
00000010
,
00000011
00000100
00000101
00100000
,
10100000
00000000
00000100
00000010
00100000
01000000
00010000
00000000
,
10000001
00100000
10000100
00000100
,
00100001
00000100
00000010
01000000
,
00100001
00000000
00000000
00000000
;
