#TITLE:세상끝까지;
#SUBTITLE:~ to the end of the world (到世界尽头);
#ARTIST:DANA;
#TITLETRANSLIT:Dào shìjiè jìntóu;
#SUBTITLETRANSLIT:;
#ARTISTTRANSLIT:;
#GENRE:;
#CREDIT:locuuraa;
#LYRICSPATH:;
#MUSIC:세상끝까지.ogg;
#OFFSET:1.360;
#SAMPLESTART:11.460;
#SAMPLELENGTH:12.000;
#SELECTABLE:YES;
#BPMS:0.000=154.470;
#STOPS:;
#KEYSOUNDS:;
#BANNER:세상끝까지.png;
#BACKGROUND:세상끝까지.png;
#CDTITLE:../CDTitles/4DSS.png;
#BGCHANGES:-14.700=세상끝까지.avi=1.000=0=0=1,
229.000=세상끝까지.png=1.000=0=0=1,
99999=-nosongbg-=1.000=0=0=0 
;

#NOTES:
     ds3ddx-single:
     Hard:
     Medium:
     4:
     :
00000000
00000000
00000000
00000000
,
00000000
00000000
00000000
00000000
,
00000000
00000000
00010000
00000000
,
00000000
00000000
00000000
00000000
,
00000000
00000000
00000000
00000000
,
00000000
00000000
10000000
00000001
,
00010000
00000001
00000000
00000000
,
00010000
00000000
00000000
10000000
,
00000000
00000000
00000001
00000000
,
00000000
00010000
00000000
00000000
,
00010000
00000000
00000000
10000001
,
00000000
00000000
00000000
00000100
,
00000000
00000010
01000000
00000000
,
00110000
00000000
00000000
00000000
,
00000000
00000000
00000000
00000000
,
00000000
00000000
00000000
00000000
,
00100100
00000000
00000000
00000000
00000000
00000000
00100000
00000100
,
00000000
00010000
00000000
00000000
00100100
00000000
00000000
00000000
,
00000000
00000000
00100000
00000010
00000000
10000000
00000000
00000000
,
01000000
00000000
00000000
00000000
00000000
00000000
00000100
01000000
,
00000000
00000010
00000000
00000000
00100100
00000000
00000000
00000000
,
01000000
00100000
00000000
00000100
00100000
00000000
00000000
00000000
,
10000001
00100000
00000000
00010100
,
00000000
10000000
00000000
00000000
00000010
01000000
00000000
00000011
,
00000000
00000000
01000000
00000010
00000000
11000000
00000000
00000000
,
00100000
00000000
00000000
10100000
00000000
00000000
00000100
00000000
,
00000000
00000101
00000000
00000000
10000000
00000000
00000000
00000001
,
00000000
00000000
00000000
00100000
00000000
00000100
00000000
00100000
00000000
00000000
00000000
00000000
,
10000001
00000000
00000000
01000000
00000000
00000000
00000011
00000000
,
00000000
01000000
00000000
00000000
00010100
00000000
00000000
00010000
,
00000000
00000000
00001000
00000000
00000000
00011000
00000000
00000000
,
00100000
00000000
00000000
10000100
00000000
00000000
00100000
00000000
,
00000000
00010100
00000000
00000000
10000000
00000000
00000000
00000001
,
00000000
00000000
00000000
01000000
00000000
00000010
00000000
01000000
00000000
00000000
00000000
00000000
,
00011000
00000000
00000000
00000010
00000000
00000000
01000000
00000000
,
00000000
00100000
00000000
00000000
00000100
00000000
00000000
00100000
,
00000000
00000000
00010000
00000000
00000000
00000000
00000100
00000000
00000000
00000000
00000000
00000000
00000000
00000000
00000000
10100000
00000000
00000000
00000000
00000000
00000000
00000000
00000000
00000000
,
00000100
00000000
00000000
00000000
00100000
00000000
00000000
00000000
00000000
00000100
00000000
00000000
00000000
00000000
00000000
00000000
00000000
00000000
00100000
00000000
00000000
00000000
00000000
00000000
,
00000000
01000000
00000000
00000000
00000010
00000000
00000000
00100000
,
00000000
00000000
01000000
00000000
00000000
00000010
00000000
00000000
,
10000001
00000000
00000000
00100000
00000000
00000000
00000100
00000000
,
00000000
00000000
00000000
00010000
00000000
00000000
00000000
00000000
00000000
00000000
00000000
00000000
10000000
00000000
00000000
00000000
10000000
00000000
00000000
00000000
00000000
00000000
00010000
00000000
,
00000000
00000000
00000100
00000000
00000000
00000010
00000000
00000000
,
01000000
00000000
00000000
00100000
00000000
00000000
00000100
00000000
,
00000000
00000000
00000000
10000000
00000000
00000000
00000000
00000000
00010000
00000000
00000000
00000000
00000001
00000000
00000000
00000000
00000000
00000000
00000000
00000000
00000000
00001000
00000000
00000000
,
00000000
00000000
00100000
00000000
00000000
01100000
00000000
00000000
,
10000000
00000000
00000000
00000001
00000000
00000000
00000100
00000000
,
00000000
00000110
00000000
00000000
00000001
00000000
00000000
00010000
,
00000000
10000000
00000000
00000000
,
00000000
00000000
00000000
00110000
00000000
00000000
00000101
00000000
,
00000000
11000000
00000000
00000000
00010010
00000000
00000000
00000000
,
00000000
00000000
00000000
00000000
,
00000000
00000000
00000000
00000000
,
00000000
00000000
00000000
10000001
00000000
00000000
00000000
00000000
00000000
00000000
00000000
00000000
00100000
00000000
00000000
00000000
00000100
00000000
00000000
00000000
00100000
00000000
00000000
00000000
,
00000000
00000000
00000000
00000000
,
00011000
00000000
00000000
00000000
;
