#VERSION:0.83;
#TITLE:モミアゲヲシャカアゲヲ;
#SUBTITLE:feat. ずんだもん;
#ARTIST:ぬぬぬぬぬぬぬぬぬぬぬぬぬぬぬぬぬぬぬぬぬぬぬぬぬぬぬぬぬぬぬぬぬぬぬぬぬぬぬぬぬぬぬぬぬぬぬぬぬぬ;
#TITLETRANSLIT:Momiagewo Shakaagewo;
#SUBTITLETRANSLIT:feat. Zundamon;
#ARTISTTRANSLIT:Nunununununununununununununununu;
#GENRE:;
#CREDIT:;
#MUSIC:Momiagewo Shakaagewo.ogg;
#BANNER:Momiagewo Shakaagewo-bn.png;
#BACKGROUND:;
#CDTITLE:;
#SAMPLESTART:43.064;
#SAMPLELENGTH:12.000;
#SELECTABLE:YES;
#OFFSET:0.436;
#BPMS:0.000=160.000;
#STOPS:;
#SPEEDS:0.000=1.000=0.000=0,
292.000=1.083=0.000=0,
292.500=1.167=0.000=0,
293.000=1.250=0.000=0,
293.500=1.333=0.000=0
;
#SCROLLS:0.000=1.000,
14.250=0.875,
14.500=0.750,
14.750=0.625,
15.000=0.500,
15.250=0.375,
15.500=0.250,
15.750=0.125,
16.000=0.000,
17.000=0.125,
17.250=0.250,
17.500=0.375,
17.750=0.500,
18.000=0.625,
18.250=0.750,
18.500=0.875,
18.750=1.000,
44.000=0.000,
46.000=0.250,
46.250=0.500,
46.500=0.750,
46.750=1.000,
84.000=0.750,
108.000=1.000,
146.000=0.750,
148.000=1.000,
187.250=0.750,
187.500=0.500,
187.750=0.250,
188.000=0.000,
190.000=0.250,
190.250=0.500,
190.500=0.750,
190.750=1.000,
207.250=0.750,
207.500=0.500,
207.750=0.250,
208.000=0.000,
210.000=0.250,
210.250=0.500,
210.500=0.750,
210.750=1.000,
222.000=0.000,
229.000=0.125,
229.250=0.250,
229.500=0.375,
229.750=0.500,
230.000=0.625,
230.250=0.750,
230.500=0.875,
230.750=1.000,
254.000=0.750,
326.000=0.563,
328.000=0.750
;
#JACKET:;
#DISCIMAGE:;
#CDIMAGE:;
#LASTSECONDHINT:139.564;
#BGCHANGES:;
#FGCHANGES:;
//--------------- dance-single - XMOD JU XO FS- MD- ----------------
#NOTEDATA:;
#STEPSTYPE:dance-single;
#DESCRIPTION:XMOD JU XO FS- MD-;
#DIFFICULTY:Hard;
#METER:13;
#RADARVALUES:0,0,0,0,0;
#CREDIT:Talkion;
#NOTES:
0000
0000
0000
0000
,
0000
0000
0000
0000
,
0000
0000
0000
0000
,
0000
0000
0000
0000
,
MMMM
0000
0000
0000
,
1000
0100
1000
0000
0001
0100
0001
0000
,
0010
0100
1000
0000
0100
0010
0001
0000
,
1000
0010
1000
0000
0001
0010
0001
0000
,
0100
0000
0000
0010
0000
0000
1000
0000
0000
0000
0000
0000
0100
0000
0010
0000
0100
0000
1000
0000
0000
0000
0000
0000
,
0001
0100
0001
0000
1000
0100
1000
0000
,
0010
0000
0100
0000
0010
0000
1000
0000
0000
0001
0000
0000
0020
0000
0000
0000
0000
0000
0130
0000
0000
0100
0000
0000
,
MMMM
0000
0000
0000
,
0001
0010
0001
0010
0000
0100
0100
0000
,
1000
0100
1000
0000
0010
0000
0000
0000
1000
0000
0001
0000
0010
0100
0000
0000
,
1000
0100
1000
0000
0010
0000
0100
0000
0001
0000
0010
0000
0010
0000
0000
0000
,
0001
0001
0001
0001
,
0200
0300
0000
0000
0110
0000
0000
0000
2001
0000
0100
0000
3100
0000
0000
0000
,
2000
0000
0010
3002
0010
0000
1003
0010
,
0100
0000
0001
1000
0000
0001
1000
0000
0200
0000
0010
0000
2300
0000
3000
0000
,
1020
0000
0000
0000
0000
0000
0032
0000
0000
0003
0000
0000
0010
0000
0100
0000
0010
0000
2000
0000
0000
3000
0000
0000
,
0001
0000
1000
0000
0100
0000
0010
0000
0100
0000
0000
0000
0002
0000
0000
0103
0000
0000
1000
0000
0000
0000
0000
0000
,
00M1
0100
0001
0100
0010
1000
1000
0100
,
0010
0000
0002
0000
MMM0
0000
1003
0000
0010
0100
0010
0000
2000
0000
0000
0000
,
3001
0010
0001
0010
0100
1000
1000
0010
,
0100
0000
0010
0000
1000
0000
0001
0000
0010
0100
0010
0000
0002
0000
0000
0000
,
1003
0010
1000
0010
0100
0001
0001
0010
,
0100
0000
0010
0000
0001
0000
1000
0000
0010
0100
0010
0000
2000
0000
0000
0000
,
3001
0000
0000
0000
,
2000
0100
3002
0010
0003
0110
1001
0000
,
2100
0000
3000
0000
0001
0000
1000
0000
0001
0100
0010
0000
1000
0000
0001
0000
,
1000
0100
0010
0000
0021
0000
0000
0000
0130
0000
0000
0000
0021
0000
0230
0000
,
0000
1300
0001
0100
0001
0010
0100
1000
,
0000
0000
0001
0000
0100
0010
0100
0000
1000
0000
0100
0010
0100
0000
0000
0000
,
0102
0000
0003
0000
1000
0000
0001
0000
1000
0100
0010
0000
0001
0000
1000
0000
,
0001
0100
0010
0000
1020
0000
0000
0000
0130
0000
0000
0000
1020
0000
0230
0000
,
0000
0301
1000
0100
1000
0010
0100
0001
,
1000
0000
1000
0000
0100
0010
0100
0000
M001
0000
0100
0000
1000
0000
0000
0000
,
0100
00M0
0101
0000
0000
0000
0100
00M0
1100
0000
0000
0000
0102
0000
0000
0000
,
1003
0100
1000
0010
0100
0001
0010
0001
,
1000
0010
1000
0100
0010
0001
0100
0010
,
0001
0010
2000
0100
3001
0010
0001
0100
,
2000
0000
3000
0000
0100
0000
0010
0000
1000
0010
0100
0000
0001
0000
1000
0000
,
0001
0010
0100
0000
1200
0000
0000
0000
0310
0000
0000
0000
1200
0000
0320
0000
,
0000
0031
1000
0010
1000
0100
0010
0001
,
0000
0100
0100
0100
0000
0010
0010
0000
,
1000
0001
1000
0000
0100
0020
0000
0031
,
0000
1000
0010
0100
0000
0010
0100
0000
,
MMMM
0000
0000
0000
,
1000
0100
1000
0100
0000
0010
0010
0000
,
0001
0000
0100
M0MM
0000
0000
2002
0000
0000
0000
0000
0000
0000
0000
3003
0000
,
0001
1000
0001
0000
0100
0020
0000
1030
,
0000
0001
0010
0100
0000
0010
0100
0000
,
MMMM
0000
0000
0000
,
0001
0100
0001
0100
0000
0010
0010
0000
,
2000
0010
0000
0000
3100
0000
0000
0000
1000
0000
0001
0000
0100
0010
0000
0000
,
1000
0010
0000
0010
1000
0000
0100
0000
0110
0000
0000
0000
0000
0000
0000
0000
,
0000
0000
0000
0000
,
0000
0000
0000
0000
,
0001
0010
0001
0010
0100
1000
0100
1000
,
0001
0100
0001
0100
0010
1000
0010
1000
,
0002
0000
0010
2003
0010
0000
3001
0010
,
0100
0000
1000
0001
0000
1000
0001
0000
0200
0000
0010
0000
0302
0000
0003
0000
,
0021
0000
0000
0000
0000
0000
2030
0000
0000
3000
0000
0000
0010
0000
0100
0000
0010
0000
0002
0000
0000
0003
0000
0000
,
1000
0001
0100
0010
0100
0000
2000
0000
3000
0000
0000
0000
,
0000
0000
0000
0000
,
0000
0000
0000
0000
,
0110
0000
0001
0010
0100
0000
1000
0010
,
0100
0000
0002
0000
1003
0000
0002
2003
,
0000
3100
0010
0000
0001
0100
0010
1000
,
0000
0000
0000
0000
,
0110
0000
1000
0010
0100
0000
0001
0010
,
0100
0000
2000
0000
3001
0000
2000
3002
,
0000
0103
0010
0000
1000
0100
0010
0001
,
1000
1000
1000
1000
0000
0110
1001
0000
,
2010
0000
3000
0000
0001
0000
0100
0000
0001
0010
0100
0000
1000
0000
0100
0000
,
1000
0010
0100
0000
0201
0000
0000
0000
0310
0000
0000
0000
0201
0000
0320
0000
,
0000
1030
0001
0010
0001
0100
0010
1000
,
0000
0000
0001
0000
0010
0100
0010
0000
1000
0000
0010
0100
0010
0000
0000
0000
,
0012
0000
0003
0000
1000
0000
0100
0000
1000
0010
0100
0000
0001
0000
0100
0000
,
0001
0010
0100
0000
1200
0000
0000
0000
0310
0000
0000
0000
1200
0000
0320
0000
,
0000
0031
1000
0010
1000
0100
0010
0001
,
1000
0000
1000
0000
0010
0100
0010
0000
M001
0000
0010
0000
1000
0000
0000
0000
,
0010
0M00
0011
0000
0000
0000
0010
0M00
1010
0000
0000
0000
0012
0000
0000
0000
,
1003
0010
1000
0100
0010
0001
0100
0001
,
1000
0100
1000
0010
0100
0001
0010
0100
,
0001
0100
2000
0010
3001
0100
0001
0010
,
2000
0000
3000
0000
0010
0000
0100
0000
1000
0100
0010
0000
0001
0000
0100
0000
,
0001
0100
0010
0000
1020
0000
0000
0000
0130
0000
0000
0000
1020
0000
0230
0000
,
0000
0301
1000
0100
1000
0010
0100
0001
,
0000
0010
0010
0010
0000
0100
0100
0000
,
1001
0000
0000
0000
;
//--------------- dance-single - XMOD JU XO FS- MD- ----------------
#NOTEDATA:;
#STEPSTYPE:dance-single;
#DESCRIPTION:XMOD JU XO FS- MD-;
#DIFFICULTY:Challenge;
#METER:15;
#RADARVALUES:0,0,0,0,0;
#CHARTNAME:;
#CHARTSTYLE:;
#CREDIT:;
#METERF:15;
#NOTES:
0000
0000
0000
0000
,
0000
0000
0000
0000
,
0000
0000
0000
0000
,
0000
0000
0000
0000
,
MMMM
0000
0000
0000
,
1000
0100
0000
1000
0100
0000
0000
0000
0010
0001
0000
0010
0001
0000
0000
0000
,
0100
0010
0100
0001
1000
0000
0000
0000
0001
0010
0001
0000
1000
0000
0000
0000
,
0010
0100
0010
1000
0001
0000
0000
0000
0010
0100
0000
0010
0100
0000
0000
0000
,
1000
0000
0000
0000
0000
0000
0001
0000
0000
0000
0000
0000
0100
0000
0000
0010
0000
0000
0000
0000
0000
0000
0000
0000
1000
0000
0000
0000
0010
0000
0000
0000
0100
0000
0000
0000
0001
0000
0000
0000
0000
0000
0000
0000
0000
0000
0000
0000
,
1000
0100
0010
0100
1000
0000
0000
0000
0001
0100
0010
0100
0001
0000
0000
0000
,
1000
0000
0000
0000
0100
0000
0000
0000
0020
0000
0000
0000
0001
0000
0000
0000
0000
0000
0130
0000
0000
0000
0000
0000
1000
0000
0000
0002
0000
0000
0000
0000
0000
0000
0000
0000
0103
0000
0000
0000
0000
0000
0100
0000
0000
0000
0000
0000
,
MMMM
0000
0000
0000
,
2000
0010
3002
0100
0003
0001
0001
0000
,
1000
0100
0020
0000
0130
0000
0000
0000
1000
0010
0000
0010
0100
0001
0000
0000
,
1000
0100
0020
0000
0130
1000
0010
0100
0001
0000
0011
0000
1010
0000
0000
0000
,
1000
1000
1000
1000
,
0200
0300
0000
0000
0110
0000
0000
0000
1001
0000
1010
0000
0011
0000
0000
0000
,
1002
0000
0000
0000
0103
0000
1002
0000
0103
0000
0000
0000
0001
0100
0010
1000
,
0001
0010
0001
1000
0000
0010
1000
0100
0020
0000
0100
0000
0032
0000
0003
0000
,
0201
0000
0000
0000
0000
0000
2300
0000
0000
3000
0000
0000
0100
0000
0001
0000
0010
0000
2000
0000
0000
3000
0000
0000
,
0010
0000
0001
0000
0100
0000
0010
0000
0100
0000
0000
0000
2000
0000
0000
3100
0000
0000
0001
0000
0000
0000
0000
0000
,
10M0
0000
0001
0010
0001
0000
1000
0010
1000
0000
0100
0000
0100
0000
0010
0001
,
0010
0000
0200
0000
M0MM
0000
1300
0000
0001
0100
0010
M000
0020
0000
0000
0000
,
0031
0000
1000
0010
1000
0000
0001
0010
0001
0000
0100
0000
0100
0000
0010
1000
,
0010
0000
1000
0001
1000
0000
0100
0000
1000
0100
0010
000M
0020
0000
0000
0000
,
1030
0000
0001
0010
0001
0000
1000
0010
1000
0000
0100
0000
0100
0000
0010
0001
,
0010
0000
0001
1000
0001
0000
0100
0000
0001
0100
0010
M000
0020
0000
0000
0000
,
0031
0000
0000
0000
0000
0000
0000
0000
0000
0000
0000
0000
1000
0100
0010
0001
,
2000
0010
3002
0100
0003
0101
1100
0000
,
2001
0000
3001
0000
0100
0000
0001
1000
0100
1000
0001
0000
0100
0000
0001
1000
,
0100
1000
0001
0000
0102
0000
0000
0000
1003
0000
0000
0000
0102
0000
2003
0000
,
0000
3001
0100
0001
0010
0100
1000
0001
,
1000
0000
1000
0000
0010
0100
0010
0100
2000
0000
3100
0001
0010
0000
0000
0000
,
1002
0000
1003
0000
0100
0000
1000
0001
0100
0001
1000
0000
0100
0000
1000
0001
,
0100
0001
1000
0000
2100
0000
0000
0000
3001
0000
0000
0000
2100
0000
3002
0000
,
0000
1003
0100
1000
0010
0100
0001
0010
,
0100
0000
0100
0000
1000
0100
1000
0100
00M2
0000
0103
0010
0001
0000
0000
0000
,
0100
00M0
1100
0000
0001
0000
0100
00M0
1100
0000
0000
0000
0102
0000
0000
0000
,
1003
0100
1000
0010
0100
0001
0010
0001
,
1000
0010
1000
0100
0010
0001
0100
0010
,
0001
0000
0010
0000
0100
0000
0001
1000
0002
0000
0010
0000
1003
0000
0100
0010
,
2000
0000
3000
0000
0010
0000
0001
1000
0010
1000
0001
0000
0010
0000
0001
1000
,
0010
1000
0001
0000
0012
0000
0000
0000
1003
0000
0000
0000
0012
0000
2003
0000
,
0000
3001
0010
0001
0100
0010
1000
0001
,
0000
0010
0010
0010
0000
0100
0100
0000
,
1000
0010
1000
0000
0100
0010
0010
0001
,
0000
0100
0010
1000
0000
0010
1000
0000
,
MMMM
0000
0000
0000
,
0002
0010
2003
0100
3000
1000
1000
0000
,
0010
0000
0100
M0MM
0000
0000
2002
0000
0000
0000
0000
0000
0000
0000
3003
0000
,
1000
0100
1000
0000
0010
0100
0100
0001
,
0000
0010
0100
1000
0000
0100
1000
0000
,
MMMM
0000
0000
0000
,
0002
0100
2003
0010
3000
1000
1000
0000
,
0002
0010
0000
0000
0103
0000
0000
0000
0001
0100
0000
0100
0010
1000
0000
0000
,
0002
0010
0000
0103
0010
0000
1000
0000
0MM1
0000
0000
0000
0000
0000
0000
0000
,
0000
0000
0000
0000
,
0000
0000
0000
0000
,
1000
0000
0000
0001
0000
0000
0010
0100
0010
0001
0100
0000
0001
1000
0100
1000
,
0001
0000
0000
0000
0100
0010
0100
0001
0010
0001
1000
0000
0000
0000
0000
0000
,
2001
0000
0000
0000
3100
0000
2001
0000
3100
0000
0000
0000
1000
0100
0010
0001
,
1000
0010
1000
0001
0000
0010
0001
0100
0020
0000
0100
0000
2030
0000
3000
0000
,
1200
0000
0000
0000
0000
0000
0302
0000
0000
0003
0000
0000
0100
0000
1000
0000
0010
0000
0002
0000
0000
0003
0000
0000
,
0010
1000
0100
0010
0100
0000
0002
0000
0003
0000
0000
0000
,
0000
0000
0000
0000
,
0000
0000
0000
0000
,
0110
0000
0000
0000
2000
0000
0010
0000
3001
0010
0100
0000
2000
0000
0010
0000
,
3001
0010
0100
0000
0020
0000
0000
0000
0031
0000
0000
0000
0010
0000
0002
0000
,
0000
0103
0010
0000
0100
0001
0010
0100
,
1000
0001
0100
0010
1000
0010
0100
0001
,
0010
0000
0000
0000
0002
0000
0010
0000
1003
0010
0100
0000
0002
0000
0010
0000
,
1003
0010
0100
0000
0020
0000
0000
0000
1030
0000
0000
0000
0020
0000
2030
0000
,
0000
3100
0010
0000
0100
1000
0010
0100
,
0001
0001
0001
0001
0000
0011
1010
0000
,
2001
0000
3001
0000
0010
0000
0001
1000
0010
1000
0100
0000
0010
0000
0001
1000
,
0010
1000
0100
0000
0210
0000
0000
0000
1300
0000
0000
0000
0210
0000
2300
0000
,
0000
3001
0010
0001
0100
0010
1000
0001
,
1000
0000
1000
0000
0100
0010
0100
0010
2000
0000
3010
0001
0100
0000
0000
0000
,
1002
0000
1003
0000
0010
0000
1000
0001
0010
0001
0100
0000
0010
0000
1000
0001
,
0010
0001
0100
0000
0210
0000
0000
0000
0301
0000
0000
0000
0210
0000
0302
0000
,
0000
1003
0010
1000
0100
0010
0001
0100
,
0010
0000
0010
0000
1000
0010
1000
0010
0M02
0000
0013
0100
0001
0000
0000
0000
,
0010
0M00
1010
0000
0001
0000
0010
0M00
1010
0000
0000
0000
0012
0000
0000
0000
,
1003
0010
1000
0100
0010
0001
0100
0001
,
1000
0100
1000
0010
0100
0001
0010
0100
,
0001
0000
0100
0000
0010
0000
0001
1000
0002
0000
0100
0000
1003
0000
0010
0100
,
2000
0000
3000
0000
0100
0000
0001
1000
0100
1000
0010
0000
0100
0000
0001
1000
,
0100
1000
0010
0000
0120
0000
0000
0000
1030
0000
0000
0000
0120
0000
2030
0000
,
0000
3001
0100
0001
0010
0100
1000
0001
,
0000
0100
0100
0100
0000
0010
0010
0000
,
1001
0000
0000
0000
;
