#TITLE:НУМЛ;
#SUBTITLE:;
#ARTIST:Zutt;
#TITLETRANSLIT:HYMN;
#SUBTITLETRANSLIT:;
#ARTISTTRANSLIT:;
#GENRE:FANTASY RENAISSANCE;
#CREDIT:;
#MUSIC:HYMN.ogg;
#BANNER:HYMN.png;
#BACKGROUND:HYMN-bg.png;
#CDTITLE:;
#SAMPLESTART:78.824;
#SAMPLELENGTH:10.633;
#SELECTABLE:YES;
#OFFSET:-0.005;
#BPMS:0.000=79.000
,28.000=158.000
,32.000=200.000
,196.000=158.600
,197.000=158.000
,242.000=157.200
,244.000=157.500
,245.667=162.000
,246.000=158.000
,249.000=163.900
,252.000=200.000
,376.000=192.000
,382.000=185.000
,383.000=191.000
,383.500=189.000
,384.000=190.000
;
#STOPS:;
#BGCHANGES:;
#FGCHANGES:;
//--------------- dance-single - -YOSEFU- ----------------
#NOTES:
     dance-single:
     -YOSEFU-:
     Beginner:
     7:
     0.285758,0.541319,0.240586,0.061865,0,291,256,35,9,0,0,0.285758,0.541319,0.240586,0.061865,0,291,256,35,9,0,0:
0000
0000
0000
0000
,
0000
0000
0000
0000
,
1000
0000
0001
0000
,
0100
0000
0000
0000
,
0010
0000
1000
0000
,
0100
0000
0000
0000
,
0010
0000
0001
0000
,
1001
0000
0000
0000
,
0000
0000
0000
0000
,
1001
0000
1000
0000
,
0001
0000
1000
1000
,
1001
0000
0001
0000
,
0100
0000
0010
0010
,
1000
0000
0000
0000
,
0001
0000
0000
0000
,
0100
0000
0000
0000
,
0010
0000
0000
0000
,
1001
0000
0001
0000
,
0100
0000
0001
0000
,
0010
0000
0001
0000
,
1000
1000
1000
0000
,
0001
0000
0010
0000
,
0100
0000
0010
0000
,
0001
0000
1000
0000
,
0010
0010
0010
0000
,
0110
0000
0001
0000
,
1000
0000
0100
0000
,
0010
0000
0001
0000
,
0100
0100
0100
0000
,
0010
0000
1000
0000
,
0001
0000
0010
0000
,
0100
0000
1000
0000
,
0001
0001
0001
0000
,
1001
0000
1000
0000
,
0001
0000
0100
0000
,
0110
0100
0010
0000
,
0100
0000
0001
0000
,
1001
0001
1000
0000
,
0100
0000
0010
0000
,
1001
1000
0001
0000
,
0100
0000
0010
0000
,
1000
1000
1000
1000
,
0001
0001
0001
0000
,
1000
1000
0001
0001
,
0100
0100
0010
0010
,
1000
1000
0100
0010
,
0001
0001
0100
0100
,
0001
0010
0100
0100
,
1000
1000
0100
0010
,
0000
0000
0001
0010
,
0001
0000
0010
0100
,
1000
0000
0001
0100
,
0001
0100
0010
1000
,
0001
0000
0000
0000
0110
0000
0000
0100
,
0000
0000
1000
0000
0000
1001
0000
0000
,
0100
0000
0000
0000
0001
0000
0000
1001
,
0000
0000
1000
0000
0000
0100
0000
0000
,
0110
0000
0000
0010
0000
0000
0001
0000
,
0000
1001
0000
0000
1000
0000
0000
0010
,
0000
0110
0000
1001
0000
0000
1000
0000
,
0000
0100
0000
0000
1001
0000
0000
0000
,
0001
0000
0000
0000
0100
0000
0000
0010
,
0000
2002
0000
0000
,
3003
0000
0000
0000
,
0010
0000
0000
0000
,
0100
0000
0000
0000
,
0010
0000
0000
0000
,
1001
0000
0000
1000
0000
1000
0000
1000
,
1000
0000
0000
0001
0000
0001
0000
0001
,
0001
0000
0000
0100
0000
0100
0000
0100
,
0100
0000
0000
0110
0000
0110
0000
0000
,
0001
0000
0000
1001
0000
1001
0000
0000
,
1000
0000
0000
0110
0000
0110
0000
0000
,
0001
0000
0000
0110
0000
0110
0000
0000
,
1001
0110
1001
1001
,
0110
0000
0000
0001
0000
0001
0000
0001
,
0001
0000
0000
1000
0000
1000
0000
1000
,
1000
0000
0000
0100
0000
0100
0000
0100
,
0100
0000
0000
0010
0000
0010
0000
0000
,
0110
0000
0000
0001
0000
0001
0000
0000
,
1001
0000
0000
1000
0000
1000
0000
0000
,
0110
0000
0000
0001
0000
0001
0000
0000
,
0100
0001
0100
0010
,
1000
0100
1000
0100
,
0010
0001
0010
0001
,
1000
0010
1000
0010
,
0100
0001
0100
0001
,
1000
0100
0010
0100
,
1000
0001
0100
0010
,
0100
0001
1000
0100
,
0001
0100
1000
0010
,
0200
0000
0000
0000
,
0000
0000
0000
0000
,
0000
0000
0000
0000
,
0000
0000
0000
0000
,
0000
0000
0300
0000
,
0001
0010
0200
0000
,
0310
0100
2000
0000
,
3001
0100
0020
0000
,
0000
0000
0000
0030
,
1000
0100
0020
0000
,
0130
0010
0002
0000
,
1003
0010
0200
0000
,
0000
0000
0000
0000
,
0000
0000
0000
0000
,
0300
0000
0000
0000
;
//--------------- dance-single - Frondal feat. -YOSEFU- ----------------
#NOTES:
     dance-single:
     Frondal feat. -YOSEFU-:
     Easy:
     12:
     0.477244,0.613495,0.240586,0.323073,0.134041,486,451,35,47,0,0,0.477244,0.613495,0.240586,0.323073,0.134041,486,451,35,47,0,0:
0000
0000
0000
0000
,
0000
0000
0000
0000
,
1000
0000
0100
0000
1000
0000
0001
0100
,
0010
0000
0000
0000
,
1000
1000
0100
0000
0010
0010
0001
0100
,
0010
0100
0001
0000
0000
0000
0000
0000
,
0001
0001
0010
0000
0100
0100
1000
0010
,
0100
0001
1000
0000
,
0000
0000
0000
0000
,
1001
0001
1000
0000
,
0000
0000
0000
0000
,
1001
1000
0001
0000
,
0000
0000
0000
0000
,
0020
0000
0230
0000
,
2300
0000
3002
0000
,
0203
0000
0320
0000
,
1030
0001
1000
0001
0010
0100
1000
0001
,
0101
0000
0100
0000
0010
1000
0001
0000
,
0011
0000
0010
0000
0100
0010
1000
0010
,
0002
0000
0000
2003
0000
0000
0000
0000
,
3010
0000
0010
0000
0100
0001
0010
0000
,
0011
0000
0010
0000
0100
1000
0001
0000
,
0101
0000
0100
0000
0010
0100
1000
0100
,
0002
0000
0000
2003
0000
0000
0000
0000
,
3100
0010
0100
0010
0000
0001
1000
0000
,
1010
0000
0010
0000
0100
0001
1000
0000
,
1100
0000
0100
0000
0010
0100
0001
0100
,
2000
0000
0000
3002
0000
0000
0000
0000
,
0103
0000
0100
0000
0010
1000
0100
0000
,
1100
0000
0100
0000
0010
0001
1000
0000
,
1010
0000
0010
0000
0100
0010
0001
0010
,
0100
0001
0010
0100
,
1000
0000
0001
0010
0100
1000
0010
0000
,
1000
0000
0010
0100
0001
0000
0010
0000
,
0001
0000
0100
0010
1000
0000
0100
0000
,
0001
0000
0100
1000
0010
0000
0100
0000
,
0001
0000
0010
0001
0100
0000
0010
0000
,
0001
0000
0010
1000
0100
0000
0010
0000
,
0001
0000
1000
0010
0100
0000
0100
0000
,
1000
0000
0100
0010
1000
0000
0100
0000
,
0010
0000
0001
0100
0010
0000
1000
0000
,
0001
0010
0001
0010
0100
1000
0100
1000
,
0020
0000
0030
0000
,
1000
0000
0001
0100
1000
0100
0001
0000
,
0100
0000
0010
0000
1000
0000
0001
0010
,
1000
0010
0100
0000
0100
1000
0000
1000
,
0001
0000
1000
0010
0001
0010
1000
0000
,
0010
0000
0100
0000
0001
0000
1000
0100
,
0001
0100
0010
0000
0010
0001
1000
0001
,
0000
0000
2000
3020
,
0230
0302
0023
0230
,
2300
3002
0203
0320
,
2030
3200
0320
0032
,
0103
0000
0000
0000
0101
0000
0000
0000
1001
0000
0000
1001
0000
0000
1000
0000
,
0000
0100
0000
0000
0010
0000
0001
0100
0000
0000
0101
0000
0000
0101
0000
0000
,
0100
0000
0000
0001
0000
0000
1000
0000
0100
0000
0010
0000
0000
0000
0011
0000
,
0000
1001
0000
0000
1000
0000
0000
0010
0000
0000
0100
0000
0001
0010
0000
0000
,
1001
0000
0000
1001
0000
0000
1000
0000
0000
0100
0000
0000
0010
0000
0100
1000
,
0000
0000
1100
0000
0000
1001
0000
0000
0001
0000
0000
0100
0000
0000
0010
0000
,
0100
0000
0001
0000
0000
0000
0101
0000
0000
1001
0000
0000
1000
0000
0000
0100
,
0000
0000
0010
0000
0001
0100
0000
0000
0101
0000
0000
1001
0000
0000
0000
0000
,
1000
0000
0000
0000
0100
0000
0000
0000
1000
0000
0000
0000
0000
0000
0000
0000
0001
0000
0000
0000
0100
0000
0000
0000
0001
0000
0000
0000
0000
0000
0000
0000
0000
0010
0000
0000
0000
0000
0000
0000
0000
0000
1000
0000
0000
0000
0000
0000
,
0000
0010
0000
0000
0002
0000
0000
0000
0000
0000
0000
0000
0000
0000
0000
0000
,
0203
0000
0000
0000
,
0310
1000
0000
1000
0000
1000
0000
1000
,
0200
0000
0000
0000
,
0310
0001
0000
0001
0000
0001
0000
0001
,
1000
1000
0000
0010
0000
0100
0000
0001
,
0010
0010
0000
0100
0000
1000
0000
0001
,
0100
0100
0000
1000
0000
0100
0000
0001
,
0010
0010
0000
1100
0000
0101
0000
0000
,
0001
0001
0000
0011
0000
1100
0000
0000
,
1000
1000
0000
1010
0000
0101
0000
0000
,
0001
0001
0000
1100
0000
0101
0000
0000
,
0001
0100
0010
0100
0001
1000
0100
0000
,
0110
0000
0010
0001
0010
0100
0010
0001
,
1000
0000
0001
0100
0010
0100
1000
0100
,
0010
0000
1000
0100
0010
0100
1000
0010
,
0100
0000
1000
0100
0001
0100
0010
0000
,
1000
0100
0010
0001
0000
0101
0000
0100
,
0001
0010
1000
0010
0000
0001
0000
0100
,
0010
1000
0100
0010
0000
0001
0000
0100
,
0001
0010
0100
1000
,
0001
0000
0000
0100
0000
0000
0010
0000
1000
0001
0000
0000
,
0010
0000
0000
0100
0000
0000
1000
0000
0001
0100
0000
0000
,
0010
0000
0000
1000
0000
0000
0100
0000
0010
0001
0000
0000
,
0100
0000
0000
0001
0000
0000
0010
0000
0100
0001
0000
0000
,
0100
0000
0000
1000
0000
0001
0100
0000
0000
0010
0000
1000
,
0100
0000
0000
0001
0000
0100
0010
0000
0000
0001
0000
1000
,
0010
0000
0000
0100
0000
0001
0010
0000
0000
0100
0000
1000
,
0010
0000
0000
0001
0000
0010
0100
0000
0000
0001
0000
1000
,
0200
0000
0000
0000
,
0010
0000
1000
0000
,
0010
0000
0001
0000
,
1000
0000
0010
0000
,
1000
0000
0001
1000
,
0320
0032
0203
0000
,
0320
0000
0000
2030
0000
0000
3100
0000
1000
0000
0100
0000
,
0020
0032
0203
0000
,
0000
0000
0000
0300
,
0002
0023
0230
0000
,
2300
0000
0000
3020
0000
0000
0130
0000
0001
0000
0100
0000
,
0002
0203
0320
0000
,
0000
0000
0000
0000
,
0000
0000
0000
0000
,
0030
0000
0000
0000
;
//--------------- dance-single - Frondal feat. -YOSEFU- ----------------
#NOTES:
     dance-single:
     Frondal feat. -YOSEFU-:
     Medium:
     15:
     0.626506,0.830022,0.206217,0.467425,0.41587,638,608,30,68,0,0,0.626506,0.830022,0.206217,0.467425,0.41587,638,608,30,68,0,0:
0000
0000
0000
0000
,
0000
0000
0000
0000
,
2000
0000
3200
0000
,
0320
0000
0000
0000
0032
0000
1000
0023
,
0032
0000
0203
2300
,
3200
0000
0320
0000
,
2030
0000
3002
0023
,
0230
0000
0000
0000
,
0300
0000
0000
0000
,
1100
1000
0010
0100
,
0001
0100
0010
1000
,
0101
0001
0010
0100
,
1000
0100
0010
0001
,
1000
0000
0010
0000
1000
0000
0001
0000
0100
0000
0001
0000
,
1000
0000
0100
0000
1000
0000
0001
0000
0010
0000
0001
0000
,
1000
0000
0010
0000
0100
0000
0001
0000
0010
0000
0100
0000
,
1000
0010
1000
0001
0010
0001
0100
0010
,
1000
0100
0010
0001
0100
0001
0010
0100
,
1000
0100
0010
0001
1000
0001
0100
0010
,
2000
0001
0000
0001
0000
0010
0000
3010
,
0100
0001
0010
0100
0000
1000
0000
0001
,
0100
0001
0010
0001
0010
0100
0010
0001
,
1000
0010
0100
0010
1000
0001
0010
0100
,
2000
0010
0000
0010
0000
0100
0000
3100
,
0010
0001
0100
0010
0000
1000
0100
0010
,
0001
0010
0100
0010
0001
1000
0010
0100
,
0001
1000
0100
0010
0001
0010
0100
1000
,
0001
0100
0010
0100
,
0001
0010
0100
1000
0000
0100
0001
0100
,
1000
0001
0100
0010
1000
0100
0010
0001
,
0010
0000
0000
0100
0000
0000
1000
0000
0000
0010
0000
0000
0001
0000
0000
0000
0010
0000
0000
0000
1000
0000
0000
0000
,
0001
0010
0100
1000
,
0001
0000
0000
0000
1000
0010
1000
0000
0001
0000
0010
0000
0100
0000
0000
0000
,
1000
0000
0100
0010
0000
0000
0020
0000
0000
0030
0000
0000
0001
0000
0100
0010
,
0000
0000
0020
0000
0000
0000
0030
0000
1000
0000
0100
0010
0000
0000
0001
0000
,
1000
0000
0010
0000
0100
0000
0001
1000
0000
0000
2000
0000
0000
0000
3100
0000
,
0100
0000
0010
0001
0000
0000
0002
0000
0000
0000
0103
0000
0100
0000
0010
1000
,
0001
0000
0020
0000
0000
0000
0130
0000
1000
0000
0001
0100
0000
0000
0200
0000
,
0000
0000
0310
0000
1000
0000
0001
0010
0000
0000
0020
0000
0000
0000
0130
0000
,
1000
0000
0010
0100
0000
0000
0200
0000
0000
0000
0301
0000
1000
0000
0100
0010
,
0000
0000
0020
0000
0000
0000
0031
0000
1000
0000
0010
0100
0000
0200
0000
0000
,
0301
0010
0001
0010
0100
1000
0100
1000
,
0020
0230
0301
0000
,
1100
1000
0001
0101
0100
0010
1000
0100
,
0001
0100
1000
0000
1010
1000
0001
0011
,
0010
0100
0001
0100
1000
0001
0010
0000
,
0101
0001
1000
1100
0100
0010
0001
0100
,
1000
0100
0001
0000
0011
0001
1000
1010
,
0010
0100
1000
0100
0001
1000
0010
0100
,
0000
0000
0002
0023
,
0230
2300
3020
0230
,
2300
3200
0302
0023
,
0230
0320
0032
2003
,
3020
0000
0000
0000
0130
0000
0000
0000
0101
0000
0001
1000
0000
0000
0100
0000
,
0010
0100
0000
1000
0100
1000
0000
0001
0000
0000
0101
0000
0100
0001
0000
0000
,
0010
0100
1000
0000
0001
0000
0100
0000
0001
0100
0010
0000
0000
0000
1001
0000
,
1000
0100
0000
0000
0010
0000
0100
1000
0000
0001
0100
0000
0010
0100
0001
0000
,
1001
0000
1000
0010
0000
0000
0100
0000
0001
0100
0000
0001
1000
0000
0100
0010
,
0000
0000
0011
0000
0001
1000
0000
0000
0010
0000
0100
0001
0000
1000
0100
0000
,
0010
0001
0100
0000
0000
0000
0110
0000
0010
1000
0000
0000
0100
0000
0010
0001
,
0000
1000
0001
0000
0100
0010
1000
0000
1010
0000
0000
0101
0000
0000
0000
0000
,
0001
0000
0000
0000
0100
0000
0000
0000
0001
0000
0000
0000
1000
0000
0000
0000
0001
0000
0000
0000
1000
0000
0000
0000
0100
0000
0000
0000
0000
0000
0000
0000
0000
0010
0000
0000
0000
0000
0000
0000
0000
0000
0011
0000
0000
0000
0000
0000
,
0000
0001
0000
0000
0200
0000
0000
0000
0000
0000
0000
0000
0000
0000
0000
0000
,
0302
0000
0000
0000
,
0013
0100
0000
0100
0000
0100
0000
0100
,
2000
0000
0000
0000
,
3010
0100
0000
0100
0000
1000
0000
0100
,
0002
0000
0000
0010
0000
1000
0000
0103
,
0020
0000
0000
1000
0000
0130
0000
0001
,
2000
0000
0000
0010
0000
0001
0000
3100
,
0010
0001
0000
0011
0000
1100
0000
0000
,
1000
0000
0010
0000
0000
0000
1010
0000
0000
0000
0101
0000
0000
0000
0100
0001
,
1000
0000
0100
0000
0000
0000
0110
0000
0000
0000
1001
0000
0000
1000
0000
0001
,
0100
0010
0000
0110
0000
1001
0000
0000
,
1000
0010
0001
0010
2000
0000
3002
0000
,
0013
0000
0000
0010
0100
0000
1000
0000
0010
0000
0001
0000
0010
0000
1000
0000
,
0100
0000
0000
0100
0010
0000
0001
0000
0100
0000
1000
0000
0100
0000
0001
0000
,
0010
0000
0000
0010
0100
0000
0001
0000
1000
0000
0010
0000
0100
0000
1000
0000
,
1001
0001
0100
0010
0100
0001
1000
0000
,
0010
0000
0100
0000
0001
0000
0010
0000
0100
0000
0000
0100
1000
0000
0001
0000
,
0010
0000
0100
0000
1000
0000
0010
0000
0100
0000
0000
0100
0001
0000
1000
0000
,
0100
0010
0001
0100
0010
1000
0001
0010
,
0110
0000
0000
0000
0110
0000
0000
0000
0100
0000
1000
0001
1000
0001
0000
0000
,
0100
0000
0001
0100
0000
0001
1000
0100
0010
0100
1000
0001
,
0100
0000
0010
1000
0000
0001
0100
0010
1000
0010
0100
0001
,
1000
0000
0100
0010
0000
1000
0010
0100
1000
0001
0100
0010
,
1000
0000
0001
0010
0000
0100
0001
0100
0010
0001
1000
0010
,
0100
0000
0001
0100
0010
0000
0010
0000
1000
0100
0010
0000
,
0010
0000
0001
0100
0001
0100
0010
0000
1000
0100
1000
0100
,
0010
0001
1000
0001
1000
0000
0010
1000
0001
1000
0001
0000
,
0100
0001
0100
0001
0010
0100
1000
0100
1000
0010
0100
0001
,
0200
0000
0000
0000
,
0301
0010
0001
0000
1000
0010
1000
0000
,
0001
0100
0001
0000
1000
0100
1000
0000
,
0001
0010
0001
0000
1000
0010
1000
0000
,
0001
0100
0001
0000
1000
0100
0010
0001
,
0200
0320
2030
0000
,
3200
0000
0000
0320
0000
0000
0031
0000
0010
0000
0100
0000
,
2000
3002
0203
0000
,
0000
0000
0000
0300
,
0020
2030
3200
0000
,
0320
0000
0000
0032
0000
0000
0103
0000
0001
0000
1000
0000
,
0002
0203
0320
0000
,
0000
0000
0000
0000
,
0000
0000
0000
0000
,
0030
0000
0000
0000
;
//--------------- dance-single - Frondal feat. -YOSEFU- ----------------
#NOTES:
     dance-single:
     Frondal feat. -YOSEFU-:
     Hard:
     17:
     0.739434,1.045719,0.295577,0.254334,0.673641,753,710,43,37,0,0,0.739434,1.045719,0.295577,0.254334,0.673641,753,710,43,37,0,0:
0000
0000
0000
0000
,
0000
0000
0000
0000
,
2000
0000
3020
0000
0230
0000
0301
0010
,
0200
0000
0000
0000
0320
0000
0000
0031
,
0100
0010
0001
0000
0010
0100
0001
0010
,
0100
1000
0020
0000
0100
0000
0000
0000
,
1030
0100
0010
0000
1000
0010
0001
0100
,
0010
1000
0100
0000
,
0000
0000
0000
0000
,
1001
1000
0001
0010
,
0001
0010
0100
1000
,
1001
0001
0100
0010
,
1000
0010
0100
0001
,
1000
0000
0100
0000
1000
0000
0001
0000
0100
0000
0001
0000
,
0010
0000
0100
0000
1000
0000
0010
0000
0100
0000
0001
0000
,
1000
0000
0100
0000
0010
0000
1000
0000
0010
0000
0100
0000
,
1000
0000
0001
0000
0100
0000
0010
0000
1000
0000
0001
0000
,
1000
0100
0010
1000
0010
0001
1000
0010
,
1000
0100
0010
0001
1000
0010
0001
0010
,
0200
0000
0000
0302
0000
0000
0003
0000
,
1000
0000
0010
0000
0100
0000
0001
0000
0000
0000
0010
0000
0010
0000
0000
0001
,
1000
0010
0100
1000
0100
0001
1000
0100
,
1000
0010
0100
0001
1000
0100
0001
0100
,
2000
0000
0000
3200
0000
0000
0000
0000
,
0301
0000
0100
0000
0010
0000
1000
0000
0000
0000
0010
0000
0010
0000
0001
1000
,
0001
0100
0010
0001
0010
1000
0001
0010
,
0001
0000
0000
0100
0000
0000
0010
0000
0000
1000
0000
0000
0001
0000
0000
0000
0010
0000
1000
0000
0010
0000
0000
0000
,
0100
1100
0011
0000
,
0001
0000
0010
0000
0100
0000
1000
0000
0000
0000
0010
0000
0100
0010
1000
0000
,
0001
0010
0100
0001
0100
1000
0001
0100
,
0001
0000
0000
0010
0000
0000
0100
0000
0000
1000
0000
0000
0001
0000
0000
0000
0100
0000
1000
0000
0100
0000
0000
0000
,
0001
0011
1100
1000
,
0001
0000
0100
0000
0010
1000
0001
1000
0100
0010
0001
1000
0100
0010
0001
0000
,
1000
0000
0010
0100
0010
0000
0010
0000
1000
0000
0100
0000
0010
0001
1000
0000
,
0010
0000
0100
0000
0010
0000
0010
0000
1000
0100
0010
0001
0000
1000
0010
0000
,
1010
0000
1000
0000
0001
0010
0001
0000
0100
0000
0010
0000
1000
0000
0001
0000
,
1000
0100
0010
0001
0000
1000
0010
0000
0100
0000
0001
0000
1000
0100
0010
0000
,
0011
0000
0001
0000
0100
0000
0100
0000
0010
1000
0001
0000
0010
0000
0100
0000
,
1000
0000
0001
0000
0100
0010
0100
0000
0100
0000
0001
0000
0010
0000
0100
0000
,
0110
0000
0010
0000
0001
0000
0001
0000
1000
0000
0010
0000
1000
0100
0010
0001
,
0000
1000
0010
0000
0100
0000
0100
0000
0001
0010
0100
1000
0000
0000
0001
0000
,
1000
0010
1000
0010
0100
0001
0100
0001
,
0020
0000
0030
0000
,
0001
0000
0010
0100
1000
0000
0001
0000
0100
0010
1000
0000
0100
0010
0001
0100
,
0010
0000
1000
0001
0010
0100
1000
0000
0010
0000
0100
0001
0010
0000
0100
0000
,
0010
0001
0100
0000
1000
0000
0100
0000
0010
1000
0001
0010
0100
1000
0001
0000
,
1000
0000
0010
0100
0001
0000
1000
0000
0100
0010
0001
0000
0100
0010
1000
0100
,
0010
0000
0001
1000
0010
0100
0001
0000
0010
0000
0100
1000
0010
0000
0100
0000
,
0010
1000
0100
0000
0001
0000
0100
0000
0010
0001
1000
0010
0100
0001
1000
0000
,
0000
0000
0002
0203
,
0320
0000
0000
0000
2030
0000
0000
3001
0100
0000
0000
0100
0002
0000
0000
0000
,
0013
0100
2000
0000
3002
0000
0023
0000
,
2030
0000
0000
0000
3020
0000
0000
0000
0130
0000
0000
0100
1000
0000
0000
1000
,
0001
0000
0000
0000
0101
0000
0000
0000
0100
0001
1000
0100
0000
0000
0010
0100
,
1000
0100
0010
0001
1000
0010
0100
0001
0000
0000
0010
0100
1000
0001
0000
0000
,
0100
0001
0010
0100
1000
0001
0100
0010
1000
0100
0010
0000
0000
0000
0001
0010
,
0100
1000
0000
0000
0001
0100
0010
0100
0001
1000
0100
0010
0001
1000
0010
0100
,
0001
0010
0100
1000
0000
0000
0001
0010
0001
0100
0001
1000
0001
0100
0001
0010
,
0000
0000
0100
1000
0001
0100
0000
0000
0010
1000
0100
1000
0010
1000
0001
1000
,
0100
0010
0001
0000
0000
0000
0100
0001
0010
0100
0000
0000
1000
0100
0010
0001
,
0010
0100
1000
0010
0100
0001
1000
0100
0010
0000
0000
1001
0000
0000
0000
0000
,
0001
0000
0000
0000
0010
0000
0000
0000
0100
0000
0000
0000
1000
0000
0000
0000
0010
0000
0000
0000
0100
0000
0000
0000
0001
0000
0000
0000
0000
0000
0000
0000
0000
0011
0000
0000
0000
0000
0000
0000
0000
0000
0101
0000
0000
0000
0000
0000
,
0000
1001
0000
0000
1100
0000
0000
0000
0000
0000
0000
0000
0000
0000
0000
0000
,
2000
0000
0000
0000
,
3002
0100
0000
0100
0000
0100
0000
0103
,
0020
0000
0000
0000
,
2030
0100
0000
0100
0000
0100
0000
3100
,
0010
0010
0000
0011
0000
0101
0000
1010
,
1000
1000
0000
1100
0000
0101
0000
0011
,
0010
0010
0000
0110
0000
1100
0000
1001
,
0001
0001
0000
0101
0000
1010
0000
0000
,
1100
0100
0000
1001
0000
0101
0000
0000
,
0011
0010
0000
0110
0000
1100
0000
0000
,
1001
0001
0000
0101
0000
0110
0000
0100
,
0001
0100
0010
0100
0001
0100
1000
0100
,
0001
0000
0000
0000
0100
0000
0010
1000
0001
0000
0010
0001
1000
0000
0010
0100
,
0001
0000
0000
0000
1000
0000
0100
1000
0010
0000
1000
0100
0010
0000
1000
0010
,
0001
0000
0000
0000
1000
0000
0001
0010
0100
0000
0010
0001
0100
0000
1000
0100
,
0001
0000
0000
0000
0010
0000
0100
1000
0010
0000
0100
0001
1000
0000
0000
0000
,
1100
0000
0100
0000
0010
0000
0011
0000
0001
0000
0000
1000
0010
0000
0000
0000
,
0110
0000
0100
0000
0001
0000
1001
0000
1000
0000
0000
0100
0010
0000
0000
0000
,
0011
0000
0001
0000
1000
0000
1010
0000
0010
0000
0000
0100
0001
0000
0000
0010
,
0100
1100
2000
3020
,
0130
0000
0000
0001
0010
0100
0001
0100
1000
0001
0010
0100
,
1000
0000
0000
0001
0100
0010
0001
0010
0100
0001
1000
0000
,
1001
0000
0000
1000
0100
0010
1000
0010
0001
1000
0100
0010
,
0001
0000
0000
1000
0010
0100
1000
0100
0010
1000
0001
0000
,
0001
0010
0100
1000
0010
1000
0001
0010
0100
1000
0001
1000
,
0100
0010
0001
1000
0010
1000
0100
0010
0001
1000
0010
0100
,
0001
0010
0100
1000
0010
0100
1000
0100
0010
1000
0100
0010
,
0001
0001
0100
0001
0010
0100
0001
0100
0010
0001
0100
0010
,
1000
0000
0000
0000
,
0100
0010
0100
0000
1000
0001
1000
0000
,
0010
0100
0010
0000
1000
0001
1000
0000
,
0100
0010
0001
0000
0100
0010
1000
0000
,
0001
0010
0100
0000
1000
0010
0001
0010
,
0200
0010
0010
0000
,
0302
0000
0000
0010
0000
0000
2003
0000
3200
0000
0010
0000
,
1300
0100
0002
0000
,
0000
0000
0000
0003
,
0200
0010
0010
0000
,
2300
0000
0000
0010
0000
0000
3002
0000
0203
0000
0010
0000
,
0301
0100
2000
0000
,
0000
0000
0000
0000
,
0000
0000
0000
0000
0000
0000
0000
0000
0000
0000
0000
3000
;
//--------------- dance-single - Frondal feat. -YOSEFU- ----------------
#NOTES:
     dance-single:
     Frondal feat. -YOSEFU-:
     Edit:
     18:
     0.759074,1.082638,0.109982,0.467425,0.811119,773,757,16,68,0,0,0.759074,1.082638,0.109982,0.467425,0.811119,773,757,16,68,0,0:
0000
0000
0000
0000
,
0000
0000
0000
0000
,
0000
0000
0000
0000
,
0000
0000
0000
0000
,
0001
0010
0100
0000
1000
0010
0100
0001
,
0010
0001
1000
0000
0000
0000
0000
0000
,
0001
0100
0010
0000
1000
0100
0010
0001
,
1001
1000
0010
0000
,
0000
0000
0000
0000
,
0110
0100
0001
0100
,
0010
1000
0001
0010
,
0110
0100
1000
0100
,
0010
0001
1000
0010
,
0200
0000
0320
0000
2030
0000
3200
0000
0320
0000
0032
0000
,
2003
0000
3020
0000
0230
0000
0302
0000
0023
0000
0230
0000
,
2300
0000
3020
0000
0032
0000
2003
0000
3200
0000
0302
0000
,
0013
0100
0010
1000
0001
0100
1000
0010
,
1000
0001
0100
1000
0100
0010
0100
0001
,
0010
0100
0010
0001
0100
0010
1000
0100
,
0020
0100
0000
0032
0000
0100
0000
1003
,
0100
0010
0001
0100
0000
1000
0000
0100
,
0010
1000
0100
0001
0100
0010
0001
0100
,
0010
1000
0010
0100
0001
0010
0100
0010
,
0002
0100
0000
0023
0000
1000
0000
0130
,
0001
0100
1000
0001
0000
0100
0010
1000
,
0001
1000
0010
0001
0010
1000
0100
0010
,
0001
0100
0010
0100
0001
0010
0100
1000
,
0002
0100
0000
0023
0000
0001
0000
0130
,
1000
0000
0001
0000
1000
0000
0010
0000
0000
0000
0001
0000
0010
0100
0001
1000
,
0100
1000
0010
0001
0010
1000
0100
0010
,
0001
0000
0000
1000
0000
0000
0001
0000
0000
0010
0000
0000
1000
0000
0000
0000
0010
0000
0000
0000
0001
0000
0000
0000
,
0200
0302
0023
1000
,
0001
0000
0000
0000
0130
1000
0100
0010
0001
0100
0010
1000
0001
0000
0000
0000
,
0100
0000
0000
0000
0001
0000
1000
0100
0010
0000
0100
0000
0000
0000
1000
0001
,
0100
0000
0010
0000
1000
0000
1000
0000
0100
0000
0010
0001
0100
0000
0010
0000
,
1000
0000
0000
0000
0100
0000
0010
0001
0100
0000
0001
0000
0000
0000
0010
0000
,
0100
1000
0001
0000
0100
0000
0010
0000
0000
0000
1000
0000
0001
0000
0010
0100
,
1000
0001
0100
0100
0010
0000
1000
0100
,
0000
0000
1000
0000
0001
0100
0010
0000
1000
0000
0100
0000
0000
0000
0010
0000
,
0001
0000
0100
0000
0010
0000
0010
0000
1000
0000
0010
0000
0100
0000
0001
0010
,
0100
0000
1000
0000
0001
0000
0001
0000
0100
0000
0010
1000
0001
0000
0010
0000
,
0001
0010
0100
0001
0100
1000
0010
0100
,
0001
1000
0100
0010
0001
1000
0010
0100
0010
0000
0000
0000
0000
0000
0000
0000
,
1000
0000
0001
0100
0010
0000
1000
0000
0001
0010
0100
0000
1000
0010
0100
0010
,
1000
0000
0001
0010
0100
0010
0001
0000
1000
0000
0100
0010
0001
0000
1000
0000
,
0010
0100
0001
0000
0100
1000
0100
0010
1000
0001
0010
0100
1000
0001
1000
0000
,
0100
0000
0010
0001
0100
0000
0010
0000
1000
0100
0010
0000
0001
0100
0010
1000
,
0100
0000
1000
0100
0010
0001
0100
0000
0001
0000
0010
0100
1000
0000
0010
0000
,
0100
0001
0010
0000
1000
0010
0001
0010
0100
1000
0010
0100
0001
1000
0010
0000
,
0000
0000
2000
3200
,
0320
0032
0203
0320
,
1030
0001
0000
0001
1000
0000
0000
0000
0002
0000
0000
0000
0023
0000
0000
0000
,
0230
0000
0000
0000
2300
0000
0000
0000
3001
0100
0000
0010
1000
0000
0001
0100
,
0001
1000
0001
1000
0100
0000
0000
0000
0010
0001
0100
1000
0000
0000
0100
0010
,
1000
0000
0000
0010
0000
0000
0100
0000
0000
0001
0000
0010
0000
0100
0000
1000
0000
0000
0001
0000
0000
0100
0000
0000
0000
0000
0000
0000
0000
0000
0010
0000
0000
1000
0000
0000
0100
0000
0000
0001
0000
0000
0000
0000
0000
0100
0000
0000
,
1000
0000
0000
0100
0000
0000
0010
0000
0000
0001
0000
0000
1000
0000
0010
0000
0100
0000
0001
0000
0000
0001
0000
0000
0010
0000
0000
0100
0000
0000
0010
0000
0000
0000
0000
0000
0000
0000
0000
0000
0000
0000
1000
0000
0000
0010
0000
0000
,
0001
0100
0000
0000
1000
0100
0010
0100
0001
0010
1000
0010
0100
1000
0100
0010
,
0100
0000
0000
1000
0000
0000
0010
0000
0000
0001
0000
0000
0000
0000
0000
0000
0000
0000
0010
0000
0000
0100
0000
0000
0001
0000
0000
0100
0000
0000
0010
0000
0000
1000
0000
0100
0000
0010
0000
0001
0000
0000
1000
0000
0000
0010
0000
0000
,
0000
0000
0100
0001
0010
1000
0000
0000
0010
0001
0010
0100
1000
0010
0100
0001
,
0010
0000
0100
0000
1000
0000
0010
0000
0000
0000
0000
0000
0000
0000
0000
0000
0000
0000
0001
0000
0000
0010
0000
0000
1000
0000
0000
0100
0000
0000
0000
0000
0000
0000
0000
0000
0010
0000
0000
1000
0000
0000
0001
0000
0000
0100
0000
0000
,
1000
0010
0001
1000
0100
0001
0010
0100
2000
0000
0000
3002
0000
0000
0000
0000
,
1003
0000
0000
0000
0100
0000
0000
0000
0100
0000
0000
0000
0001
0000
0000
0000
0010
0000
0000
0000
0010
0000
0000
0000
2000
0000
0000
0000
0000
0000
0000
0000
0000
3200
0000
0000
0000
0000
0000
0000
0000
0000
0320
0000
0000
0000
0000
0000
,
0000
0032
0000
0000
1003
0000
0000
0000
0000
0000
0000
0000
0000
0000
0000
0000
,
0010
0000
0000
0000
,
0100
1000
0000
1000
0000
0100
0000
0001
,
1000
0000
0000
0000
,
0100
0000
0001
0000
0000
0000
0001
0000
0100
0000
0010
0001
1000
0010
1000
0100
,
0010
0000
0000
0000
0000
0000
0000
0000
0000
0000
0000
0000
0001
0100
0000
0000
0000
0000
0000
0000
0001
0100
0000
0000
0000
0000
0000
0000
0001
0100
0000
0000
,
0010
0000
0000
0000
0000
0000
0000
0000
0000
0000
0000
0000
1000
0100
0000
0000
0000
0000
0000
0000
1000
0100
0000
0000
0000
0000
0000
0000
1000
0100
0000
0000
,
0010
0000
0000
0000
0000
0000
0000
0000
0000
0000
0000
0000
0001
0100
0000
0000
0000
0000
0000
0000
0010
1000
0000
0000
0000
0000
0000
0000
0100
0010
0000
0000
,
0001
1000
0000
1001
0000
1001
0000
0000
,
0001
0000
0010
0000
0000
0000
0011
0000
0000
0000
1100
0000
0000
0000
1000
0001
,
1000
0000
0010
0000
0000
0000
1010
0000
0000
0000
0101
0000
0000
0001
1000
0001
,
0010
0000
0100
0000
0000
0000
0110
0000
0000
0000
0110
0000
0000
0000
0010
0001
,
2000
0000
0100
3000
0002
0000
0100
0003
1000
0000
0000
0000
1001
0000
0000
0000
,
0001
0000
0000
0010
0100
0000
1000
0020
0100
0030
1000
0020
0100
0030
1000
0100
,
0010
0000
0000
0001
0100
0000
0001
0020
0100
0030
0001
0020
0100
0030
0001
0100
,
0010
0000
0000
1000
0001
0000
0010
0100
1000
0000
0010
0100
0001
0000
1000
0000
,
1001
0000
0001
0000
0010
0000
0100
0010
1000
0000
0001
0100
0010
0001
0100
0000
,
1000
0000
0100
0000
0001
0000
0101
0000
0100
0000
0010
0100
0001
0000
0010
0100
,
0001
0000
0100
0000
1000
0000
1100
0000
0100
0000
0010
0100
1000
0000
0010
0100
,
1000
0000
0100
0000
0010
0000
0110
0000
0100
0000
0001
0010
1000
0000
0001
0100
,
2000
0000
0000
0000
3002
0000
0000
0000
0103
0000
0010
1000
0001
0010
0100
0000
,
1000
0010
0100
0001
0010
0100
1000
0001
0100
0010
0100
0001
,
1000
0100
0010
0001
1000
0010
0100
0001
0100
0010
1000
0001
,
0010
0100
1000
0001
0100
0010
0001
0010
0100
0001
1000
0100
,
0010
0001
0100
0010
1000
0100
0001
0100
1000
0001
0100
0010
,
0001
0010
0100
0001
1000
0100
0001
0100
0010
0001
1000
0010
,
0001
0010
1000
0100
0010
0100
0001
0100
1000
0001
0100
0010
,
0001
0010
0100
0001
1000
0100
0001
0100
1000
0001
1000
0010
,
0001
1000
0100
0001
0010
0100
0001
0100
1000
0001
0100
1000
,
0200
0000
0000
0000
,
0310
1000
0100
0000
0010
0001
0100
0000
,
0010
1000
0001
0000
0100
0010
1000
0000
,
0100
0010
0001
0000
0100
0010
1000
0000
,
0100
0010
0001
0000
0100
0010
1000
0100
,
0002
0203
2300
3000
,
2000
0000
0000
3020
0000
0000
0031
0000
0010
0000
1000
0000
,
0002
0023
0230
0000
,
0000
0000
0000
0300
,
0002
0203
2300
3000
,
2000
0000
0000
3020
0000
0000
0031
0000
0010
0000
1000
0000
,
0002
0023
0230
0000
,
0000
0000
0000
0000
,
0000
0000
0000
0000
,
0300
0000
0000
0000
;
