#VERSION:0.83;
#TITLE:[_];
#SUBTITLE:;
#ARTIST:黒皇帝;
#TITLETRANSLIT:;
#SUBTITLETRANSLIT:;
#ARTISTTRANSLIT:Kurokotei;
#GENRE:;
#ORIGIN:;
#CREDIT:;
#BANNER:bn.png;
#BACKGROUND:bg.png;
#PREVIEWVID:;
#JACKET:jkt.png;
#CDIMAGE:;
#DISCIMAGE:;
#LYRICSPATH:;
#CDTITLE:;
#MUSIC:audio.ogg;
#OFFSET:-0.028000;
#SAMPLESTART:57.137001;
#SAMPLELENGTH:12.000000;
#SELECTABLE:YES;
#DISPLAYBPM:167.000000;
#BPMS:0.000=167.000,
376.000=83.500;
#STOPS:;
#DELAYS:;
#WARPS:;
#TIMESIGNATURES:0.000=4=4;
#TICKCOUNTS:0.000=4;
#COMBOS:0.000=1;
#SPEEDS:0.000=0.500=0.000=0,
30.000=0.562=0.250=0,
30.250=0.625=0.250=0,
30.500=0.688=0.250=0,
30.750=0.750=0.250=0,
31.000=0.812=0.250=0,
31.250=0.875=0.250=0,
31.500=0.938=0.250=0,
31.750=1.000=0.250=0,
135.500=0.998=0.125=0,
135.625=0.981=0.125=0,
135.750=0.937=0.125=0,
135.875=0.850=0.125=0,
136.000=0.763=0.125=0,
136.125=0.719=0.125=0,
136.250=0.702=0.125=0,
136.375=0.700=0.125=0,
143.500=0.702=0.125=0,
143.625=0.719=0.125=0,
143.750=0.763=0.125=0,
143.875=0.850=0.125=0,
144.000=0.937=0.125=0,
144.125=0.981=0.125=0,
144.250=0.998=0.125=0,
144.375=1.000=0.125=0,
151.500=0.998=0.125=0,
151.625=0.981=0.125=0,
151.750=0.937=0.125=0,
151.875=0.850=0.125=0,
152.000=0.763=0.125=0,
152.125=0.719=0.125=0,
152.250=0.702=0.125=0,
152.375=0.700=0.125=0,
159.000=0.738=0.125=0,
159.125=0.775=0.125=0,
159.250=0.812=0.125=0,
159.375=0.850=0.125=0,
159.500=0.887=0.125=0,
159.625=0.925=0.125=0,
159.750=0.962=0.125=0,
159.875=1.000=0.125=0,
224.000=1.094=0.062=0,
224.062=0.738=0.062=0,
224.125=1.081=0.062=0,
224.188=0.775=0.062=0,
224.250=1.069=0.062=0,
224.312=0.812=0.062=0,
224.375=1.056=0.062=0,
224.438=0.850=0.062=0,
224.500=1.044=0.062=0,
224.562=0.887=0.062=0,
224.625=1.031=0.062=0,
224.688=0.925=0.062=0,
224.750=1.019=0.062=0,
224.812=0.962=0.062=0,
224.875=1.006=0.062=0,
224.938=1.000=0.062=0,
225.000=1.056=0.062=0,
225.062=0.702=0.062=0,
225.125=1.049=0.062=0,
225.188=0.745=0.062=0,
225.250=1.041=0.062=0,
225.312=0.788=0.062=0,
225.375=1.034=0.062=0,
225.438=0.830=0.062=0,
225.500=1.026=0.062=0,
225.562=0.873=0.062=0,
225.625=1.019=0.062=0,
225.688=0.915=0.062=0,
225.750=1.011=0.062=0,
225.812=0.957=0.062=0,
225.875=1.004=0.062=0,
225.938=1.000=0.062=0,
226.000=1.019=0.062=0,
226.062=0.668=0.062=0,
226.125=1.016=0.062=0,
226.188=0.715=0.062=0,
226.250=1.014=0.062=0,
226.312=0.762=0.062=0,
226.375=1.011=0.062=0,
226.438=0.810=0.062=0,
226.500=1.009=0.062=0,
226.562=0.858=0.062=0,
226.625=1.006=0.062=0,
226.688=0.905=0.062=0,
226.750=1.004=0.062=0,
226.812=0.952=0.062=0,
226.875=1.001=0.062=0,
226.938=1.000=0.062=0,
227.000=0.981=0.062=0,
227.062=0.632=0.062=0,
227.125=0.984=0.062=0,
227.188=0.685=0.062=0,
227.250=0.986=0.062=0,
227.312=0.738=0.062=0,
227.375=0.989=0.062=0,
227.438=0.790=0.062=0,
227.500=0.991=0.062=0,
227.562=0.842=0.062=0,
227.625=0.994=0.062=0,
227.688=0.895=0.062=0,
227.750=0.996=0.062=0,
227.812=0.947=0.062=0,
227.875=0.999=0.062=0,
227.938=1.000=0.062=0,
228.000=0.944=0.062=0,
228.062=0.598=0.062=0,
228.125=0.951=0.062=0,
228.188=0.655=0.062=0,
228.250=0.959=0.062=0,
228.312=0.712=0.062=0,
228.375=0.966=0.062=0,
228.438=0.770=0.062=0,
228.500=0.974=0.062=0,
228.562=0.827=0.062=0,
228.625=0.981=0.062=0,
228.688=0.885=0.062=0,
228.750=0.989=0.062=0,
228.812=0.942=0.062=0,
228.875=0.996=0.062=0,
228.938=1.000=0.062=0,
229.000=0.906=0.062=0,
229.062=0.562=0.062=0,
229.125=0.919=0.062=0,
229.188=0.625=0.062=0,
229.250=0.931=0.062=0,
229.312=0.688=0.062=0,
229.375=0.944=0.062=0,
229.438=0.750=0.062=0,
229.500=0.956=0.062=0,
229.562=0.812=0.062=0,
229.625=0.969=0.062=0,
229.688=0.875=0.062=0,
229.750=0.981=0.062=0,
229.812=0.938=0.062=0,
229.875=0.994=0.062=0,
229.938=1.000=0.062=0,
230.000=0.869=0.062=0,
230.062=0.527=0.062=0,
230.125=0.886=0.062=0,
230.188=0.595=0.062=0,
230.250=0.904=0.062=0,
230.312=0.663=0.062=0,
230.375=0.921=0.062=0,
230.438=0.730=0.062=0,
230.500=0.939=0.062=0,
230.562=0.798=0.062=0,
230.625=0.956=0.062=0,
230.688=0.865=0.062=0,
230.750=0.974=0.062=0,
230.812=0.933=0.062=0,
230.875=0.991=0.062=0,
230.938=1.000=0.062=0,
231.000=0.831=0.062=0,
231.062=0.493=0.062=0,
231.125=0.854=0.062=0,
231.188=0.565=0.062=0,
231.250=0.876=0.062=0,
231.312=0.637=0.062=0,
231.375=0.899=0.062=0,
231.438=0.710=0.062=0,
231.500=0.921=0.062=0,
231.562=0.783=0.062=0,
231.625=0.944=0.062=0,
231.688=0.855=0.062=0,
231.750=0.966=0.062=0,
231.812=0.928=0.062=0,
231.875=0.989=0.062=0,
231.938=1.000=0.062=0,
351.500=0.998=0.125=0,
351.625=0.981=0.125=0,
351.750=0.937=0.125=0,
351.875=0.850=0.125=0,
352.000=0.763=0.125=0,
352.125=0.719=0.125=0,
352.250=0.702=0.125=0,
352.375=0.700=0.125=0,
356.000=0.738=0.250=0,
356.250=0.775=0.250=0,
356.500=0.812=0.250=0,
356.750=0.850=0.250=0,
357.000=0.887=0.250=0,
357.250=0.925=0.250=0,
357.500=0.962=0.250=0,
357.750=1.000=0.250=0;
#SCROLLS:0.000=1.000,
92.000=0.750,
94.000=1.000,
240.000=0.998,
240.125=0.988,
240.250=0.958,
240.375=0.900,
240.500=0.842,
240.625=0.812,
240.750=0.802,
240.875=0.800,
275.000=0.802,
275.250=0.812,
275.500=0.842,
275.750=0.900,
276.000=0.958,
276.250=0.988,
276.500=0.998,
276.750=1.000,
279.000=0.998,
279.250=0.988,
279.500=0.958,
279.750=0.900,
280.000=0.842,
280.250=0.812,
280.500=0.802,
280.750=0.800,
311.000=0.798,
311.125=0.788,
311.250=0.758,
311.375=0.700,
311.500=0.642,
311.625=0.613,
311.750=0.602,
311.875=0.600,
327.000=0.603,
327.125=0.625,
327.250=0.684,
327.375=0.800,
327.500=0.916,
327.625=0.975,
327.750=0.997,
327.875=1.000,
367.000=0.962,
367.125=0.925,
367.250=0.887,
367.375=0.850,
367.500=0.812,
367.625=0.775,
367.750=0.738,
367.875=0.700,
368.000=1.973,
368.125=1.502,
368.250=1.164,
368.375=0.938,
368.500=0.800,
368.625=0.730,
368.750=0.704,
368.875=0.700,
369.000=1.973,
369.125=1.502,
369.250=1.164,
369.375=0.938,
369.500=0.800,
369.625=0.730,
369.750=0.704,
369.875=0.700,
370.000=1.973,
370.125=1.502,
370.250=1.164,
370.375=0.938,
370.500=0.800,
370.625=0.730,
370.750=0.704,
370.875=0.700,
371.000=2.072,
371.125=1.675,
371.250=1.391,
371.375=1.200,
371.500=1.084,
371.625=1.025,
371.750=1.003,
371.875=1.000;
#FAKES:;
#LABELS:0.000=Song Start;
#BGCHANGES:0.000=bg=1.000=0=0=1=====,
392.000=bg.png=1.000=0=0=1=StretchNormal====,
99999=-nosongbg-=1.000=0=0=0 // don't automatically add -songbackground-
;
#FGCHANGES:0.000=lua=1.000=0=0=1=====,
;
#KEYSOUNDS:;
#ATTACKS:
;

//---------------dance-single - ----------------
#NOTEDATA:;
#CHARTNAME:;
#STEPSTYPE:dance-single;
#DESCRIPTION:;
#CHARTSTYLE:;
#DIFFICULTY:Medium;
#METER:13;
#RADARVALUES:0.513992,0.693312,0.053902,0.256034,0.107804,534.000000,526.000000,8.000000,38.000000,0.000000,0.000000,2.000000,0.000000,0.000000,0.513992,0.693312,0.053902,0.256034,0.107804,534.000000,526.000000,8.000000,38.000000,0.000000,0.000000,2.000000,0.000000,0.000000;
#CREDIT:;
#DISPLAYBPM:167.000000;
#NOTES:
0000
0000
0000
0000
,
0000
0000
0000
0000
,
0000
0000
0000
0000
,
0000
0000
0000
0000
,
0000
0000
0000
0000
,
0000
0000
0000
0000
,
0000
0000
0000
0000
,
0000
0000
0002
0000
,
1003
0010
0100
0001
,
1000
0100
0010
0001
,
1000
0001
0100
0001
,
1000
0100
0020
0000
,
0031
1000
0001
0000
0100
0000
0010
0000
,
1000
0001
1000
0000
0100
0000
0010
0000
,
0002
0000
0000
0000
,
0103
0100
0100
0100
0100
0100
0100
0100
,
0001
0000
1000
0100
1000
0000
0001
0000
1000
0010
0000
0010
0100
0000
0001
0000
,
1000
0100
0010
0001
0010
0100
1000
0000
,
0002
0100
2003
0100
3001
0010
0100
1000
,
1002
0000
0000
0103
0010
0000
0100
0000
2001
0000
0000
3100
0010
0000
0100
0000
,
1000
0000
0001
0100
0001
0000
1000
0000
0001
0010
0000
0010
0100
0000
1000
0000
,
0001
0100
0010
1000
0010
0100
0001
0000
,
1000
0100
1000
0000
0001
0100
0001
0000
,
2001
0000
0000
3100
0010
0000
0000
0001
,
1000
0100
1000
0001
0100
0001
1000
0100
,
1000
0000
0001
0200
0000
0310
0000
1000
,
0001
0100
0001
1000
0100
1000
0001
0100
,
0001
0000
0010
0200
0000
1300
0000
0001
,
0100
0010
0100
0001
1000
0001
0010
0100
,
0010
0000
0001
0200
0000
0310
0000
1000
,
0100
0010
0100
1000
0001
1000
0010
0100
,
0010
0000
1000
0200
0000
0310
0000
0001
,
1000
0100
1000
0100
0001
0100
0001
0100
,
1000
0000
0001
2000
0000
3001
0000
0001
,
1000
0100
1000
0100
0001
0100
0001
0100
,
1000
0000
0001
2000
0000
3001
0010
0100
,
1000
0010
1000
0010
0001
0010
0001
0010
,
1000
0000
0001
2000
0000
3001
0000
0001
,
1000
0010
1000
0010
0001
0010
0001
0010
,
1000
0000
0000
0000
,
1000
0100
0010
0100
0001
0100
0010
0100
,
1000
0000
0010
0100
0010
0000
1000
0000
0001
0000
0010
0100
0010
0000
0001
0000
,
1000
0010
0100
0010
0001
0010
0100
0010
,
1000
0000
0100
0010
0100
0000
1000
0000
0001
0000
0100
0010
0100
0000
0001
1000
,
0001
0100
0010
0100
1000
0100
0010
0100
,
0001
0000
0010
0100
0010
0000
0001
0000
1000
0000
0010
0100
0010
0000
1000
0000
,
0001
0010
0100
0010
1000
0010
0100
0010
,
0001
0000
0000
0000
0100
0000
0000
0000
0001
0000
0000
0000
1000
0000
0000
0000
0100
0000
0000
0000
1000
0000
0000
0000
0001
0000
0000
0010
0000
0000
0000
0000
0000
0010
0000
0000
0100
0000
0000
0000
0000
0000
2000
0000
0000
0000
0000
0000
,
3001
0100
1000
0100
0001
0010
0100
0010
,
0001
0100
0010
0100
1000
0100
0010
0100
,
0001
0010
1000
0010
0001
0100
0010
0100
,
0001
0000
0010
0000
0100
0000
0010
0000
1000
0000
0010
0000
0100
0000
0010
0001
,
1000
0100
0001
0100
1000
0010
0100
0010
,
1000
0100
0010
0100
0001
0100
0010
0100
,
1000
0001
1000
0001
0100
0010
0100
0010
,
1000
0002
0103
0020
1030
0200
0310
0002
,
2003
3020
0230
0302
,
0023
0230
2300
3002
,
0103
0100
0100
0100
,
0001
1000
0001
1000
0001
1000
0001
1000
,
0000
0000
0000
0000
,
0000
0000
0000
0000
,
1000
0001
1000
0001
1000
0000
0000
0000
,
0100
0010
0100
0010
0100
0000
0000
0000
,
1000
0001
1000
0001
1000
0000
0000
0000
,
0010
0100
0010
0100
0010
0000
0000
0000
,
0100
0001
0100
0001
0100
0000
0000
0000
,
0010
1000
0010
1000
0010
0000
0000
0000
,
1000
0001
1000
0001
1000
0000
0000
0000
,
0000
0000
0004
0000
0000
0000
0000
0000
1003
0000
0000
0100
0000
0000
0010
0000
,
0001
1000
0010
1000
,
0001
1000
0010
0000
,
1000
0001
0010
0001
,
1000
0001
0010
0000
,
0001
1000
0100
1000
,
0001
1000
0100
0000
,
1000
0001
0100
0001
,
1000
0001
0100
0000
,
0001
0000
0000
0100
0010
0000
0000
1000
,
0001
0000
0000
0010
0100
0000
0000
0000
,
1000
0000
0000
0010
0100
0000
0000
0001
,
0040
0000
0030
0000
,
0001
0100
0010
0100
1000
0100
0010
0100
,
0001
0010
0100
0010
1000
0010
0100
0010
,
0001
0100
1000
0100
0001
0010
1000
0010
,
0001
0000
0000
0000
1000
0000
0000
0000
0010
0000
0000
0000
1000
0000
0000
0000
0001
0000
0000
0000
0010
0000
0000
0000
0100
0000
0000
1000
0000
0000
0000
0000
0000
1000
0000
0000
0002
0000
0000
0000
0000
0000
0000
0000
0000
0000
0000
0000
,
1003
0100
1000
0100
0001
0100
0001
0100
,
1000
0001
1000
0001
,
1000
0100
1000
0100
0001
0100
0001
0100
,
2000
0000
3001
0000
,
1000
0000
0001
0100
0001
0000
1000
0000
0001
0010
0000
0010
0100
0000
1000
0000
,
0001
0100
0010
1000
0010
0100
0001
0000
,
1001
1001
1001
1001
,
0100
0100
0100
0100
0100
0100
0100
0000
,
2001
0000
3200
0320
,
0032
0000
0203
0320
,
2030
0000
0000
0000
,
0002
0000
0000
0000
,
3003
0000
0000
0000
;

//---------------dance-single - ----------------
#NOTEDATA:;
#CHARTNAME:;
#STEPSTYPE:dance-single;
#DESCRIPTION:;
#CHARTSTYLE:;
#DIFFICULTY:Hard;
#METER:17;
#RADARVALUES:0.737300,0.957431,0.040426,0.316673,0.838847,766.000000,760.000000,6.000000,47.000000,2.000000,0.000000,8.000000,0.000000,0.000000,0.737300,0.957431,0.040426,0.316673,0.838847,766.000000,760.000000,6.000000,47.000000,2.000000,0.000000,8.000000,0.000000,0.000000;
#CREDIT:;
#DISPLAYBPM:167.000000;
#NOTES:
0000
0000
0000
0000
,
0000
0000
0000
0000
,
0000
0000
0000
0000
,
0000
0000
0000
0000
,
0000
0000
0000
0000
,
0000
0000
0000
0000
,
0000
0000
0000
0000
,
0000
0000
2000
0000
,
3001
0100
0001
0100
0010
1000
0010
1000
,
0001
0010
0001
0010
0100
1000
0100
1000
,
0001
0100
0010
1000
0001
0010
0100
0010
,
0001
1000
0010
0100
0001
1000
0100
0010
,
0011
0000
0001
1000
0001
0000
0100
0000
0010
0000
1000
0000
0001
0000
0010
0000
,
0001
0000
1000
0001
1000
0000
0010
0000
0100
0000
0001
0000
1000
0100
0010
0001
,
2000
3020
0230
0302
,
1003
0100
1000
0100
1000
0100
1000
0100
1000
0100
1000
0100
1000
0100
1000
0100
,
1000
0000
0010
0100
0010
0000
1000
0000
0001
0010
0000
0010
0100
0000
1000
0000
,
0001
0000
0100
0010
1000
0010
1000
0010
0100
0001
0100
0001
1000
0000
0000
0000
,
0002
0000
0100
0000
2003
0000
0010
0000
3001
0010
0100
0010
0001
1000
0001
1000
,
0100
0000
0000
00M0
0000
0000
0100
0000
0001
0000
1000
0000
0001
0000
0000
0000
0100
0000
0000
00M0
0000
0000
0100
0000
1000
0000
0001
0000
1000
0000
0000
0000
,
0001
0000
0010
0100
0010
0000
0001
0000
1000
0010
0000
0010
0100
0000
0001
0000
,
1000
0000
0100
0010
0001
0010
0001
0010
0200
0000
0000
2300
0000
0000
3020
0000
,
0130
0001
0100
0001
0100
0010
0000
1000
0002
0000
0010
0000
1003
0100
1000
0100
,
2000
0000
0000
3010
0100
0000
0000
0001
,
2000
0100
3002
0100
2003
0100
3002
0100
,
1003
0000
0010
0100
0010
0000
2000
0000
0000
0000
3001
0000
0001
0000
1000
0000
,
0002
0100
2003
0100
3002
0100
2003
0100
,
3001
0000
0010
0100
0010
0000
0002
0000
0000
0000
1003
0000
1000
0000
0100
0000
,
0020
0100
0032
0100
2003
0100
3020
0100
,
1030
0000
0001
0100
0001
0000
2000
0000
0000
0000
3001
0000
0001
0000
0100
0000
,
0020
0100
2030
0100
3002
0100
0023
0100
,
0031
0000
0010
0100
0010
0000
0002
0000
0000
0000
1003
0000
0000
0000
0001
0000
,
1000
0000
0001
0100
0001
0000
1000
0100
1000
0000
0001
0100
0001
0000
1000
0100
,
1000
0100
0010
0001
,
1000
0000
0001
0100
0001
0000
1000
0100
1000
0000
0001
0100
0001
0000
1000
0100
,
1000
0100
0010
0001
,
1000
0000
0001
0010
0001
0000
1000
0010
1000
0000
0001
0010
0001
0000
1000
0010
,
1000
0010
0100
0001
,
1000
0000
0001
0010
0001
0000
1000
0010
1000
0000
0001
0010
0001
0000
1000
0010
,
1000
0000
0000
0002
,
1003
0100
1000
0100
0010
0100
0010
0100
0010
0001
0010
0001
1000
0001
1000
0001
,
1000
0100
0010
0100
0001
0100
0010
0100
,
1000
0010
1000
0010
0100
0010
0100
0010
0100
0001
0100
0001
1000
0001
1000
0001
,
1000
0000
0010
0000
0100
0000
0010
0000
0001
0000
0010
0000
0100
0000
0001
1000
,
0001
0010
0001
0010
0100
0010
0100
0010
0100
1000
0100
1000
0001
1000
0001
1000
,
0001
0100
0010
0100
1000
0100
0010
0100
,
0001
0100
0001
0100
0010
0100
0010
0100
0010
1000
0010
1000
0001
1000
0001
1000
,
0001
0000
0000
0000
0010
0000
0000
0000
0100
0000
0000
0000
1000
0000
0000
0000
0100
0000
0000
0000
0010
0000
0000
0000
0001
0000
0000
0100
0000
0000
0000
0000
0000
0100
0000
0000
0010
0000
0000
0000
0000
0000
1000
0000
0000
0001
0000
0000
,
1000
0010
1000
0010
0100
0010
0100
0010
0001
0010
0001
0010
0100
0010
0100
0010
,
1000
0100
0010
0100
0001
1000
0010
0100
,
1000
0100
1000
0100
0010
0100
0010
0100
0001
0100
0001
0100
0010
0100
0010
0100
,
1000
0000
0010
0000
0100
0000
0010
0000
0001
0000
1000
0000
0100
0000
0001
1000
,
0001
0010
0001
0010
0100
0010
0100
0010
1000
0010
1000
0010
0100
0010
0100
0010
,
0001
0000
0100
0010
0100
0000
0001
0000
1000
0000
0100
0010
0100
0000
1000
0000
,
0001
0100
0001
0100
0010
1000
0010
1000
,
0001
0000
1000
0100
1000
0000
0001
0100
0001
0000
1000
0010
1000
0000
0001
0010
,
0004
0043
0430
4300
,
3040
0430
0304
4003
,
3100
0010
0100
0020
0000
0000
0032
0000
0000
2003
0000
0000
,
3010
0000
0100
0000
0010
0000
0100
0000
0001
1000
0001
1000
0001
1000
0001
1000
,
0000
0000
0000
0000
,
0000
0000
0000
0000
,
1000
0001
1000
0001
1000
0001
1000
0000
0000
0000
0000
0000
,
0100
0010
0100
0010
0100
0010
0100
0000
0000
0000
0000
0000
,
1000
0001
1000
0001
1000
0001
1000
0000
0000
0000
0000
0000
,
0010
0100
0010
0100
0010
0100
0010
0000
0000
0000
0000
0000
,
0100
0001
0100
0001
0100
0001
0100
0000
0000
0000
0000
0000
,
0010
1000
0010
1000
0010
1000
0010
0000
0000
0000
0000
0000
,
1000
0001
1000
0001
1000
0001
1000
0000
0000
0000
0000
0000
,
0000
0000
0001
0010
0100
1000
0100
0010
0001
0000
0000
0100
0000
0000
0010
0000
,
1000
0000
0000
0000
0000
0001
0000
0000
0000
0000
1000
0000
0010
0000
0000
1000
0000
0000
0000
0000
0001
0000
0000
0000
,
0000
0000
1000
0000
0000
0000
0000
0000
0000
0000
0000
0000
0001
0000
0000
0000
0000
0000
0000
0000
1000
0000
0000
0000
0010
0000
0000
0000
1000
0000
0000
0000
0000
0000
0000
0000
0001
0000
0000
0000
0000
0000
0000
0000
0000
1000
0000
0000
,
0001
0000
0000
0000
0000
0000
0000
0000
0000
1000
0000
0000
0000
0000
0000
0000
0000
0000
0001
0000
0000
0000
0000
0000
0010
0000
0000
0000
0001
0000
0000
0000
0000
0000
0000
0000
1000
0000
0000
0000
0000
0000
0000
0000
0001
0000
0000
0000
,
0000
0000
1000
0000
0000
0000
0000
0000
0001
0000
0000
0000
0000
0000
0000
0000
1000
0000
0000
0000
0000
0000
0001
0000
0010
0000
0000
0000
0000
0000
0000
0000
0000
0001
0000
0000
0000
0000
0000
0000
0000
0000
1000
0000
0000
0000
0000
0000
,
0001
0000
0000
0000
0000
1000
0000
0000
0000
0000
0001
0000
0100
0000
0000
0001
0000
0000
0000
0000
1000
0000
0000
0000
,
0000
0000
0001
0000
0000
0000
0000
0000
0000
0000
0000
0000
1000
0000
0000
0000
0000
0000
0000
0000
0001
0000
0000
0000
0100
0000
0000
0000
0001
0000
0000
0000
0000
0000
0000
0000
1000
0000
0000
0000
0000
0000
0000
0000
0000
0001
0000
0000
,
1000
0000
0000
0000
0000
0000
0000
0000
0000
0001
0000
0000
0000
0000
0000
0000
0000
0000
1000
0000
0000
0000
0000
0000
0100
0000
0000
0000
1000
0000
0000
0000
0000
0000
0000
0000
0001
0000
0000
0000
0000
0000
0000
0000
1000
0000
0000
0000
,
0000
0001
0000
0000
1000
0000
0000
0000
0001
0000
0000
1000
0100
0000
0000
0000
1000
0000
0000
0000
0000
0000
0000
0000
,
0001
0000
0000
0000
0000
0000
0100
0010
0100
0000
0000
0000
0000
0000
0001
1000
,
0001
0000
0000
0000
0000
0000
0010
0100
0010
0000
0000
0000
0000
0000
0000
0000
,
0001
0000
0000
0000
0000
0000
0100
0010
0100
0000
0000
0000
0000
0000
0001
1000
,
0001
0000
0000
0000
1000
0000
0100
0010
0100
0010
0100
0000
0000
0000
0000
0000
,
1000
0100
1000
0100
1000
0000
0001
0000
0100
0000
0001
0000
0100
0010
0100
0000
,
0001
1000
0001
1000
0001
0000
0010
0000
0100
0000
0010
0000
0001
1000
0001
0000
,
1000
0010
1000
0010
0100
0001
0100
0010
1000
0000
0001
0000
0010
0000
0100
0000
,
1000
0000
0000
0000
0010
0000
0000
0000
0100
0000
0000
0000
0001
0000
0000
0000
0010
0000
0000
0000
0100
0000
0000
0000
1000
0000
0000
0010
0000
0000
0000
0000
0000
0010
0000
0000
0100
0000
0000
0000
0000
0000
0002
0000
0000
0000
0000
0000
,
1003
0000
0001
0100
0001
0000
1000
0100
1000
0000
0001
0100
0001
0000
1000
0100
,
1000
0100
0010
0001
,
1000
0000
0001
0100
0001
0000
1000
0100
1000
0000
0001
0100
0001
0000
1000
0100
,
2000
0000
0000
0000
0000
0000
0000
0000
3002
0000
0000
0003
0000
0000
0000
0000
,
1000
0000
0010
0100
0010
0000
1000
0000
0001
0010
0000
0010
0100
0000
1000
0000
,
0001
0000
0100
0010
1000
0010
1000
0010
0100
0001
0100
0001
1000
0000
0000
0000
,
1001
0110
1001
0110
,
0001
0100
0001
0100
0001
0100
0001
0100
0001
0100
0001
0100
0001
0000
0000
0000
,
2001
0000
0000
0000
0000
0000
0000
0000
0000
0000
0000
0000
0000
0000
0000
0000
3200
0000
0000
0000
0000
0000
0000
0000
0320
0000
0000
0000
0000
0000
0031
1000
,
0002
0000
0203
0320
,
2030
0100
0000
0000
,
0002
0000
0000
0000
,
3003
0000
0000
0000
;

//---------------dance-single - ----------------
#NOTEDATA:;
#CHARTNAME:;
#STEPSTYPE:dance-single;
#DESCRIPTION:;
#CHARTSTYLE:;
#DIFFICULTY:Challenge;
#METER:18;
#RADARVALUES:0.825853,1.089491,0.040426,0.417739,1.044348,858.000000,852.000000,6.000000,62.000000,10.000000,0.000000,9.000000,0.000000,0.000000,0.825853,1.089491,0.040426,0.417739,1.044348,858.000000,852.000000,6.000000,62.000000,10.000000,0.000000,9.000000,0.000000,0.000000;
#CREDIT:;
#DISPLAYBPM:167.000000;
#NOTES:
// measure 0
0000
0000
0000
0000
,  // measure 1
0000
0000
0000
0000
,  // measure 2
0000
0000
0000
0000
,  // measure 3
0000
0000
0000
0000
,  // measure 4
0000
0000
0000
0000
,  // measure 5
0000
0000
0000
0000
,  // measure 6
0000
0000
0000
0000
,  // measure 7
0000
0000
0002
0000
,  // measure 8
1003
0010
0100
0010
1000
0001
0100
0001
,  // measure 9
1000
0100
0010
0001
1000
0010
0100
0010
,  // measure 10
1000
0001
0010
0100
1000
0001
1000
0100
,  // measure 11
1000
0001
1000
0010
0200
0000
0300
0000
,  // measure 12
0101
0000
1000
0100
1000
0000
0001
0100
0001
0000
0010
0100
1000
0000
0001
0000
,  // measure 13
1000
0000
0001
0010
0001
0000
1000
0010
1000
0000
0100
0010
0001
1000
0010
0100
,  // measure 14
0002
0100
0100
0100
,  // measure 15
1003
0100
0100
0100
1000
0100
0100
0100
1000
0100
0100
0100
1000
0100
0100
0100
,  // measure 16
1000
0000
0100
0010
0100
0000
1000
0000
0002
0010
0000
2003
3010
0100
0010
0100
,  // measure 17
0002
0000
0000
0010
1003
0100
1000
0100
1000
0001
0100
0001
2000
0000
0000
0000
,  // measure 18
3002
0000
0010
0000
2003
0000
0100
0000
3001
0100
0010
1000
0001
1000
0001
1000
,  // measure 19
0100
0000
0000
00M0
0000
0000
0100
0000
0001
0000
0010
0000
0100
0000
1000
0000
0010
0000
0000
0M00
0000
0000
0010
0000
0100
0000
1000
0000
0010
0000
0100
0000
,  // measure 20
0001
0000
0010
0100
0010
0000
0001
0000
2000
0010
0000
3002
0013
0000
0001
0000
,  // measure 21
1000
0100
0010
0001
1000
0001
1000
0001
2000
0000
0000
0010
0000
3002
0100
0000
,  // measure 22
1003
0100
1000
0100
1000
0001
0100
0001
2000
0000
0100
0000
3001
0100
0010
1000
,  // measure 23
1002
0000
0000
0103
0010
0000
0000
0010
,  // measure 24
2000
0100
3002
0100
2003
0100
3002
0100
,  // measure 25
1003
0000
0010
0100
0010
0000
2000
0000
0000
0000
3001
0000
0001
0000
1000
0000
,  // measure 26
0002
0100
2003
0100
3002
0100
2003
0100
,  // measure 27
3001
0000
0010
0100
0010
0000
0002
0000
0000
0000
1003
0000
1000
0000
0100
0000
,  // measure 28
0020
0100
0032
0100
2003
0100
3020
0100
,  // measure 29
1030
0000
0001
0100
0001
0000
2000
0000
0000
0000
3001
0000
0001
0000
0100
0000
,  // measure 30
0020
0100
2030
0100
3002
0100
0023
0100
,  // measure 31
0031
0000
0010
0100
0010
0000
0002
0000
0000
0000
1003
0000
0010
0000
0100
0000
,  // measure 32
0001
0000
1000
0100
1000
0000
0001
0100
0001
0000
1000
0100
1000
0000
0001
0100
,  // measure 33
0001
0000
1000
0100
1000
0000
0002
0000
0000
0000
1003
0000
1000
0000
1000
0000
,  // measure 34
0001
0000
1000
0100
1000
0000
0001
0100
0001
0000
1000
0100
1000
0000
0001
0100
,  // measure 35
0001
0000
1000
0100
1000
0000
0002
0000
0000
0000
1003
0000
1000
0000
0001
0000
,  // measure 36
1000
0000
0001
0010
0001
0000
1000
0010
1000
0000
0001
0010
0001
0000
1000
0010
,  // measure 37
1000
0000
0001
0010
0001
0000
2000
0000
0000
0000
3001
0000
0001
0000
0001
0000
,  // measure 38
1000
0000
0001
0010
0001
0000
1000
0010
1000
0000
0001
0010
0001
0000
1000
0010
,  // measure 39
1000
0000
0000
0002
,  // measure 40
1003
0100
0010
0001
0100
1000
0100
0010
0100
0001
0010
0100
0010
1000
0010
0100
,  // measure 41
1000
0000
0010
0100
0010
0000
1000
0000
0001
0000
0010
0100
0010
0000
0001
0000
,  // measure 42
1000
0001
0010
0100
0001
0100
0010
0001
1000
0010
0100
0010
0001
0010
0100
0010
,  // measure 43
1000
0000
0100
0010
0100
0000
1000
0000
0001
0000
0100
0010
0100
0000
0001
1000
,  // measure 44
0001
0100
0010
1000
0100
0001
0100
0010
0100
1000
0010
0100
0010
0001
0010
0100
,  // measure 45
0001
0000
0010
0100
0010
0000
0001
0000
1000
0000
0010
0100
0010
0000
1000
0000
,  // measure 46
0001
1000
0010
0100
1000
0100
0010
1000
0001
0010
0100
0010
1000
0010
0100
0010
,  // measure 47
0001
0000
0000
0000
0100
0000
0000
0000
0010
0000
0000
0000
1000
0000
0000
0000
0100
0000
0000
0000
0010
0000
0000
0000
0001
0000
0000
0100
0000
0000
00M0
0000
0000
0100
0000
0000
1000
0000
0000
0000
0000
0000
0002
0000
0203
0000
0320
0000
,  // measure 48
1030
0100
0010
0001
0100
1000
0100
0010
0100
0001
1000
0100
0010
0100
0001
0100
,  // measure 49
0010
0001
0100
00M0
0100
1000
0010
0M00
0010
0001
0100
00M0
0100
0000
1000
0100
,  // measure 50
1000
0001
0100
0001
1000
0100
0010
0100
0001
0100
0010
0100
1000
0001
0100
0001
,  // measure 51
1000
0000
0010
0100
0010
0000
1000
0000
0001
0000
0010
0100
0010
0000
0001
0100
,  // measure 52
0001
1000
0100
1000
0001
0100
0010
0100
1000
0100
0010
0100
0001
1000
0001
0010
,  // measure 53
0100
1000
0010
0M00
0010
0001
0100
00M0
0100
1000
0010
0M00
0010
0001
0100
0010
,  // measure 54
1000
0100
0010
0001
1000
0010
0100
0001
,  // measure 55
1000
0000
0000
0001
0100
0001
0100
0000
0000
0010
1000
0010
1000
0000
0000
0001
0010
0001
0010
0000
0000
0100
1000
0100
,  // measure 56
4000
3040
0430
0304
,  // measure 57
0043
0430
4300
3004
,  // measure 58
0103
0010
0100
0020
0000
0000
2030
0000
0000
3002
0000
0000
,  // measure 59
0013
0000
0100
0000
0010
0000
0100
0000
1000
0001
1000
0001
1000
0001
1000
0001
,  // measure 60
0000
0000
0000
0000
,  // measure 61
0000
0000
0000
0000
,  // measure 62
1000
0001
1000
0001
1000
0001
1000
0001
1000
0000
0000
0000
0000
0000
0000
0000
,  // measure 63
0100
0010
0100
0010
0100
0010
0100
0010
0100
0000
0000
0000
0000
0000
0000
0000
,  // measure 64
1000
0001
1000
0001
1000
0001
1000
0001
1000
0000
0000
0000
0000
0000
0000
0000
,  // measure 65
0010
0100
0010
0100
0010
0100
0010
0100
0010
0000
0000
0000
0000
0000
0000
0000
,  // measure 66
0100
0001
0100
0001
0100
0001
0100
0001
0100
0000
0000
0000
0000
0000
0000
0000
,  // measure 67
0010
1000
0010
1000
0010
1000
0010
1000
0010
0000
0000
0000
0000
0000
0000
0000
,  // measure 68
1000
0001
1000
0001
1000
0001
1000
0001
1000
0000
0000
0000
0000
0000
0000
0000
,  // measure 69
0000
0000
0000
0000
0000
0000
0001
0000
0010
0000
0100
0000
1000
0000
0100
0000
0010
0000
0001
0000
0000
1000
0000
0000
0010
0000
0000
0000
0000
0000
0100
0000
0000
0000
0000
0000
0000
0000
0000
0001
0000
0000
0000
0000
0000
0000
0000
0000
,  // measure 70
1000
0000
0000
0000
0000
0001
0000
0000
0000
0000
1000
0000
0010
0000
0000
1000
0000
0000
0000
0000
0001
0000
0000
0000
,  // measure 71
0000
0000
1000
0000
0000
0000
0000
0000
0000
0000
0000
0000
0001
0000
0000
0000
0000
0000
0000
0000
1000
0000
0000
0000
0010
0000
0000
0000
1000
0000
0000
0000
0000
0000
0000
0000
0001
0000
0000
0000
0000
0000
0000
0000
0000
1000
0000
0000
,  // measure 72
0001
0000
0000
0000
0000
0000
0000
0000
0000
1000
0000
0000
0000
0000
0000
0000
0000
0000
0001
0000
0000
0000
0000
0000
0010
0000
0000
0000
0001
0000
0000
0000
0000
0000
0000
0000
1000
0000
0000
0000
0000
0000
0000
0000
0001
0000
0000
0000
,  // measure 73
0000
0000
1000
0000
0000
0000
0000
0000
0001
0000
0000
0000
0000
0000
0000
0000
1000
0000
0000
0000
0000
0000
0001
0000
0010
0000
0000
0000
0000
0000
0000
0000
0000
0001
0000
0000
0000
0000
0000
0000
0000
0000
1000
0000
0000
0000
0000
0000
,  // measure 74
0001
0000
0000
0000
0000
1000
0000
0000
0000
0000
0001
0000
0100
0000
0000
0001
0000
0000
0000
0000
1000
0000
0000
0000
,  // measure 75
0000
0000
0001
0000
0000
0000
0000
0000
0000
0000
0000
0000
1000
0000
0000
0000
0000
0000
0000
0000
0001
0000
0000
0000
0100
0000
0000
0000
0001
0000
0000
0000
0000
0000
0000
0000
1000
0000
0000
0000
0000
0000
0000
0000
0000
0001
0000
0000
,  // measure 76
1000
0000
0000
0000
0000
0000
0000
0000
0000
0001
0000
0000
0000
0000
0000
0000
0000
0000
1000
0000
0000
0000
0000
0000
0100
0000
0000
0000
1000
0000
0000
0000
0000
0000
0000
0000
0001
0000
0000
0000
0000
0000
0000
0000
1000
0000
0000
0000
,  // measure 77
0000
0001
0000
0000
1000
0000
0000
0000
0001
0000
0000
1000
0100
0000
0000
0000
1000
0000
0000
0000
0000
0000
0000
0000
,  // measure 78
0001
0000
1000
0000
0001
0000
0100
0010
0100
0000
0001
0000
1000
0000
0100
0010
,  // measure 79
0100
0000
1000
0000
0001
0000
0100
0010
0100
0000
0000
0000
0000
0000
0000
0000
,  // measure 80
0001
0000
1000
0000
0001
0000
0010
0100
0010
0000
0001
0000
1000
0000
0010
0100
,  // measure 81
0010
0000
1000
0000
0001
0000
0010
0100
0010
0100
0010
0000
0002
0000
0000
0000
,  // measure 82
1003
0100
0010
0001
0100
1000
0100
0010
0100
0001
1000
0001
0010
0100
1000
0001
,  // measure 83
0010
0100
0001
0100
0010
0100
1000
0001
0100
0010
0100
0001
0010
0100
0010
0100
,  // measure 84
1000
0010
0100
0001
0010
1000
0010
0100
0010
0001
1000
0001
0100
0010
1000
0001
,  // measure 85
1000
0000
0000
0000
0100
0000
0000
0000
0010
0000
0000
0000
0001
0000
0000
0000
0100
0000
0000
0000
0010
0000
0000
0000
1000
0000
0000
0100
0000
0000
00M0
0000
0000
0100
0000
0000
0002
0000
0000
0000
0000
0000
0000
0000
0000
0000
0000
0000
,  // measure 86
1003
0000
0001
0100
0001
0000
1000
0100
1000
0000
0001
0010
0001
0000
1000
0010
,  // measure 87
1000
0000
0001
0100
0001
0000
2000
0000
0000
0000
3001
0000
0001
0000
0001
0000
,  // measure 88
1000
0000
0001
0100
0001
0000
1000
0100
1000
0000
0001
0010
0001
0000
1000
0010
,  // measure 89
2000
0000
0000
0000
0000
0000
0000
0000
3002
0000
0000
0003
0000
0000
0000
0000
,  // measure 90
1000
0000
0100
0010
0100
0000
1000
0000
0002
0010
0000
2003
3010
0100
0010
0100
,  // measure 91
0002
0000
0000
0010
1003
0100
1000
0100
1000
0001
0100
0001
2000
0000
0010
0000
,  // measure 92
3001
0000
0011
0000
1001
0000
1010
4000
,  // measure 93
3001
0100
0100
0100
0010
0100
0100
0100
0001
0100
0100
0100
0010
0000
0000
0000
,  // measure 94
2001
0000
0000
0000
0000
0000
0000
0000
0000
0000
0000
0000
0000
0000
0000
0000
0000
0000
0000
0000
0000
0000
0000
0000
0000
0000
0000
0000
0000
0000
0000
0000
0000
0000
0000
0000
0000
0000
0000
0000
0000
0000
0000
0000
0000
0000
0000
0000
0000
0000
0000
0000
0000
0000
0000
0000
0000
0000
0000
0000
0000
0000
0000
0000
0000
0000
0000
0000
0000
0000
0000
0000
0000
0000
0000
0000
0000
0000
0000
0000
0000
0000
0000
0000
0000
0000
0000
0000
0000
0000
0000
0000
0000
0000
0000
0000
3200
0000
0000
0000
0000
0000
0000
0000
0000
0000
0000
0000
0000
0000
0000
0000
0000
0000
0000
0000
0000
0000
0000
0000
0000
0000
0000
0000
0000
0000
0000
0000
0000
0000
0000
0000
0000
0000
0000
0000
0000
0000
0000
0000
0000
0000
0000
0000
0320
0000
0000
0000
0000
0000
0000
0000
0000
0000
0000
0000
0000
0000
0000
0000
0000
0000
0000
0000
0000
0000
0000
0000
0000
0000
0000
0000
0000
0000
0030
0000
0000
0000
0000
0000
0001
0000
0000
0000
0100
0000
0000
0000
0010
0000
0000
0000
,  // measure 95
2000
0000
3002
0023
,  // measure 96
0130
0010
0001
2000
0000
0000
0010
0000
0000
0000
0000
0000
0000
0000
0000
0000
0000
0000
0000
0000
0000
0000
0000
0000
,  // measure 97
0002
0000
0000
0000
,  // measure 98
3003
0000
0000
0000
;
