#VERSION:0.83;
#TITLE:ｄｏｎｇ;
#SUBTITLE:;
#ARTIST:Eliminate feat. "DK" Donkey Kong & Lil Jon;
#TITLETRANSLIT:;
#SUBTITLETRANSLIT:;
#ARTISTTRANSLIT:;
#GENRE:;
#CREDIT:;
#MUSIC:d o n g.ogg;
#BANNER:d o n g-bn.png;
#BACKGROUND:d o n g-bg.png;
#CDTITLE:cdtitle.png;
#SAMPLESTART:12.575;
#SAMPLELENGTH:7.826;
#SELECTABLE:YES;
#OFFSET:-0.053;
#BPMS:0.000=115.000
,136.000=110.000
,136.250=107.000
,137.500=102.000
,138.000=99.000
,138.250=97.000
,138.500=94.000
,139.000=92.000
,139.500=87.000
,140.250=80.000
,141.000=78.000
,141.250=74.000
,141.500=72.000
,141.750=71.000
,143.000=115.000
;
#STOPS:;
#SPEEDS:0.000=1.000=0.000=0;
#SCROLLS:0.000=1.000,
64.000=0.200,
65.000=0.300,
66.000=0.500,
67.000=0.700,
68.000=0.800,
72.000=1.000
;
#TICKCOUNTS:0.000=4;
#TIMESIGNATURES:0.000=4=4;
#LABELS:0.000=Song Start;
#COMBOS:0.000=1;
#DISPLAYBPM:115.000;
#ORIGIN:;
#PREVIEWVID:;
#JACKET:d o n g-jacket.png;
#CDIMAGE:;
#DISCIMAGE:;
#BGCHANGES:;
#FGCHANGES:;
//--------------- dance-single -  ----------------
#NOTEDATA:;
#STEPSTYPE:dance-single;
#DESCRIPTION:;
#DIFFICULTY:Beginner;
#METER:2;
#RADARVALUES:0.139441,0.188373,0.095228,0.023807,0.005952,82,74,8,2,1,0,0,0,0,0.139441,0.188373,0.095228,0.023807,0.005952,82,74,8,2,1,0,0,0,0;
#CHARTNAME:;
#CHARTSTYLE:;
#CREDIT:;
#NOTES:
0000
0000
0000
0000
,
0000
0000
0000
0000
,
0001
0000
1000
0000
,
0010
0000
0100
0000
,
0010
0000
0100
0000
,
0001
0000
1000
1001
,
0001
0000
1000
0000
,
0010
0000
0100
0000
,
0010
0000
1000
0000
,
0001
0001
0001
1001
,
1000
0000
0000
0000
,
0010
0000
0100
0000
,
0010
0000
1000
0000
,
0001
0000
0001
1001
,
1000
0000
0010
0000
,
0100
0000
0010
0000
,
1000
0000
0000
0000
,
0000
0000
0000
0000
,
0001
0000
0010
0000
,
0100
0000
0010
0000
,
0001
0000
1000
0000
,
0010
0010
0010
0110
,
0100
0000
0100
0000
,
0010
0000
1000
0000
,
0001
0000
0010
0000
,
0100
0100
0100
0110
,
0010
0000
0010
0000
,
0100
0000
0100
0000
,
1000
0000
0001
0000
,
0100
0100
0100
0110
,
0100
0000
0010
0000
,
1000
0000
0001
0000
,
0010
0000
0100
0000
,
1000
1000
1000
1001
,
0001
0000
0000
0000
,
0000
0000
0000
2002
,
3003
0000
0000
0000
,
0000
0000
0000
0000
,
0000
0000
0000
0000
,
0000
0000
0000
0000
0000
0000
0000
0000
0000
0M00
0000
0000
0000
0000
0000
0000
;
//--------------- dance-single - Highflyer ----------------
#NOTEDATA:;
#STEPSTYPE:dance-single;
#DESCRIPTION:Highflyer;
#DIFFICULTY:Easy;
#METER:5;
#RADARVALUES:0.229567,0.212775,0.095228,0.071421,0,135,127,8,6,0,0,0,0,0,0.229567,0.212775,0.095228,0.071421,0,135,127,8,6,0,0,0,0,0;
#CHARTNAME:Highflyer;
#CHARTSTYLE:;
#CREDIT:Highflyer;
#NOTES:
0000
0000
0000
0000
,
0000
0000
0000
0000
,
0001
0001
0100
0010
,
0100
0001
0010
0100
,
1000
0010
0100
0010
,
1000
0001
1000
1001
,
0001
0100
0010
0100
,
0001
0010
0100
1000
,
0001
0100
0010
1000
,
0002
0010
1003
1001
,
1000
0010
0010
0100
,
0010
1000
0100
0010
,
0001
1000
0010
0100
,
0020
1000
0130
1001
,
1000
0100
0010
0100
,
1000
0010
0100
0010
,
1000
0000
0000
0000
,
0000
0000
0000
0000
,
0001
0010
0100
1000
,
0010
0100
0010
1000
,
0001
0010
0100
1000
,
0020
1000
0130
1001
,
0001
0010
0001
1000
,
0010
0100
0010
1000
,
0001
0010
0100
1000
,
0002
0010
1003
1001
,
0001
0001
1000
1000
,
0010
0100
0010
1000
,
0100
0010
0100
1000
,
0002
0010
0103
1001
,
1000
1000
0001
0001
,
0010
0100
0010
0001
,
1000
0010
0100
0010
,
0200
0001
0310
1001
,
1000
0000
0000
0100
0000
0000
0000
0010
,
0000
0001
0000
0000
1000
0000
1001
0000
;
//--------------- dance-single - Highflyer ----------------
#NOTEDATA:;
#STEPSTYPE:dance-single;
#DESCRIPTION:Highflyer;
#DIFFICULTY:Medium;
#METER:9;
#RADARVALUES:0.336699,0.376745,0,0.03571,0.267828,198,198,0,3,1,0,0,0,0,0.336699,0.376745,0,0.03571,0.267828,198,198,0,3,1,0,0,0,0;
#CHARTNAME:Highflyer;
#CHARTSTYLE:;
#CREDIT:Highflyer;
#NOTES:
0000
0000
0000
0000
,
0000
0000
0000
0000
1000
0001
1000
0001
1000
0001
1000
0000
0010
0000
0000
0000
,
0100
0001
0010
0000
0100
0010
0001
0000
,
1000
0000
0000
0010
0000
0100
0000
0000
0001
0000
0010
0000
0100
0000
0010
0000
,
0002
0000
0000
0103
0000
0000
0010
0000
1000
0000
0000
0001
0000
0000
0010
0000
,
0100
0000
0000
0010
0000
0000
0100
0000
1000
0000
0000
0000
0001
0000
0000
0000
,
0100
0000
0010
0000
0000
0000
0000
0000
0100
0010
0000
0100
0000
0000
0000
0000
,
0010
0000
1000
0000
0000
0000
0000
0000
0001
0010
0000
0001
0000
0000
0000
0000
,
1000
0000
0100
0000
0000
0000
0000
0000
1000
0001
0000
1000
0000
0000
0000
0000
,
0010
0000
0000
0100
0000
0000
0010
0000
0100
0000
0000
0000
0020
0000
0000
0000
,
0130
0000
0001
0000
1000
0000
0000
0000
0100
0010
0000
0100
0000
0000
0000
0000
,
1000
0001
0100
0000
0010
1000
0100
0000
,
0010
0000
0001
1000
0000
0000
0000
0000
0001
0000
0100
0010
0000
0000
0000
0000
,
0100
0000
0000
0010
0000
0000
0100
0000
0001
0000
0000
0000
1000
0000
0000
0000
,
0100
0010
0000
0000
0001
0100
0000
0000
0010
1000
0000
0100
0000
0000
0010
0000
,
0100
0000
0000
0010
0000
0001
0000
0000
1000
0000
0010
0000
0100
0000
0000
0000
,
0001
0000
0000
0000
,
1000
0000
0001
0000
0010
0000
0000
0000
0100
0010
0000
0100
0000
0000
0000
0000
,
1000
0000
0001
0000
0000
0000
0000
0000
0100
0010
0000
0100
0000
0000
0000
0000
,
0010
0000
1000
0000
0000
0000
0000
0000
0001
0010
0000
0001
0000
0000
0000
0000
,
1000
0000
0100
0000
0000
0000
0000
0000
1000
0001
0000
0100
0000
0000
0000
0000
,
0010
0000
0000
0100
0000
0000
0010
0000
1000
0000
0000
0000
0001
0000
0000
0000
,
0010
0000
0100
0000
0000
0000
0000
0000
0010
0001
0000
0010
0000
0000
0000
0000
,
0100
0000
1000
0000
0000
0000
0000
0000
0010
0100
0000
0010
0000
0000
0000
0000
,
0100
0000
0001
0000
0000
0000
0000
0000
1000
0100
0000
1000
0000
0000
0000
0000
,
0001
0000
0000
0100
0000
0000
0010
0000
1000
0000
0000
0000
0001
0000
0000
0000
,
0010
0100
0010
0000
0100
1000
0001
0000
,
0100
0010
1000
0100
1000
0001
0100
0010
,
0000
0100
0000
0010
1000
0100
0010
0000
,
0100
0000
0000
0010
0000
0000
0100
0000
1000
0000
0000
0000
0001
0000
0000
0000
,
0100
0010
0100
0000
0010
1000
0001
0000
,
0010
0100
0010
0001
1000
0010
0100
0010
,
0000
0100
0000
0010
1000
0001
0010
0000
,
0100
0000
0000
0100
0000
0000
0010
0000
0001
0000
0000
0000
1000
0000
0000
0000
,
0001
1000
0010
1000
0100
0010
0001
0100
,
0010
1000
0001
0010
0100
0000
2000
0000
,
3000
0000
0000
0000
,
0000
0000
0000
0000
,
0000
0000
0000
0000
,
0000
0000
0000
0000
0000
0000
0000
0000
0000
M000
0000
0000
0000
0000
0000
0000
;
//--------------- dance-single - Highflyer ----------------
#NOTEDATA:;
#STEPSTYPE:dance-single;
#DESCRIPTION:Highflyer;
#DIFFICULTY:Hard;
#METER:13;
#RADARVALUES:0.603677,0.729944,0.047614,0.214263,0.833244,355,351,4,18,22,0,0,0,0,0.603677,0.729944,0.047614,0.214263,0.833244,355,351,4,18,22,0,0,0,0;
#CHARTNAME:Highflyer;
#CHARTSTYLE:;
#CREDIT:Highflyer;
#NOTES:
0000
0000
0000
0000
,
0000
0000
0000
0000
1000
0100
1000
0100
1000
0100
1000
0010
0100
0000
0010
1000
,
0001
0010
0100
1000
0001
0000
1000
0001
1000
0010
0100
0000
0010
0000
00M1
1000
,
0100
0000
0010
1000
0000
0010
0000
0100
1000
0000
0010
0000
0001
0000
0010
0100
,
0001
0000
0010
0100
0010
0000
0001
1000
0010
0000
0100
0001
0000
0000
1000
0001
,
1000
0000
0100
0010
0000
0000
0100
0000
2000
0000
0000
0000
3010
0000
MMMM
0000
,
0001
0000
0001
0000
0010
0100
0000
0010
0100
1000
0000
0010
0100
0000
1000
0000
,
0100
0000
0100
0000
0010
1000
0000
0010
1000
0001
0000
0010
0100
0000
0001
0000
,
0100
0000
0100
0000
1000
0001
0000
1000
0001
0100
0000
0010
0100
0000
1000
0100
,
0001
0000
0000
100M
0000
0000
M001
0000
2000
0000
0000
0000
3001
0100
0010
0100
,
0001
0010
0100
1000
0010
0000
0000
0100
0001
1000
0000
0100
0010
0000
0100
0000
,
1000
0010
1000
0100
0000
0010
0000
0100
1000
0000
0010
0000
0100
0000
1M00
0000
,
0001
0010
0001
1000
0010
0000
0100
0010
1000
0001
0100
0010
0000
0001
0000
0010
,
1000
0001
0100
0000
0010
1000
0000
0010
0100
0001
0000
0010
0110
0000
0MM0
1000
,
0001
0100
0000
0010
0100
0001
0000
0010
0100
1000
0000
0010
0100
0000
1000
0100
,
0010
1000
0100
0010
0001
1000
0000
0200
0010
0000
0001
0000
1300
0000
0001
0000
,
0000
0000
0000
0000
,
1000
0000
0001
0010
0100
0000
0010
0000
0100
1000
0000
0010
0200
0000
0010
0000
,
0301
0000
0001
0000
0010
0100
0000
0010
0100
1000
0000
0010
0100
0000
1000
0000
,
0100
0000
0100
0000
0010
1000
0000
0010
1000
0100
0000
0010
0100
0000
0001
0000
,
0100
0000
0100
0000
0010
0001
0000
0010
0001
1000
0000
0010
0100
0000
1000
0100
,
0001
0000
0000
100M
0000
0000
M001
0000
1000
0000
0000
0000
0110
0000
0000
0000
,
1000
0000
1000
0000
0100
0010
0000
0100
0010
0001
0000
0100
0010
0000
0001
0000
,
0010
0000
0010
0000
0100
0001
0000
0100
0001
1000
0000
0100
0010
0000
1000
0000
,
0010
0000
0010
0000
0001
1000
0000
0001
1000
0010
0000
0100
0010
0000
0001
0010
,
1000
0000
0000
M001
0000
0000
100M
0000
0002
0000
0000
0000
1003
0000
0100
0000
,
0010
0000
0100
2000
0010
0000
3001
0000
0100
0000
0010
2000
0001
0000
3100
0000
,
0010
0001
1000
0010
0100
0010
2000
0000
3100
1000
0010
0100
0001
0000
0010
0000
,
0000
0000
2002
0000
3000
0000
1003
0100
0010
0001
1000
0000
0010
0000
0100
0001
,
1000
0000
0000
M001
0000
0000
100M
0100
0010
0001
1000
0020
0100
0000
1030
0000
,
0100
0000
0010
0002
0100
0000
1003
0000
0010
0000
0100
0002
1000
0000
0013
0000
,
0100
1000
0001
0100
0010
0100
0002
0000
0013
0001
0100
0010
1000
0000
0100
0000
,
0000
0000
2002
0000
3000
0000
1003
0010
0100
0001
1000
0000
0100
0000
0010
0001
,
1000
0000
0000
M001
0000
0000
100M
0010
0100
0001
1000
0200
0010
0000
1300
0000
,
0001
0100
0001
1000
0100
0010
0001
1000
0001
0100
0010
0100
0001
1000
0100
0010
,
0001
0010
0100
1000
0001
1000
0010
0100
0001
0000
0000
0000
2000
0000
0000
0000
,
3000
0000
0000
0000
,
0000
0000
0000
0000
,
0000
0000
0000
0000
,
0000
0000
0000
0000
0000
0000
0000
0000
0000
MMMM
0000
0000
0000
0000
0000
0000
;
//--------------- dance-single - Highflyer ----------------
#NOTEDATA:;
#STEPSTYPE:dance-single;
#DESCRIPTION:Highflyer;
#DIFFICULTY:Challenge;
#METER:15;
#RADARVALUES:0.81964,0.777037,0.047614,0.071421,1.392708,482,478,4,6,31,0,0,0,0,0.81964,0.777037,0.047614,0.071421,1.392708,482,478,4,6,31,0,0,0,0;
#CHARTNAME:Highflyer;
#CHARTSTYLE:;
#CREDIT:Highflyer;
#NOTES:
0000
0000
0000
0000
,
0000
0000
0000
0000
1000
0100
1000
0100
1000
0100
1000
0010
0001
0000
0010
1000
,
0001
0010
0001
1000
0010
0100
0001
0100
0010
1000
0001
0010
0100
1000
0100
0010
,
0001
1000
0001
0100
0010
1000
0010
0100
0001
0010
0100
1000
0010
0100
1000
0100
,
0001
0010
0001
1000
1000
0100
0010
0100
1000
0010
0100
0001
0010
0100
0010
0001
,
1000
0010
0100
1000
0100
0001
0010
0100
0001
0000
0000
0000
1001
0000
MMMM
0000
,
0001
0100
0010
0100
0001
1000
0100
0010
1000
0010
0100
1000
0010
1000
0100
0010
,
0001
1000
0010
0100
0010
1000
0001
0010
0100
1000
0001
0100
0010
0100
1000
0100
,
0010
0000
1000
0000
0001
0000
0010
0000
0100
0000
0010
0000
0001
0000
1000
0000
0100
0000
1000
0000
0001
0000
0100
0000
0010
0000
1000
0000
0100
00M0
0100
0000
,
0001
0000
0010
0000
0100
0000
0001
0000
0100
0000
1000
0000
0010
0000
0100
0000
2000
0000
0000
0000
0000
0000
0000
0000
3100
0000
0010
000M
0010
0000
0001
0000
,
1000
0100
0010
0001
0100
0000
0000
0010
0100
0001
0000
0020
0100
0000
0031
0000
,
1000
0010
1000
0001
0010
0100
0010
0001
1000
0010
0100
0010
1000
0001
0010
0100
,
1000
0001
1000
0010
0100
0001
1000
0100
1000
0010
0100
0001
0010
0100
0001
0100
,
1000
0010
0100
1000
0100
0010
1000
0100
0001
0000
0100
0000
1001
0000
MMMM
0000
,
1000
0000
0000
0010
0000
0000
1000
0000
0000
0001
0000
0000
0010
0000
0100
0000
1000
0000
0001
0000
0000
0100
0000
0000
0010
0000
0000
0100
0000
0000
0001
0000
0000
1000
0000
0000
0100
0000
0000
0010
0000
0000
1000
0000
0000
0010
0000
0000
,
0100
1000
0010
0100
0001
1000
0001
0010
0100
1000
0100
0010
0100
1000
0001
0000
,
0000
0000
0000
0000
,
1000
0000
0010
0100
0010
0000
1000
0000
0001
0010
0000
0100
0002
0000
0103
1000
,
0010
0100
0001
1000
0001
0010
0100
1000
0001
0100
0001
1000
0001
0100
1000
0100
,
0010
0100
0001
1000
0010
1000
0001
0010
0100
0010
0001
1000
0100
0010
1000
0010
,
0100
0000
1000
0000
0001
0000
0100
0000
0001
0000
1000
0000
0010
0000
0100
0000
0010
0000
1000
0000
0001
0000
0100
0000
0010
0000
1000
0000
0010
0M00
0010
0000
,
0001
0000
0000
0010
0000
0000
0100
0000
0000
0001
0000
0000
0100
0000
0000
1000
0000
0000
0010
0000
0000
0100
0000
0000
1000
0000
0000
0000
0000
0000
0000
0000
0100
0000
0010
0000
1000
0000
0000
0000
0000
0000
0000
0000
0000
0000
0000
0000
,
0100
0010
0001
1000
0001
0100
0010
1000
0001
0010
0001
1000
0001
0010
1000
0010
,
0100
0010
0001
1000
0100
1000
0001
0100
0010
0100
0001
1000
0010
0100
1000
0100
,
0010
0000
1000
0000
0001
0000
0010
0000
0001
0000
1000
0000
0100
0000
0010
0000
0100
0000
1000
0000
0001
0000
0010
0000
0100
0000
1000
0000
0100
00M0
0100
0000
,
0001
0000
0000
0100
0000
0000
0010
0000
0000
0001
0000
0000
0010
0000
0000
1000
0000
0000
0100
0000
0000
0010
0000
0000
1000
0000
0000
0000
0000
0000
0000
0000
0010
0000
0100
0000
1000
0000
0000
0010
0000
0000
1000
0000
0000
0000
0000
0000
,
0001
0000
0010
0100
0010
0000
MMMM
0000
0010
0000
0001
0100
0001
0000
MMMM
0000
,
0001
0100
0001
1000
0100
0010
1000
0010
0100
1000
0001
0100
0010
1000
0100
0000
,
0010
0000
0000
0000
0200
0000
0000
0000
0000
0000
0000
0000
0310
0000
0001
0000
1000
0000
0010
0000
0100
0000
0000
0000
0001
0000
0000
0000
0100
00M0
0100
0000
,
1000
0010
0100
1000
0100
0001
0010
0100
0001
0100
1000
0001
0100
0000
MMMM
0000
,
0100
0000
0010
1000
0001
0010
1000
0010
0100
1000
0001
0100
0010
0100
1000
0100
,
0001
0000
1000
0000
0100
0000
0010
0000
0001
0000
0010
0000
1000
0000
0010
0000
0100
M000
0100
0000
0001
0000
1000
0000
0010
0000
0100
0000
0001
0000
0010
0000
,
0100
0000
1000
0000
0001
0000
0100
0000
0001
0000
0100
0000
0001
0000
0010
0000
0100
0000
0010
0000
0001
0000
1000
0000
0001
0000
0010
0000
0100
M000
0100
0000
,
0001
0100
0010
0001
0010
1000
0100
0010
1000
0000
0000
0000
1001
0000
0000
0000
,
1000
0010
0100
0001
1000
0010
0100
0010
1000
0001
0010
0100
1000
0100
0010
0001
,
1000
0010
0100
1000
0100
0001
0010
0100
0001
0000
0000
0000
2002
0000
0000
0000
,
0000
3003
0000
0000
,
0000
0000
0000
0000
,
0000
0000
0000
0000
,
0000
0000
0000
0000
0000
0000
0000
0000
0000
MMMM
0000
0000
0000
0000
0000
0000
;
