#TITLE:ラグトレイン;
#SUBTITLE:;
#ARTIST:稲葉曇;
#TITLETRANSLIT:Lagtrain;
#SUBTITLETRANSLIT:;
#ARTISTTRANSLIT:;
#GENRE:;
#CREDIT:;
#BANNER:Lagtrain-bn.jpg;
#BACKGROUND:Lagtrain-bg.jpg;
#LYRICSPATH:;
#CDTITLE:;
#MUSIC:Lagtrain.mp3;
#OFFSET:3.138001;
#SAMPLESTART:22.983999;
#SAMPLELENGTH:15.000000;
#LASTBEATHINT:5.179962;
#SELECTABLE:YES;
#BPMS:0.000000=147.000000
;
#STOPS:
;
#BGCHANGES:8.000=Lagtrain.mp4=1.000=1=0=1===CrossFade==,
355.500=Lagtrain-bg.jpg=1.000=0=0=1=====,
99999=-nosongbg-=1.000=0=0=0 // don't automatically add -songbackground-
;
#KEYSOUNDS:;
#ATTACKS:TIME=0.150000:LEN=101.220001:MODS=Overhead, Ya_smnote_hd;

//---------------dance-single - ----------------
#NOTES:
     dance-single:
     :
     Beginner:
     2:
     0.131988,0.241510,0.047555,0.054348,0.000000,136.000000,129.000000,7.000000,8.000000,0.000000,0.000000,0.131988,0.241510,0.047555,0.054348,0.000000,136.000000,129.000000,7.000000,8.000000,0.000000,0.000000:
0000
0000
0000
0000
,
0000
0000
0000
0000
,
0000
0000
0000
0000
,
0000
0000
0000
0000
,
0000
0000
0000
0000
,
0000
0000
0000
0000
,
0000
0000
0000
0000
,
0000
0000
0000
0000
,
0100
0000
0000
0000
,
0100
0000
0000
0000
,
0100
0000
0000
0000
,
0100
0000
0000
0000
,
0010
0000
0000
0000
,
0010
0000
0000
0000
,
0010
0000
0000
0000
,
0010
0000
0000
0000
,
1000
0000
0010
0000
,
1000
0000
0010
0000
,
0000
1000
0000
0100
,
0000
0010
0000
0001
,
1000
0000
0010
0000
,
1000
0000
0010
0000
,
0002
0000
0000
0000
,
0000
0000
0000
0003
,
1000
0000
0010
0000
,
1000
0000
0010
0000
,
1000
0000
0010
0000
,
1000
0000
0010
0000
,
1000
0000
0010
0000
,
0001
0000
0001
0000
,
1000
0000
0010
0000
,
0100
0000
0000
0010
,
0020
0000
0000
0000
,
0000
0000
0000
0000
,
0000
0000
0000
0000
,
0000
0000
0030
0000
,
2002
0000
0000
0000
,
0000
0000
0000
0000
,
0000
0000
0000
0000
,
0000
0000
0000
3003
,
0001
0000
0001
0000
,
0001
0000
0001
0000
,
0001
0000
0001
0000
,
0001
0000
0001
0000
,
1000
0000
1000
0000
,
1000
0000
1000
0000
,
1000
0000
1000
0000
,
1000
0000
1000
0000
,
0100
0000
0100
0000
,
0100
0000
0100
0000
,
0000
1100
0000
0100
,
0000
0011
0000
0001
,
1000
0000
1000
0000
,
1000
0000
0010
0000
,
0002
0000
0000
0000
,
0000
0000
0000
2003
,
3000
0001
0000
0001
,
0000
0001
0000
0001
,
0000
1000
0000
0001
,
0000
1000
0000
0001
,
1000
1000
0000
0010
,
0000
0100
0000
0001
,
0000
1000
0000
0001
,
0000
1000
0000
0001
,
0100
0000
0000
0000
,
0100
0000
0000
0000
,
0100
0000
0010
0000
,
0100
0000
0010
0000
,
1000
0000
0100
0000
,
0010
0000
0001
0000
,
1000
0000
0001
0000
,
0100
0000
0100
0000
,
0000
0000
0000
0000
,
0000
0000
0000
0000
,
1000
0000
0010
0000
,
0001
0000
0001
0000
,
0000
1000
0000
0100
,
0000
0010
0000
1001
,
1000
0000
0001
0000
,
1000
0000
0001
0000
,
2002
0000
0000
0000
,
0000
0000
0000
3003
,
0000
1000
0000
0001
,
0000
1000
0000
0001
,
0000
0100
0000
1001
,
0000
0100
0000
0000
,
0010
1001
0100
0100
,
0000
0010
0000
0010
,
1000
0000
0000
0000
0010
0000
0000
0001
;

//---------------dance-single - ----------------
#NOTES:
     dance-single:
     :
     Challenge:
     9:
     0.277564,0.573586,0.251360,0.061142,0.000000,286.000000,249.000000,37.000000,9.000000,0.000000,0.000000,0.277564,0.573586,0.251360,0.061142,0.000000,286.000000,249.000000,37.000000,9.000000,0.000000,0.000000:
0000
0000
0000
0000
,
0000
0000
0000
0000
,
0000
0000
0000
0000
,
0000
0000
0000
0000
,
0000
0000
0000
0000
,
0000
0000
0000
0000
,
0000
0000
0000
0000
,
0000
0000
0000
0000
,
1000
1000
0100
0000
0000
1000
0001
0000
,
1000
1000
0100
0000
0000
1000
0001
0000
,
1000
1000
0100
0000
0000
1000
0001
0000
,
1000
1000
0100
0000
0000
1000
0001
0000
,
0001
0001
0100
0000
0000
0001
1000
0000
,
0001
0001
0100
0000
0000
0001
1000
0000
,
0001
0001
0100
0000
0000
0001
1000
0000
,
0001
0001
0100
0000
0000
0000
0000
0000
,
1100
0110
0011
1001
,
1100
0110
0011
1001
,
0000
1000
0000
0100
,
0000
0010
0000
0001
,
1000
0100
0010
0001
,
1000
0100
0010
0001
,
0002
0000
0000
0000
,
0000
0000
0000
0003
,
1100
0110
0011
1001
,
1100
0110
0011
1001
,
1000
0100
0010
0001
,
1000
0100
0010
0001
,
1000
F100
FF10
FFF1
,
FFF1
0FF1
00F1
0001
,
1000
0100
0010
0001
,
0000
0000
0000
0010
,
0020
0000
0000
0000
,
0000
0000
0000
0000
,
0000
0000
0000
0000
,
0000
0000
0000
0000
0000
0000
0000
0030
,
2002
0000
0000
0000
,
0000
0000
0000
0000
,
0000
0000
0000
0000
,
0000
0000
0000
3003
,
0001
0001
0001
0001
,
0001
0001
0001
0001
,
0001
0001
0001
0001
,
0001
0001
0001
1000
,
1000
1000
1000
1000
,
1000
1000
1000
1000
,
1000
0000
1000
0000
1000
0000
1000
1000
,
0000
1000
0000
1000
0000
1000
1000
0000
,
0100
0100
0100
0100
,
0100
0100
0100
0100
,
0000
1000
0000
0F00
,
0000
0010
0000
000F
,
1000
1000
1000
1000
,
1000
0100
0010
0001
,
0002
0000
0000
0000
,
0000
0000
0000
0000
0000
0000
2003
3000
,
F000
0100
0100
0100
,
0100
0100
0100
0100
,
0000
1000
0000
0001
,
0000
1000
0000
0001
,
2000
3000
1100
0000
F110
0000
FF11
0000
,
11FF
011F
0011
1001
,
0000
1000
0000
0001
,
0000
1000
0000
0001
,
0100
0100
0000
0000
0000
0000
0000
0000
,
0100
0100
0000
0000
0000
0000
0000
0000
,
0100
0100
0010
0100
0010
0010
0100
0010
,
0100
0100
0010
0100
0010
0010
0100
0010
,
1000
1000
0100
0100
0010
0010
0001
0001
,
1000
1000
0100
0100
0010
0010
0001
0001
,
1000
0010
1000
0001
0100
0001
0010
0011
,
0000
1100
0000
1001
0000
0110
1001
0000
,
00F0
0000
00F0
0F00
00F0
0000
0F00
00F0
,
0F00
0000
00F0
00F0
00F0
0000
0000
0000
,
1000
F100
FF10
FFF1
,
FFF1
0FF1
00F1
0001
,
0000
1000
0000
0100
,
0000
0010
0000
1001
,
1000
0100
0001
0010
,
1000
0100
0001
0010
,
2002
0000
0000
0000
,
0000
0000
0000
30F3
,
0000
1000
0000
0001
,
0000
0000
0000
0000
,
0000
0000
0100
0000
0000
0000
1000
0001
,
0000
0000
0000
0000
,
0010
1001
0100
0101
,
0000
0000
0000
0000
,
11FF
0000
011F
0000
0011
0000
1001
0001
;

//---------------dance-single - ----------------
#NOTES:
     dance-single:
     :
     Easy:
     6:
     0.276593,0.301887,0.183425,0.027174,0.000000,285.000000,258.000000,27.000000,4.000000,0.000000,0.000000,0.276593,0.301887,0.183425,0.027174,0.000000,285.000000,258.000000,27.000000,4.000000,0.000000,0.000000:
0000
0000
0000
0000
,
0000
0000
0000
0000
,
0000
0000
0000
0000
,
0000
0000
0000
0000
,
0000
0000
0000
0000
,
0000
0000
0000
0000
,
0000
0000
0000
0000
,
0000
0000
0000
0000
,
1000
0100
0000
1000
,
1000
0100
0000
1000
,
0001
0100
0000
0001
,
0001
0100
0000
0001
,
1000
0010
0000
1000
,
1000
0010
0000
1000
,
0001
0010
0000
0001
,
0001
0010
0000
0000
,
1000
0100
0010
0001
,
1000
0100
0010
0001
,
0000
1100
0000
0011
,
0000
1100
0000
0011
,
1000
0100
0010
0001
,
1000
0100
0010
0001
,
1000
0010
1000
0001
,
0010
0100
1000
0001
,
0100
0010
0100
0010
,
1000
0010
0001
0010
,
0100
0001
0100
0001
,
0100
1000
0100
0001
,
1000
0010
1000
0010
,
1000
0100
1000
0010
,
0100
0001
0100
0001
,
1000
0000
0000
0100
,
0010
0010
0010
0100
,
0010
0100
0010
0010
,
0100
0010
0100
0100
,
0010
0100
0010
0100
,
0001
1000
0001
0001
,
1000
0001
1000
0001
,
1000
1000
0001
1000
,
0001
1000
1001
0000
,
0010
0000
0010
0000
,
0100
0000
0100
0100
,
0001
0000
0001
0000
,
0010
0000
0010
0010
,
1000
0000
1000
0000
,
1000
1000
0100
0000
,
0001
0000
0000
0000
0001
0000
1000
0001
,
0000
1000
0000
0001
0000
1000
0001
0000
,
1000
0100
0010
0001
,
1000
0100
0010
0001
,
0000
1100
0000
0011
,
0000
1100
0000
0011
,
1000
0100
0010
0001
,
1000
0100
0010
0001
,
1000
0010
1000
0001
,
0010
0100
1000
1001
,
0001
0100
0001
0100
,
0001
0100
0001
0100
,
0000
1100
0000
0011
,
0000
1100
0000
0011
,
0000
1100
0010
0001
,
1000
0100
0010
0001
,
0000
1100
0000
0011
,
0000
1100
0000
1001
,
0100
0000
0000
0000
,
0100
0000
0000
0000
,
0001
0001
1000
1000
,
0001
0001
1000
1000
,
0010
1000
0100
0010
,
0001
0100
0010
1000
,
0001
0000
0010
0000
0100
0000
1000
0001
,
0000
1000
0000
0001
0000
1000
0001
0000
,
0000
0000
0000
0000
,
0000
0000
0000
0000
,
1000
0100
0010
0001
,
1000
0100
0010
0001
,
0000
1100
0000
0011
,
0000
1100
0000
0011
,
1000
0100
0010
0001
,
1000
0100
0010
0001
,
0000
1100
0000
0011
,
0000
1100
0000
1001
,
0020
0000
0130
0000
,
0200
0000
0310
0000
,
0002
0000
1003
0000
,
2000
0000
3001
0000
,
0001
0010
0100
1000
,
0001
0010
0100
1000
,
1000
0000
0100
0000
0010
0000
0001
0001
;

//---------------dance-single - ----------------
#NOTES:
     dance-single:
     :
     Hard:
     13:
     0.612388,0.754718,0.305709,0.081522,0.217393,631.000000,586.000000,45.000000,12.000000,0.000000,0.000000,0.612388,0.754718,0.305709,0.081522,0.217393,631.000000,586.000000,45.000000,12.000000,0.000000,0.000000:
0000
0000
0000
0000
,
0000
0000
0000
0000
,
0000
0000
0000
0000
,
0000
0000
0000
0000
,
0000
0000
0000
0000
,
0000
0000
0000
0000
,
0000
0000
0000
0000
,
0000
0000
0000
0000
,
1000
0000
1000
0100
0010
0000
0001
0010
,
0100
0000
1000
0100
0010
0000
0001
0100
,
0010
0000
0010
0000
0100
0000
0010
0100
,
0000
0001
1000
0001
0000
1000
1000
0000
,
0001
0000
0001
0010
0100
0000
1000
0100
,
0010
0000
0001
0010
0100
0000
1000
0010
,
0000
0100
0010
0000
0001
0010
0000
1000
,
0100
0000
0010
0000
0001
0100
0001
0000
,
1000
0000
1000
0100
0010
0000
0001
0010
0100
0000
1000
0100
0010
0000
0001
0010
,
0100
0000
1000
0001
0100
0000
0001
1000
0100
0000
1000
0001
0100
0000
0001
1000
,
0100
0000
1010
0000
0100
0000
0011
0001
,
0100
0001
0100
0000
0100
1000
0100
0000
0001
0000
1001
0000
0110
0000
0100
0000
,
0001
0000
0001
0010
0100
0000
1000
0100
0010
0000
0001
0010
0100
0000
1000
0100
,
0010
0000
0001
0100
0010
0000
1000
0100
0010
0000
0001
0100
0010
0000
1000
0100
,
0010
0000
0011
0000
0001
1000
0100
0001
,
0100
1000
0010
0100
0001
0000
1001
0001
,
0010
0100
0010
0001
0010
0100
0010
1000
,
0010
0100
0010
1000
0010
0100
0010
1000
,
1000
0001
1000
0010
1000
0001
1000
0010
,
0100
0001
0100
1000
0100
0001
0100
1000
,
1000
0001
0010
1000
0010
0001
0010
1000
,
0010
0100
0010
1000
0010
0100
0010
1000
,
1000
0100
0001
0100
1000
0100
0010
0010
,
0001
0000
0100
0010
0100
0000
0010
0100
0010
0000
0100
0000
0100
0000
0000
0000
,
0010
1000
0100
0010
0001
1000
0010
0100
,
0001
0010
0100
1000
0100
0010
0001
1000
,
0010
0100
0001
1000
0010
0100
0001
0010
,
0001
1000
0010
0100
0001
0001
0100
0100
,
0001
0010
0100
1000
0100
0001
0100
1000
,
0010
0100
1000
0100
0010
1000
0100
0010
,
0001
1000
0100
1000
0010
0100
0001
0100
,
0000
0100
0000
0010
0000
0000
0000
0000
,
0001
0000
0001
0000
0001
0000
0001
0100
,
1000
0000
1000
0000
1000
0000
1000
0010
,
0001
0000
0001
0000
0001
0000
0001
0100
,
1000
0000
1000
0000
1000
0000
1000
0010
,
0001
0000
0001
0000
0001
0000
0001
0100
,
1000
0000
1000
0000
1000
0000
1000
0010
,
0001
0000
0001
0000
0001
0000
0001
1001
,
0000
1100
0000
0101
0000
1001
1001
0000
,
0001
0000
0001
0100
0001
0000
1000
0100
1000
0000
0001
0100
0001
0000
1000
0100
,
1000
0000
0001
0010
0001
0000
1000
0010
1000
0000
0001
0010
0001
0000
1000
0010
,
1000
0000
0011
0000
0100
0000
1010
1000
,
0010
0100
0010
0000
0010
0001
0010
0000
0001
0000
1001
0000
0110
0000
0010
0000
,
1000
0000
1000
0010
1000
0000
0001
0010
0001
0000
1000
0010
1000
0000
0001
0010
,
0001
0000
1000
0100
1000
0000
0001
0100
0001
0000
1000
0100
1000
0000
0001
0100
,
0001
0000
1001
0000
0001
0010
0100
1000
,
0010
0100
0001
0100
0010
0000
0110
0100
,
0001
0001
1001
0000
0001
0001
0100
0100
,
0001
0001
0100
0100
0001
0001
0100
0100
,
0001
1000
0200
0000
1300
0001
0200
0000
,
1300
0001
0200
0000
0301
1000
0200
0000
,
0310
1000
0010
0000
1010
0000
0000
0000
1000
0000
1000
0000
0010
0000
0010
0000
,
1000
1000
0010
0010
1000
1000
0010
0010
,
1000
0100
0020
0000
0031
0100
0020
0000
,
1030
0000
0001
1000
0001
0000
0100
0001
0100
0000
0001
0000
0011
0000
0000
0000
,
0000
0000
0001
0100
0000
0000
1000
0100
,
0000
0000
0001
0010
0000
0000
1000
0100
,
0010
0010
0001
0001
0100
0100
0010
0010
,
1000
1000
0100
0100
0010
0010
0001
0001
,
1000
0100
1000
0100
1000
0100
1000
0100
,
0010
0001
0010
0001
0010
0001
0010
0001
,
1000
0000
0010
0000
1000
0001
1000
0100
0010
0000
0100
0000
1000
0000
1001
0000
,
0000
0110
0000
1001
0000
0110
1001
0000
,
0000
0000
0000
0000
,
0000
0000
0020
0000
,
1030
0000
1000
0001
0010
0000
0100
1000
0001
0000
0010
0100
1000
0000
0001
0010
,
0100
0000
1000
0001
0010
0000
0100
1000
0001
0000
0010
0100
1000
0000
0001
0010
,
0100
0000
1001
0000
0010
0000
1001
0110
,
0001
0000
0001
0010
1000
0000
0001
0100
1000
0000
1001
0000
0101
0000
0000
0000
,
0001
0000
0001
1000
0100
0000
0010
0001
1000
0000
0100
0010
0001
0000
1000
0100
,
0010
0000
0001
1000
0100
0000
0010
0001
1000
0000
0100
0010
0001
0000
1000
0100
,
0010
0000
1001
0000
0001
0010
0100
1000
,
0010
0100
0010
0100
0001
0000
0101
1000
,
0200
0000
0310
0000
1001
0000
0010
0200
,
0000
0302
0000
0000
0010
0000
1003
0000
,
1001
0000
0210
0000
0310
0000
1000
0200
,
0000
0301
0000
1000
0010
0100
0010
0100
,
0101
0000
1010
0000
1100
0000
0110
0010
,
0101
0000
1010
0000
0011
0000
1100
1000
,
0101
0000
0010
1000
0100
0000
0001
0100
1000
0000
0010
0001
1000
0000
1001
0000
;

//---------------dance-single - ----------------
#NOTES:
     dance-single:
     :
     Medium:
     9:
     0.379467,0.543397,0.251360,0.054348,0.000000,391.000000,354.000000,37.000000,8.000000,0.000000,0.000000,0.379467,0.543397,0.251360,0.054348,0.000000,391.000000,354.000000,37.000000,8.000000,0.000000,0.000000:
0000
0000
0000
0000
,
0000
0000
0000
0000
,
0000
0000
0000
0000
,
0000
0000
0000
0000
,
0000
0000
0000
0000
,
0000
0000
0000
0000
,
0000
0000
0000
0000
,
0000
0000
0000
0000
,
0100
0000
0100
0000
,
0100
0000
0100
0000
,
0100
0000
0100
0000
,
0100
0000
0100
0000
,
0100
0000
0100
0000
,
0100
0000
0100
0000
,
0100
0000
0100
0000
,
0100
0100
0000
0000
,
1000
0100
0010
0001
,
1000
0000
0100
0000
0010
0000
0001
1000
,
0100
0000
1100
0000
0010
0000
0001
0100
,
1000
0100
0001
0100
0000
0010
0010
0000
,
1000
0100
0010
0001
,
1000
0100
0010
0001
,
0000
1000
0001
0000
1000
0001
0000
0100
,
0010
0100
0010
0100
0010
0000
0110
0000
,
1000
1000
0001
0001
,
1000
0001
1000
0000
0001
1000
0001
0000
,
0100
0100
0010
0010
,
0100
0010
0100
0000
0010
0100
0010
0000
,
1001
0000
0100
0000
1000
0100
1000
0000
,
0001
0010
0001
0000
1000
0100
1000
0000
,
0010
0000
1000
0000
0010
1000
0100
0000
,
1001
0000
0000
0000
,
0001
0100
0001
0100
,
0001
0000
0100
0000
0001
0000
0100
0010
,
0100
0010
0100
0010
,
1000
0100
1000
0000
0010
0100
0010
0000
,
0100
0001
0100
0001
,
0010
0001
0010
0001
,
1000
0000
0100
0000
1000
0000
0001
0100
,
0000
0110
0000
0110
0000
0000
0000
0000
,
0001
0001
0001
0001
,
1000
0000
1000
0000
1000
0000
1000
0010
,
0100
0100
0100
0100
,
0001
0000
0001
0000
0001
0000
0001
0010
,
0100
0001
0100
0001
,
0100
1000
0100
1000
,
0010
0000
0001
0000
0010
0000
1000
0001
,
0000
1001
0000
0110
0000
0001
1000
0000
,
0001
0010
0001
0010
0100
0000
1000
0000
,
0010
1000
0100
0000
0010
0100
1000
0000
,
1010
0100
0011
0100
,
1000
0001
1000
0001
0000
1001
1001
0000
,
0010
0000
0010
1000
0100
0000
0010
0001
,
0100
0000
0010
1000
0100
0000
0010
0010
,
0000
0001
0001
0000
0100
0100
0000
0010
,
0110
0000
1001
0000
0010
0100
0010
0000
,
1000
0100
1000
0010
1000
0000
1000
0000
,
1000
1000
1000
1000
,
0001
0010
0001
0000
1000
0100
1000
0000
,
0001
0100
0001
0000
1000
0010
1000
0000
,
0001
1001
0001
0001
,
0001
0000
0001
0000
0001
0000
0001
0001
,
0000
1000
0100
0000
1000
0001
0010
0100
,
0000
0010
0100
0010
0000
0100
0100
0000
,
2000
0000
3000
0000
,
0002
0000
0003
0000
,
1000
1000
0001
0000
1000
1000
0001
0000
,
0001
0001
1000
0000
0001
0001
1000
0000
,
0001
1000
0001
1000
0010
1000
0010
0000
,
0100
0001
0100
0000
0001
0010
0001
0000
,
1000
0001
0010
0100
1000
0100
1000
0001
,
0000
1000
0000
0001
0000
0100
0100
0000
,
0000
0000
0000
0000
,
0000
0000
0000
0000
,
1100
0010
0001
0100
,
1010
0100
0001
0010
,
1100
0001
0101
1000
,
1010
0011
1010
0011
,
1100
0001
0010
0100
,
1010
0000
0100
0000
0010
0000
1000
0001
,
0000
0100
0001
0000
0100
0001
0000
0010
,
0100
1000
0100
1000
0100
0000
0011
0001
,
0200
0000
0000
0000
0310
0000
1000
0002
,
0000
0023
0000
0000
0130
1000
0100
0000
,
0020
0000
0001
0000
0230
0000
1300
0010
,
0000
0200
0000
0000
0310
0100
0010
0100
,
0101
1010
1100
0110
,
0011
1001
0101
1001
,
0110
0000
0110
0000
1001
0000
0010
0100
;

//---------------dance-double - ----------------
#NOTES:
     dance-double:
     :
     Challenge:
     14:
     0.272711,0.573586,0.434786,0.088316,0.000000,281.000000,217.000000,64.000000,13.000000,0.000000,0.000000,0.272711,0.573586,0.434786,0.088316,0.000000,281.000000,217.000000,64.000000,13.000000,0.000000,0.000000:
00000000
00000000
00000000
00000000
,
00000000
00000000
00000000
00000000
,
00000000
00000000
00000000
00000000
,
00000000
00000000
00000000
00000000
,
00000000
00000000
00000000
00000000
,
00000000
00000000
00000000
00000000
,
00000000
00000000
00000000
00000000
,
00000000
00000000
00000000
00000000
,
00001000
00001000
00010000
00000000
00000000
00001000
00010000
00000000
,
00001000
00001000
00010000
00000000
00000000
00001000
00010000
00000000
,
00000010
00000010
00000100
00000000
00000000
00000010
00000100
00000000
,
00000010
00000010
00000100
00000000
00000000
00000010
00000100
00000000
,
00001000
00001000
00010000
00000000
00000000
00001000
00010000
00000000
,
00001000
00001000
00010000
00000000
00000000
00001000
00010000
00000000
,
00100000
00100000
01000000
00000000
00000000
00100000
01000000
00000000
,
00100000
00100000
00000000
00000000
00000000
00000000
00000000
00000000
,
10000000
00010000
00001000
00000001
,
10000000
00010000
00001000
00000001
,
00000000
11000000
00000000
00110000
,
00000000
00001100
00000000
00000011
,
01100000
00110000
00001100
00000110
,
01100000
00110000
00001100
00000110
,
00000200
00000000
00000000
00000000
,
00000000
00000000
00000000
00000300
,
10000000
00010000
00001000
00000001
,
10000000
00010000
00001000
00000001
,
01100000
00110000
00001100
00000110
,
01100000
00110000
00001100
00000110
,
10000000
FFF10000
FFFF1F00
FFFFFFF1
,
00FFFFF1
0000FFF1
000000F1
00000001
,
01100000
00110000
00001100
00000110
,
00000000
00000000
00000000
00011000
,
00200020
00000000
00000000
00000000
,
00000000
00000000
00000000
00000000
,
00000000
00000000
00000000
00000000
,
00000000
00000000
00000000
00300030
,
00022000
00000000
00000000
00000000
,
00000000
00000000
00000000
00000000
,
00000000
00000000
00000000
00000000
,
00000000
00000000
00000000
00033000
,
00000202
00000000
00000000
00000000
,
00000000
00000000
00000000
00000000
,
00000000
00000000
00000000
00000000
,
00000000
00000000
00000000
00000000
00000000
00000000
00F00303
00F00000
,
00200000
00000000
00000000
00000000
,
00000000
00000000
00000000
00000000
,
00000000
00000000
00000000
00000000
,
00000000
00000000
00000000
00300000
,
00000100
00000100
00000100
00000100
,
00000100
00000100
00000100
00000100
,
00000000
11000000
00000000
00FF0000
,
00000000
00001100
00000000
000000FF
,
01100000
01100000
01100000
01100000
,
01100000
00110000
00001100
00000110
,
00200000
00000000
00000000
00000000
,
00000000
00000000
00000000
00000000
00300000
00000000
00000020
00000030
,
FFFF0000
00000001
00000001
00000001
,
00000001
00000001
00000001
00000001
,
00000000
01100000
00000000
00000110
,
00000000
01100000
00000000
00000110
,
00200000
00300000
1FFF0000
00000000
FFF1FF00
00000000
FFFF1FFF
00000000
,
FFFFFFF1
00FFFFF1
0000FFF1
00000001
,
00000000
10000000
00000000
00000001
,
00000000
10000000
00000000
00000001
,
00010000
00010000
00000000
00000000
00000000
00000000
00000000
00000000
,
00001000
00001000
00000000
00000000
00000000
00000000
00000000
00000000
,
00010000
00001000
00010000
00001000
00010000
00001000
00010000
00001000
,
00010000
00100000
00010000
00100000
00010000
00100000
00010000
00100000
,
01000000
00010000
01000000
00010000
01000000
00010000
01000000
00010000
,
00100000
00010000
00100000
00010000
00100000
00010000
00100000
00010000
,
01000000
00001000
01000000
00001000
01000000
00001000
01000000
01001000
,
00000000
00101000
00000000
00011000
00000000
00010100
00010010
00000000
,
00000000
00000000
00000000
00000000
,
00000000
00000000
00000000
00000000
,
10000000
FFF10000
FFFF1F00
FFFFFFF1
,
FFFFFFF1
00FFFFF1
0000FFF1
00000001
,
00000000
11000000
00000000
00110000
,
00000000
00001100
00000000
00100010
,
11000000
00110000
00000101
00001010
,
11000000
00110000
00000101
00001010
,
02000200
00000000
00000000
00000000
,
00000000
00000000
00000000
0300F300
,
00000000
10000000
00000000
00000110
,
00000000
00000000
00000000
00000000
,
00000000
00000000
00011000
00000000
00000000
00000000
00100000
00000010
,
00000000
00000000
00000000
00000000
,
00000100
01000100
00011000
00001000
,
00000000
00000000
00000000
00000000
,
1FFFFFFF
00000000
00F1FFFF
00000000
00001FFF
00000000
000000F1
00000001
;

//---------------dance-double - ----------------
#NOTES:
     dance-double:
     :
     Hard:
     13:
     0.572597,0.754718,0.373644,0.067935,0.200409,590.000000,535.000000,55.000000,10.000000,0.000000,0.000000,0.572597,0.754718,0.373644,0.067935,0.200409,590.000000,535.000000,55.000000,10.000000,0.000000,0.000000:
00000000
00000000
00000000
00000000
,
00000000
00000000
00000000
00000000
,
00000000
00000000
00000000
00000000
,
00000000
00000000
00000000
00000000
,
00000000
00000000
00000000
00000000
,
00000000
00000000
00000000
00000000
,
00000000
00000000
00000000
00000000
,
00000000
00000000
00000000
00000000
,
10000000
00000000
10000000
01000000
00100000
00000000
01000000
00100000
,
00010000
00000000
00100000
00010000
00001000
00000000
00010000
00001000
,
00000100
00000000
00000100
00000000
00000010
00000000
00000100
00001000
,
00000000
00000010
00000100
00000010
00000000
00000100
00000100
00000000
,
00000001
00000000
00000001
00000010
00000100
00000000
00000010
00000100
,
00001000
00000000
00000100
00001000
00010000
00000000
00001000
00010000
,
00000000
01000000
00010000
00000000
00100000
01000000
00000000
10000000
,
01000000
00000000
01000000
00000000
10000000
00100000
10000000
00000000
,
10000000
00000000
10000000
01000000
00100000
00000000
01000000
00100000
00010000
00000000
00100000
00010000
00001000
00000000
00010000
00001000
,
00000100
00000000
00001000
00000100
00000010
00000000
00000100
00000010
00000001
00000000
00001000
00000010
00000100
00000000
00000001
00000100
,
00000010
00000000
00000110
00000000
00000100
00000000
00001001
00000001
,
00001000
00000100
00001000
00000000
00001000
00010000
00001000
00000000
00100000
00000000
00110000
00000000
01010000
00000000
00000000
00000000
,
10000000
00000000
10000000
01000000
00100000
00000000
01000000
00100000
00010000
00000000
00100000
00010000
00001000
00000000
00010000
00001000
,
00000100
00000000
00001000
00000100
00000010
00000000
00000100
00000010
00000001
00000000
00001000
00000010
00000100
00000000
00000001
00000100
,
00000010
00000000
00000110
00000000
00000100
00000001
00000100
00001000
,
00000100
00000010
00001000
00000001
00000010
00000000
00000001
00000010
,
00000011
00000101
00001010
00001100
,
00010000
00000010
00001000
00000100
00010000
00001000
01000000
00000000
,
10100000
11000000
00110000
01010000
,
00001000
00100000
00010000
01000000
00001000
00010000
00000100
00000000
,
00000101
00000110
00001100
00001010
,
00000001
00000100
00001000
00000100
00001000
00010000
00100000
00000000
,
11000000
00000000
01100000
00000000
01010000
00000000
00110000
00010000
,
00000000
00000000
10000000
00100000
10000000
00000000
00010000
01000000
00010000
00000000
01000000
00000000
01000000
00000000
00000000
00000000
,
10000000
00000000
10000000
00100000
00010000
00000000
00001000
00000000
,
00010000
00000000
00001000
00000100
00000001
00000000
00000100
00000000
,
00000001
00000100
00001000
00000000
00010000
00100000
10000000
00000000
,
01000000
00000000
01000000
00000000
10000000
01000000
10000000
00000000
,
10000000
00000000
10000000
00100000
00010000
00000000
00001000
00000000
,
00010000
00000000
00001000
00000100
00000001
00000000
00000100
00000000
,
00000001
00000100
00001000
00000000
00010000
00100000
10000000
01000000
,
00000000
11000000
00000000
10010000
00000000
00000000
00000000
00000000
,
10000000
10000000
10000000
10000000
,
00001000
00001000
00001000
00001000
,
00010000
00010000
00010000
00010000
,
00000001
00000001
00000001
00000001
,
00001000
00001000
00001000
00001000
,
00010000
00010000
00010000
00010000
,
10000000
00000000
10000000
00000000
10000000
00000000
10000000
10000000
,
00000000
10010000
00000000
10010000
00000000
10010000
10010000
00000000
,
10000000
00000000
10000000
00100000
10000000
00000000
00100000
01000000
00100000
00000000
01000000
00001000
01000000
00000000
00001000
00100000
,
00001000
00000000
00010000
00000100
00010000
00000000
00000100
00001000
00000100
00000000
00001000
00000010
00001000
00000000
00000001
00000100
,
00000001
00000000
00000110
00000000
00000100
00000000
00001001
00000001
,
00001000
00000100
00001000
00000000
00001000
00010000
00001000
00000000
00100000
00000000
00110000
00000000
01010000
00000000
00000000
00000000
,
10000000
00000000
10000000
00100000
10000000
00000000
00100000
01000000
00100000
00000000
01000000
00001000
01000000
00000000
00001000
00100000
,
00001000
00000000
00010000
00000100
00010000
00000000
00000100
00001000
00000100
00000000
00001000
00000010
00001000
00000000
00000001
00000100
,
00000001
00000000
00000110
00000000
00000001
00000100
00001000
00000100
,
00000001
00000010
00001000
00010000
01000000
10000000
00100000
01000000
,
00010000
00010000
01010000
00000000
01000000
01000000
00010000
00010000
,
01000000
01000000
00010000
00010000
01000000
01000000
00010000
00010000
,
10000000
00100000
02000000
00000000
03010000
10000000
02000000
00000000
,
03100000
00001000
00020000
00000000
00030010
00010000
00002000
00000000
,
00003100
00000001
00000100
00000000
00000101
00000000
00000000
00000000
00000100
00000000
00000100
00000000
00000001
00000000
00000001
00000000
,
00000100
00000100
00000001
00000001
00000100
00000100
00000001
00000001
,
00000000
00000010
00000100
00001000
00010000
01000000
10000000
01000000
,
00000000
00100000
10000000
01000000
00000000
00100000
00200000
00000000
,
00310000
00000000
10000000
01000000
00000000
00000000
00010000
01000000
,
00000000
00000000
10000000
00100000
00000000
00000000
00010000
00100000
,
01000000
10000000
01000000
10000000
00100000
01000000
00100000
01000000
,
00010000
00100000
00010000
00100000
00001000
00010000
00001000
00010000
,
00000100
00001000
00000100
00001000
00000100
00001000
00000100
00001000
,
00000010
00001000
00000010
00001000
00000010
00001000
00000010
00001000
,
00000001
00000100
00001000
00010000
00100000
10000000
01000000
11000000
,
00000000
10010000
00000000
01100000
00000000
10010000
01100000
00000000
,
00000000
00000000
00000000
00000000
,
00000000
00000000
00000000
00000000
,
10000000
00000000
10000000
01000000
00100000
00000000
01000000
00100000
00010000
00000000
00100000
00010000
00001000
00000000
00010000
00001000
,
00000100
00000000
00000100
00001000
00000010
00000000
00000010
00010000
00000100
00000000
00000100
00001000
00000010
00000000
00000010
00010000
,
00001000
00000000
00010010
00000000
00000100
00000000
00001001
00000001
,
00001000
00000100
00001000
00000000
00001000
00010000
00001000
00000000
00100000
00000000
00110000
00000000
01010000
00000000
00000000
00000000
,
10000000
00000000
10000000
01000000
00100000
00000000
01000000
00100000
00010000
00000000
00100000
00010000
00001000
00000000
00010000
00001000
,
00000100
00000000
00000010
00000001
00000010
00000000
00000010
00001000
00000010
00000000
00000100
00000001
00000100
00000000
00000100
00001000
,
00000100
00000000
00001001
00000000
00000001
00000100
00001000
00010000
,
00100000
10000000
01000000
00010000
01000000
10000000
00100000
01000000
,
01010000
00000000
00020000
00000000
10030000
00000000
01000000
00200000
,
00000000
00320000
00000000
00000000
10030000
00100000
01000000
00000000
,
00020000
00000000
10030000
00000000
00100000
00000000
10000000
02000000
,
00000000
03010000
00000000
00000000
00001000
00010000
00001000
00010000
,
00011000
00001100
00000110
00001100
,
00011000
00110000
01100000
00110000
,
00011000
00000000
00000010
00001000
00000100
00000000
00100000
00010000
01000000
00000000
00001000
00000000
00010000
00000000
00011000
00000000
;

//---------------dance-double - ----------------
#NOTES:
     dance-double:
     :
     Easy:
     7:
     0.251360,0.301887,0.163045,0.000000,0.000000,259.000000,235.000000,24.000000,0.000000,0.000000,0.000000,0.251360,0.301887,0.163045,0.000000,0.000000,259.000000,235.000000,24.000000,0.000000,0.000000,0.000000:
  // measure 0
00000000
00000000
00000000
00000000
,  // measure 1
00000000
00000000
00000000
00000000
,  // measure 2
00000000
00000000
00000000
00000000
,  // measure 3
00000000
00000000
00000000
00000000
,  // measure 4
00000000
00000000
00000000
00000000
,  // measure 5
00000000
00000000
00000000
00000000
,  // measure 6
00000000
00000000
00000000
00000000
,  // measure 7
00000000
00000000
00000000
00000000
,  // measure 8
00010000
00000000
00000000
00010000
,  // measure 9
00010000
00000000
00000000
00001000
,  // measure 10
00001000
00000000
00000000
00010000
,  // measure 11
00010000
00000000
00000000
00001000
,  // measure 12
00001000
00000000
00000000
00010000
,  // measure 13
00010000
00000000
00000000
00001000
,  // measure 14
00001000
00000000
00000000
00010000
,  // measure 15
00010000
00001000
00000000
00000000
,  // measure 16
10000000
00100000
01000000
00010000
,  // measure 17
00001000
00000010
00000100
00000001
,  // measure 18
00000000
00001001
00000000
00001100
,  // measure 19
00000000
00110000
00000000
10010000
,  // measure 20
10000000
00100000
01000000
00010000
,  // measure 21
00001000
00000010
00000100
00000001
,  // measure 22
00000000
00001000
00000000
00000001
,  // measure 23
00001000
00000001
00001001
00000000
,  // measure 24
00000001
00000000
00000100
00000000
,  // measure 25
00001000
00010000
00100000
00000000
,  // measure 26
10000000
00000000
01000000
00000000
,  // measure 27
00100000
00010000
00001000
00000000
,  // measure 28
00000010
00000000
00000100
00000000
,  // measure 29
00000001
00000100
00001000
00000000
,  // measure 30
00010000
00000000
00001000
00000000
,  // measure 31
00010000
00001000
00010000
00000000
,  // measure 32
00100000
00000000
00100000
00000000
,  // measure 33
01000000
00100000
01000000
00000000
,  // measure 34
00100000
00000000
00100000
00000000
,  // measure 35
01000000
00100000
01000000
00000000
,  // measure 36
00001000
00000000
00010000
00000000
,  // measure 37
00010000
00001000
00010000
00000000
,  // measure 38
00001000
00000000
00001000
00000000
,  // measure 39
00010000
00001000
00010000
00000000
,  // measure 40
00000100
00000100
00000100
00000100
,  // measure 41
00000010
00000010
00000010
00000010
,  // measure 42
00000001
00000001
00000001
00000001
,  // measure 43
00000100
00000100
00000100
00000100
,  // measure 44
00001000
00001000
00001000
00001000
,  // measure 45
00010000
00010000
00010000
00010000
,  // measure 46
00100000
00000000
00100000
00000000
00100000
00000000
00100000
10000000
,  // measure 47
00000000
00100000
00000000
10000000
00000000
00010000
10000000
00000000
,  // measure 48
01000000
00100000
01000000
00100000
,  // measure 49
01000000
00100000
01000000
00100000
,  // measure 50
00000000
00011000
00000000
00001100
,  // measure 51
00000000
00000110
00000000
00001001
,  // measure 52
00000001
00000010
00000100
00001000
,  // measure 53
00010000
00100000
01000000
10000000
,  // measure 54
00000000
00010000
00000000
10000000
,  // measure 55
00010000
10000000
10010000
00010000
,  // measure 56
00000000
10010000
10000000
10000000
,  // measure 57
10000000
10000000
10000000
10000000
,  // measure 58
00000000
00100000
00000000
00000100
,  // measure 59
00000000
00100000
00000000
00000100
,  // measure 60
00000000
00001001
00001000
00001000
,  // measure 61
00001000
00001000
00001000
00001000
,  // measure 62
00000000
00000100
00000000
00100000
,  // measure 63
00000000
00000100
00000000
00100000
,  // measure 64
00000000
00010000
00000000
00010000
,  // measure 65
00000000
10000000
00000000
10000000
,  // measure 66
10000000
00100000
10000000
00100000
,  // measure 67
01000000
00010000
01000000
00000000
,  // measure 68
00100000
00010000
00001000
00010000
,  // measure 69
00000100
00000010
00000100
00000010
,  // measure 70
00000001
00000000
00001000
00000000
00000001
00000000
00001000
00000001
,  // measure 71
00000000
00001000
00000000
00000010
00000000
00000100
00000010
00000000
,  // measure 72
00000000
00000000
00000000
00000000
,  // measure 73
00000000
00000000
00000000
00000000
,  // measure 74
10000000
01000000
00100000
00010000
,  // measure 75
00001000
00000100
00000010
00000001
,  // measure 76
00000000
00001001
00000000
00001100
,  // measure 77
00000000
00110000
00000000
10010000
,  // measure 78
10000000
01000000
00100000
00010000
,  // measure 79
00001000
00000100
00000010
00000001
,  // measure 80
00000000
00001001
00000000
00001001
,  // measure 81
00000100
00001000
00000100
00000001
,  // measure 82
00001010
00000000
00010100
00000000
,  // measure 83
00011000
00000000
00000000
00000000
,  // measure 84
01100000
00000000
01010000
00000000
,  // measure 85
00011000
00000000
00000000
00000000
,  // measure 86
00001000
00000010
00001000
00010000
,  // measure 87
00100000
00010000
00001000
00010000
,  // measure 88
00000100
00000000
00001000
00000000
00010000
00000000
00001000
00010000
;

//---------------dance-double - ----------------
#NOTES:
     dance-double:
     :
     Medium:
     9:
     0.392083,0.513208,0.142664,0.047555,0.000000,404.000000,383.000000,21.000000,7.000000,0.000000,0.000000,0.392083,0.513208,0.142664,0.047555,0.000000,404.000000,383.000000,21.000000,7.000000,0.000000,0.000000:
  // measure 0
00000000
00000000
00000000
00000000
,  // measure 1
00000000
00000000
00000000
00000000
,  // measure 2
00000000
00000000
00000000
00000000
,  // measure 3
00000000
00000000
00000000
00000000
,  // measure 4
00000000
00000000
00000000
00000000
,  // measure 5
00000000
00000000
00000000
00000000
,  // measure 6
00000000
00000000
00000000
00000000
,  // measure 7
00000000
00000000
00000000
00000000
,  // measure 8
10000000
01000000
00100000
00010000
,  // measure 9
00010000
00100000
01000000
10000000
,  // measure 10
10000000
00100000
01000000
00010000
,  // measure 11
00010000
00100000
01000000
10000000
,  // measure 12
00100000
00010000
00001000
00001000
,  // measure 13
00010000
00100000
01000000
01000000
,  // measure 14
00100000
00010000
00001000
00001000
,  // measure 15
00010000
00000000
00100000
00000000
01000000
00100000
01000000
00000000
,  // measure 16
10000000
00000000
01000000
00100000
00010000
00000000
00001000
00000100
,  // measure 17
00000010
00000000
00000001
00000010
00000100
00000000
00001000
00000010
,  // measure 18
00000100
00000000
00000110
00000000
00000001
00000000
00000100
00001000
,  // measure 19
00000000
00010000
00001000
00010000
00000000
00001000
00001000
00000000
,  // measure 20
10000000
00000000
01000000
00100000
00010000
00000000
00001000
00000100
,  // measure 21
00000010
00000000
00000001
00000010
00000100
00000000
00001000
00000010
,  // measure 22
00000000
00000100
00000010
00000000
00000001
00000010
00000000
00001000
,  // measure 23
00000001
00001000
00000001
00001001
,  // measure 24
00001000
00001000
00000100
00000100
,  // measure 25
00001000
00000100
00001000
00000000
00010000
00100000
00010000
00000000
,  // measure 26
01000000
01000000
00100000
00100000
,  // measure 27
10000000
01000000
10000000
00000000
00010000
01000000
00010000
00000000
,  // measure 28
00100000
00100000
00001000
00001000
,  // measure 29
00010000
00000100
00001000
00000000
00000010
00010000
00001000
00000000
,  // measure 30
00100000
00100000
01000000
01000000
,  // measure 31
10000000
00010000
10000000
00000000
00010000
00000000
00010000
00000000
,  // measure 32
10000000
00100000
00010000
00001000
,  // measure 33
00000100
00000001
00000100
00001000
,  // measure 34
00010000
00100000
01000000
00100000
,  // measure 35
10000000
01000000
00010000
00001000
,  // measure 36
00000100
00000001
00000100
00000010
,  // measure 37
00001000
00000100
00001000
00010000
,  // measure 38
01000000
00000000
00100000
00000000
01000000
00000000
00010000
10000000
,  // measure 39
00000000
00010000
00000000
00010000
00000000
00000000
00000000
00000000
,  // measure 40
10000000
10000000
10000000
10000000
,  // measure 41
00010000
00010000
00010000
00010000
,  // measure 42
00001000
00001000
00001000
00001000
,  // measure 43
00000001
00000000
00000001
00000000
00000001
00000000
00000001
00000010
,  // measure 44
00000100
00000100
00000100
00000100
,  // measure 45
00010000
00010000
00010000
00010000
,  // measure 46
01000000
00000000
01000000
00000000
01000000
00000000
01000000
10000000
,  // measure 47
00000000
11000000
00000000
10010000
00000000
00100000
01000000
00000000
,  // measure 48
00010000
01000000
00100000
00000000
01000000
00010000
00100000
00000000
,  // measure 49
00010000
01000000
00100000
00000000
01000000
00010000
00100000
00000000
,  // measure 50
00010000
00110000
00001000
00011000
,  // measure 51
00000100
00000000
00001100
00000000
00000010
00000001
00000100
00000000
,  // measure 52
00000001
00000000
00000010
00000100
00001000
00000000
00010000
00100000
,  // measure 53
01000000
00000000
10000000
01000000
00100000
00000000
00010000
01000000
,  // measure 54
00000000
00100000
01000000
00000000
10000000
01000000
00000000
00010000
,  // measure 55
10000000
00010000
10000000
00010000
01000000
00000000
01100000
00000000
,  // measure 56
00000000
10010000
10000000
10000000
,  // measure 57
10000000
10000000
10000000
10000000
,  // measure 58
10000000
00100000
00010000
00000000
00001000
00000100
00000001
00000000
,  // measure 59
00000001
00000100
00001000
00000000
00010000
00100000
10000000
00000000
,  // measure 60
00000000
11000000
10000000
10000000
,  // measure 61
10000000
10000000
10000000
10000000
,  // measure 62
10000000
00100000
00010000
00000000
00001000
00000100
00000001
00000000
,  // measure 63
00000010
00000100
00001000
00000000
00000010
00000100
00000001
00000000
,  // measure 64
00000020
00000100
00000000
00000100
,  // measure 65
00000032
00000100
00000000
00000100
,  // measure 66
00001003
00000001
00001000
00000000
00000001
00001000
00000001
00000000
,  // measure 67
00000100
00000010
00000100
00000000
00000010
00000100
00000010
00000000
,  // measure 68
00001000
00000100
00010000
00000000
00000100
00010000
00001000
00000000
,  // measure 69
00010000
00001000
00100000
00000000
00001000
00100000
00010000
00000000
,  // measure 70
01000000
00100000
01000000
00100000
10000000
00010000
10000000
00010000
,  // measure 71
00000000
10010000
00000000
01100000
00000000
00010000
10000000
00000000
,  // measure 72
00000000
00000000
00000000
00000000
,  // measure 73
00000000
00000000
00000000
00000000
,  // measure 74
10000000
00000000
01000000
00100000
00010000
00000000
00001000
00000100
,  // measure 75
00000010
00000000
00000001
00000010
00000100
00000000
00001000
00000010
,  // measure 76
00000100
00000000
00000110
00000000
00000001
00000000
00001000
00000100
,  // measure 77
00000000
00000001
00000100
00001000
00000000
00000010
00000010
00000000
,  // measure 78
00000100
00000000
00001000
00010000
00100000
00000000
00010000
00001000
,  // measure 79
00000100
00000000
00001000
00010000
00100000
00000000
00010000
00001000
,  // measure 80
00000000
00000100
00001000
00000000
00010000
00001000
00000000
00100000
,  // measure 81
00001000
00100000
00010000
00100000
01000000
00000000
10000000
01000000
,  // measure 82
00200000
00000000
00010000
00000000
02300000
00000000
13000000
00100000
,  // measure 83
00000000
02000000
00000000
00000000
00100000
00000000
03100000
00000000
,  // measure 84
00020000
00000000
00130000
00000000
01000000
00000000
10000000
00200000
,  // measure 85
00000000
01000000
00000000
00000000
01300000
00100000
01000000
00000000
,  // measure 86
01100000
00110000
00011000
00001100
,  // measure 87
00000110
00000011
00001100
00011000
,  // measure 88
00001000
00010000
00001000
00100000
00001000
01000000
00010000
00001000
;
