#VERSION:0.83;
#TITLE:霊光発電;
#SUBTITLE:;
#ARTIST:-45;
#TITLETRANSLIT:Reikou Hatsuden;
#SUBTITLETRANSLIT:;
#ARTISTTRANSLIT:;
#GENRE:;
#ORIGIN:;
#CREDIT:;
#BANNER:Reikou Hatsuden-bn.jpg;
#BACKGROUND:Reikou Hatsuden-bg.jpg;
#PREVIEWVID:;
#JACKET:Reikou Hatsuden-jacket.jpg;
#CDIMAGE:AlbumArtSmall.jpg;
#DISCIMAGE:;
#LYRICSPATH:;
#CDTITLE:;
#MUSIC:Reikou Hatsuden.mp3;
#OFFSET:0.898000;
#SAMPLESTART:53.761997;
#SAMPLELENGTH:15.000000;
#SELECTABLE:YES;
#BPMS:0.000=250.000;
#STOPS:;
#DELAYS:;
#WARPS:;
#TIMESIGNATURES:0.000=4=4;
#TICKCOUNTS:0.000=4;
#COMBOS:0.000=1;
#SPEEDS:0.000=1.000=0.000=0;
#SCROLLS:0.000=1.000;
#FAKES:;
#LABELS:0.000=Song Start;
#BGCHANGES:;
#KEYSOUNDS:;
#ATTACKS:
;

//---------------dance-single - ----------------
#NOTEDATA:;
#CHARTNAME:;
#STEPSTYPE:dance-single;
#DESCRIPTION:;
#CHARTSTYLE:;
#DIFFICULTY:Beginner;
#METER:5;
#RADARVALUES:0.248985,0.300857,0.165990,0.027665,0.000000,252.000000,228.000000,24.000000,4.000000,0.000000,0.000000,0.000000,0.000000,0.000000,0.248985,0.300857,0.165990,0.027665,0.000000,252.000000,228.000000,24.000000,4.000000,0.000000,0.000000,0.000000,0.000000,0.000000;
#CREDIT:;
#NOTES:
0000
0000
0000
0000
,
0000
0000
0000
0000
,
0000
0000
0000
0000
,
0000
0000
0000
0000
,
0000
0000
0000
0000
,
0000
0000
0000
0000
,
0000
0000
0000
0000
,
0000
0000
0000
0000
,
0000
0000
0000
0000
,
1000
0000
1000
0000
,
1000
0000
1000
0000
,
0001
0000
0001
0000
,
0001
0000
0001
0000
,
0100
0000
0100
0000
,
0100
0000
0100
0000
,
0010
0000
0010
0000
,
0010
0000
0010
0000
,
1000
0000
0001
0000
,
1000
0000
0001
0000
,
0100
0000
0001
0000
,
0100
0000
0001
0000
,
1000
0000
0001
0000
,
1000
0000
0001
0000
,
1000
0000
0100
0000
,
1000
0000
0100
0000
,
1000
0000
0010
0000
,
0100
0000
0100
0000
,
0001
0000
0100
0000
,
0010
0000
0010
0000
,
1000
0000
0010
0000
,
0100
0000
0100
0000
,
0001
0000
0100
0000
,
0010
0000
0010
0000
,
1000
0000
0100
0000
,
0010
0000
0010
0000
,
0001
0000
0100
0000
,
0010
0000
0010
0000
,
1000
0000
0100
0000
,
0010
0000
0010
0000
,
0001
0000
0000
0000
,
0000
0000
0000
0000
,
0001
0000
1000
0000
,
0001
0000
1000
0000
,
0010
0000
0100
0000
,
0010
0000
0100
0000
,
0001
0000
1000
0000
,
0001
0000
1000
0000
,
0100
0000
0010
0000
,
0100
0000
0010
0000
,
0001
0000
0100
0000
,
0001
0000
0100
0000
,
0010
0000
1000
0000
,
0010
0000
1000
0000
,
0001
0000
1000
0000
,
0001
0000
1000
0000
,
0010
0000
0100
0000
,
0010
0000
0100
0000
,
0100
0000
0110
0000
,
0000
0000
1010
0000
,
0000
0000
1001
0000
,
0000
0000
0101
0000
,
0000
0000
1001
0000
,
0000
0000
1010
0000
,
0000
0000
1001
0000
,
0000
0000
0101
0000
,
0000
0000
0011
0000
,
0000
0000
1001
0000
,
0000
0000
1100
0000
,
0000
0000
1001
0000
,
0000
0000
0110
0000
,
0000
0000
0101
0000
,
0000
0000
0110
0000
,
0000
0000
1001
0000
,
1000
0000
0100
0000
,
0010
0000
0010
0000
,
0001
0000
1000
0000
,
0001
0000
0001
0000
,
1000
0000
0010
0000
,
0100
0000
0100
0000
,
0001
0000
1000
0000
,
0001
0000
0001
0000
,
0010
0000
0001
0000
,
0100
0000
0100
0000
,
0010
0000
1000
0000
,
0010
0000
0010
0000
,
1000
0000
0100
0000
,
0010
0000
0010
0000
,
0001
0000
0100
0000
,
0001
0000
0001
0000
,
1000
0000
0000
0000
,
0010
0000
0000
0000
,
0001
0000
0000
0000
,
0100
0000
1000
0000
,
0010
0000
0000
0000
,
0001
0000
0000
0000
,
0100
0000
0000
0000
,
1000
0000
0010
0000
,
0001
0000
1001
0000
,
0000
0000
0110
0000
,
0000
0000
1001
0000
,
0000
0000
0110
0000
,
0000
0000
1001
0000
,
0000
0000
0011
0000
,
0000
0000
1001
0000
,
0000
0000
1100
0000
,
1000
0000
0001
0000
,
1000
0000
0001
0000
,
0100
0000
0010
0000
,
0100
0000
0010
0000
,
1000
0000
0001
0000
,
1000
0000
0001
0000
,
0010
0000
0100
0000
,
0010
0000
0100
0000
,
1000
0000
0100
0000
,
1000
0000
0100
0000
,
1000
0000
0010
0000
,
1000
0000
0010
0000
,
0100
0000
0001
0000
,
0100
0000
0001
0000
,
0010
0000
0001
0000
,
0000
0000
0001
0000
,
1000
0000
0100
0000
,
0010
0000
0001
0000
,
1000
0000
0100
0000
,
0010
0000
0001
0000
,
1000
0000
0010
0000
,
0100
0000
0001
0000
,
1000
0000
0010
0000
,
0100
0000
0001
0000
,
1000
0000
0010
0000
,
1000
0000
0010
0000
,
0100
0000
0001
0000
,
0100
0000
0001
0000
,
0010
0000
0100
0000
,
1000
0000
0100
0000
,
1000
0000
0010
0000
,
0100
0000
0010
0000
,
2000
0000
0000
0000
,
0000
0000
0000
0000
,
3002
0000
0000
0000
,
0000
0000
0000
0000
,
2003
0000
0000
0000
,
0000
0000
0000
0000
,
3002
0000
0000
0000
,
0000
0000
0000
0000
,
0003
0000
0000
0000
;

//---------------dance-single - ----------------
#NOTEDATA:;
#CHARTNAME:;
#STEPSTYPE:dance-single;
#DESCRIPTION:;
#CHARTSTYLE:;
#DIFFICULTY:Easy;
#METER:11;
#RADARVALUES:0.451532,0.501428,0.207488,0.027665,0.000000,457.000000,427.000000,30.000000,4.000000,0.000000,0.000000,0.000000,0.000000,0.000000,0.451532,0.501428,0.207488,0.027665,0.000000,457.000000,427.000000,30.000000,4.000000,0.000000,0.000000,0.000000,0.000000,0.000000;
#CREDIT:;
#NOTES:
0000
0000
0000
0000
,
0000
0000
0000
0000
,
0000
0000
0000
0000
,
0000
0000
0000
0000
,
0000
0000
0000
0000
,
0000
0000
0000
0000
,
0000
0000
0000
0000
,
0000
0000
0000
0000
,
0000
0000
0000
0000
,
1000
0000
1000
0000
,
1000
0000
1000
0000
,
0001
0000
0001
0000
,
0001
0000
0001
0001
,
1000
0000
1000
0000
,
1000
0000
1000
0000
,
0001
0000
0001
0000
,
0001
0000
0001
0001
,
0100
0010
0100
0010
,
1000
0000
1100
0000
,
0010
0001
0100
0010
,
0100
0100
0001
0000
,
0100
0001
0010
0001
,
1000
0000
1001
0000
,
0010
0100
0001
1000
,
0010
0100
0001
0000
,
0010
0001
0001
0001
,
0100
0010
0010
0010
,
1000
0100
0100
0100
,
1000
0010
0010
0100
,
0001
0010
0010
0010
,
0001
0100
0100
0100
,
0010
1000
1000
1000
,
0100
0010
0010
0001
,
1000
0100
0100
0100
,
0010
0100
0100
0100
,
0001
0100
0100
0100
,
1000
0010
0010
0100
,
0001
0010
0010
0010
,
0100
0010
0010
0010
,
0001
0000
0100
0000
,
0000
0000
0100
0000
,
0010
1000
1000
1000
,
0001
1000
1000
1000
,
0100
1000
1000
1000
,
0010
1000
1000
0100
,
0010
0001
0001
0001
,
0010
0001
0001
0001
,
0100
0001
0001
0001
,
1000
0001
0001
0010
,
0100
1000
1000
1000
,
0100
0001
0001
0001
,
0100
1000
1000
1000
,
0100
0001
0001
0100
,
0010
0001
0001
0001
,
0100
1000
1000
1000
,
0100
0001
0001
0001
,
0100
1000
1000
0100
,
0001
0000
1001
0000
,
1000
0000
1001
1000
,
0001
0000
1001
0000
,
1000
0000
1001
1000
,
0001
0000
0101
0000
,
0100
0000
0101
0100
,
0001
0000
0101
0000
,
0100
0000
0101
0001
,
0100
0000
1100
0000
,
1000
0000
1010
1000
,
0010
0000
0110
0000
,
0100
0000
0101
0001
,
0100
0000
1100
0000
,
1000
0000
1001
1000
,
0001
0001
1001
0000
,
1000
0000
1010
0000
,
0100
0010
0100
0001
,
0100
0000
0101
0000
,
0001
0010
0100
1000
,
0010
0010
0100
0000
,
1000
0100
0010
0001
,
1000
0000
1001
0000
,
0001
0001
0100
0000
,
0010
0010
0100
0000
,
1000
0100
0010
0001
,
1000
0000
1001
0000
,
1000
1000
0010
0100
,
0001
0001
0010
0000
,
0001
1000
0010
0100
,
0010
0000
0110
0000
,
0100
0001
0010
0100
,
0010
0001
1000
0000
,
0001
0100
0000
0100
,
0000
0010
0000
0010
,
0000
1000
0000
1000
,
0000
0100
0000
0100
,
0000
0001
0000
0001
,
0000
0010
0000
0010
,
0000
1000
0000
1000
,
0000
0100
0000
0100
,
0100
0000
0110
0010
,
0001
0000
0101
1000
,
0100
0000
1100
0010
,
0100
0000
1010
0001
,
0010
0000
0011
1000
,
0001
0000
0101
0100
,
0010
0000
0110
0000
,
0100
0000
0110
0000
,
0010
1000
1000
1000
,
0100
0010
0010
0010
,
0100
1000
1000
1000
,
0010
0100
0100
0001
,
0010
0100
0100
0100
,
0010
0001
0001
0001
,
0100
0010
0010
0010
,
0100
0001
0010
0010
,
0100
1000
1000
1000
,
0100
0001
0001
0001
,
0100
1000
1000
1000
,
0100
0001
0001
0100
,
0010
0001
0001
0001
,
0100
1000
1000
1000
,
0100
0001
0000
0001
,
0000
0010
0000
0010
,
0100
1000
1000
1000
,
0010
0100
0100
0100
,
0001
0010
0010
0010
,
0100
1000
1000
0001
,
0010
0100
0100
0100
,
1000
0010
0010
0010
,
0100
0001
0001
0001
,
0010
0100
0100
1000
,
0010
0100
0100
0100
,
0001
0010
0010
0010
,
1000
0100
0100
0100
,
0001
0010
0010
0001
,
0100
1000
1000
1000
,
0010
0001
0001
0001
,
0100
1000
1000
1000
,
0010
0001
0001
1000
,
0200
0000
0000
0000
,
0000
0000
0000
0000
,
0320
0000
0000
0000
,
0000
0000
0000
0000
,
0230
0000
0000
0000
,
0000
0000
0000
0000
,
0320
0000
0000
0000
,
0000
0000
0000
0000
,
0130
0000
0000
0000
;

//---------------dance-single - ----------------
#NOTEDATA:;
#CHARTNAME:;
#STEPSTYPE:dance-single;
#DESCRIPTION:;
#CHARTSTYLE:;
#DIFFICULTY:Medium;
#METER:14;
#RADARVALUES:0.679769,0.802285,1.265674,0.013833,0.000000,688.000000,505.000000,183.000000,2.000000,0.000000,0.000000,0.000000,0.000000,0.000000,0.679769,0.802285,1.265674,0.013833,0.000000,688.000000,505.000000,183.000000,2.000000,0.000000,0.000000,0.000000,0.000000,0.000000;
#CREDIT:;
#NOTES:
0000
0000
0000
0000
,
0000
0000
0000
0000
,
0000
0000
0000
0000
,
0000
0000
0000
0000
,
0000
0000
0000
0000
,
0000
0000
0000
0000
,
0000
0000
0000
0000
,
0000
0000
0000
0000
,
0000
0000
0000
0000
,
1000
0010
1000
0100
,
1000
0010
1000
0100
,
1000
0010
1000
0010
,
1000
0100
1000
1000
,
0001
0010
0001
0100
,
0001
0010
0001
0100
,
0001
0010
0001
0010
,
0001
0100
0001
0001
,
1000
0100
0011
0100
,
1000
0000
1100
0000
,
1000
0010
1001
0010
,
1000
0100
0010
0000
,
0001
0010
1100
0010
,
0001
0000
0011
0100
,
1000
0100
1001
0010
,
0100
1000
0001
0000
,
1000
1010
1000
1010
,
0001
0011
0001
0011
,
0100
0110
0100
0110
,
0010
1010
0010
1010
,
1000
1100
1000
1100
,
0001
0101
0100
0101
,
1000
1010
1000
1010
,
0001
0011
0010
0011
,
0010
0110
0100
0110
,
1000
1001
1000
1001
,
0100
0110
0100
0110
,
0001
0011
0001
0011
,
0100
0110
0010
1010
,
1000
1100
0100
0110
,
0010
0001
0000
0001
,
0000
1000
0000
1000
,
0001
1001
1000
1010
,
1000
1100
1000
1010
,
0001
0011
0001
0101
,
0001
1001
0001
0011
,
0100
0110
0100
1100
,
0100
0110
0100
0101
,
0010
0011
0010
0110
,
0010
1010
0010
0110
,
0001
1001
1000
1001
,
0001
1001
1000
1001
,
0010
0110
0100
0110
,
0010
0110
0100
0110
,
1000
1100
0001
0011
,
1000
1100
0001
0011
,
0100
0110
0001
1001
,
0100
0110
0001
1001
,
1000
0000
1010
0000
,
1000
0100
0011
0001
,
1000
0000
1001
0000
,
0001
0010
1100
1000
,
0001
0000
1001
0000
,
1000
0010
0101
0001
,
0010
0000
0011
0000
,
0001
0010
1100
1000
,
0010
0000
0110
0000
,
1000
0100
0011
0001
,
0100
0000
0110
0000
,
0001
0010
1100
1000
,
0010
0000
0101
0000
,
1000
0010
0110
0100
,
0011
1010
1010
0000
,
0100
0000
0001
0000
0011
0000
0100
0001
,
1000
0010
0001
0010
,
1000
0010
0001
0010
,
1000
0100
0001
0100
,
1000
0100
0001
0100
,
0010
0001
0100
1000
,
0100
0001
0010
1000
,
0010
0001
1000
0010
,
0001
0010
1000
0100
,
0010
0001
0010
1000
,
0010
0100
0010
0001
,
0100
0010
0100
1000
,
0100
0010
0100
0001
,
0010
0100
0001
0100
,
1000
0010
0001
0010
,
1000
0100
0001
0100
,
1000
0000
0001
0000
1000
0000
0010
0100
,
0010
0000
0100
0010
,
0000
0010
0000
0100
,
0000
0100
0000
0001
,
0000
0001
0000
0010
,
0000
1000
0100
0010
,
0000
0001
0100
0010
,
0000
0010
0000
0100
,
0000
0100
0000
0010
,
0010
1000
0110
0001
,
1000
0000
0010
0000
0101
0000
0010
1000
,
0100
1000
0101
0010
,
1000
0000
0100
0000
0011
0000
0100
0001
,
1000
0010
0101
0010
,
0100
0000
0001
0000
1100
0000
0001
1000
,
0010
0100
1001
0010
,
0100
0000
0010
0000
1001
0000
0010
1000
,
0100
1100
1100
1100
,
1000
1001
1001
1001
,
0001
0011
0011
0011
,
0010
0110
0110
0110
,
1000
1100
1100
1100
,
0001
0011
0011
0011
,
0100
0110
0110
0110
,
0001
1001
1001
1001
,
0100
1010
1100
1010
,
1000
0110
0101
0110
,
0001
0011
1001
0011
,
1000
1010
1001
1010
,
0100
0110
1100
0110
,
0001
0101
0110
0101
,
0010
1000
1000
1000
,
0000
0001
0001
0001
,
1000
1010
1010
1010
,
0001
0101
0101
0101
,
0010
0110
0110
0110
,
1000
1001
1001
1001
,
0010
1010
1010
1010
,
0100
0101
0101
0101
,
0001
0011
0011
0011
,
1000
1001
1001
1001
,
0010
1001
1010
1001
,
0010
0011
1001
0011
,
1000
1100
1001
1010
,
0100
0110
0101
0110
,
0001
0011
1001
0101
,
0010
1010
1100
1010
,
0100
0101
0110
0101
,
0010
1100
0011
1010
,
2002
0000
0000
0000
,
0000
0000
0000
0000
,
0000
0000
3003
0000
,
0000
0000
0000
0000
,
0001
0100
0010
0000
0100
0010
0000
0100
,
0010
0000
0100
0010
0000
0100
0010
0000
,
0000
1000
0100
0000
0010
0001
0000
1000
,
0100
0000
0010
0001
0000
0100
0001
1000
,
0001
0000
0000
0000
;

//---------------dance-single - ----------------
#NOTEDATA:;
#CHARTNAME:;
#STEPSTYPE:dance-single;
#DESCRIPTION:;
#CHARTSTYLE:;
#DIFFICULTY:Hard;
#METER:15;
#RADARVALUES:0.765728,0.852428,1.763644,0.013833,0.000000,775.000000,520.000000,255.000000,2.000000,0.000000,0.000000,0.000000,0.000000,0.000000,0.765728,0.852428,1.763644,0.013833,0.000000,775.000000,520.000000,255.000000,2.000000,0.000000,0.000000,0.000000,0.000000,0.000000;
#CREDIT:;
#NOTES:
0000
0000
0000
0000
,
0000
0000
0000
0000
,
0000
0000
0000
0000
,
0000
0000
0000
0000
,
0000
0000
0000
0000
,
0000
0000
0000
0000
,
0000
0000
0000
0000
,
0000
0000
0000
0000
,
0000
0000
0000
0000
,
1000
0010
1000
0000
0100
0000
1000
0000
,
0010
1000
0100
1000
,
0010
1000
0100
0000
1000
0000
0010
0000
,
1000
0010
1000
0100
,
0010
0001
0100
0000
0001
0000
0010
0000
,
0001
0100
0001
0010
,
0001
0100
0001
0000
0010
0000
0001
0000
,
0010
0001
0100
0001
,
1000
0010
1010
1000
,
0100
1000
1010
1000
,
0001
0010
0011
0001
,
0100
0001
0011
0010
,
0100
1000
1010
0001
,
0100
0010
1100
0010
,
0001
1000
0011
0100
,
1000
0000
0001
0000
0110
0000
0100
0010
,
1000
1100
1100
1100
,
1000
1001
1001
1001
,
0001
0011
0011
0011
,
0010
0110
0110
0110
,
1000
1100
1100
1100
,
0001
0011
0011
0011
,
0100
0110
0110
0110
,
0001
1001
1001
1001
,
0100
1010
1100
1010
,
1000
0110
0101
0110
,
0001
0011
1001
0011
,
1000
1010
1001
1010
,
0100
0110
1100
0110
,
0001
0101
0110
0101
,
0010
1000
0000
1000
,
0000
0001
0000
0001
,
1000
1010
1010
1010
,
0001
0101
0101
0101
,
0010
0110
0110
0110
,
1000
1001
1001
1001
,
0010
1010
1010
1010
,
0100
0101
0101
0101
,
0001
0011
0011
0011
,
1000
1001
1001
1001
,
0010
1001
1010
1001
,
0010
0011
1001
0011
,
1000
1100
1001
1010
,
0100
0110
0101
0110
,
0001
0011
1001
0101
,
0010
1010
1100
1010
,
0100
0101
0110
0101
,
0010
1100
0011
1010
,
1000
0000
1010
0000
,
1000
1000
1010
0101
,
1010
0000
1001
0000
,
0101
0100
0110
1001
,
0110
0000
1001
0000
,
1100
0100
0110
0011
,
1001
0000
0101
0000
,
0110
0100
1010
1010
,
0011
0000
0101
0000
,
1000
1000
1100
0011
,
1100
0000
1001
0000
,
1000
1000
1010
0011
,
1010
0000
0110
0000
,
0001
0001
0101
1010
,
0101
0101
1001
0000
,
0001
0000
0000
0000
1100
0000
0001
1000
,
0001
0100
0110
0001
,
0010
0100
1001
0010
,
0100
0010
1100
0010
,
0001
0000
0010
0000
1100
0000
0001
0100
,
1000
0010
1001
0100
,
0010
0100
1001
0010
,
0100
0010
1100
0010
,
0100
0000
0010
0000
0011
0000
0100
1000
,
0010
0100
0011
0100
,
1000
0001
1010
0100
,
0001
0100
0011
0100
,
1000
0000
0010
0000
1010
0000
1000
0100
,
0010
0001
0011
0100
,
1000
0010
0101
0010
,
1000
0100
0011
0100
,
1000
0000
0010
0000
0101
0000
0010
1000
,
0100
0010
0000
0010
,
0000
0001
0000
0001
,
0000
0100
0000
0100
,
0000
1000
0000
1000
,
0010
0001
0000
0001
,
0100
1000
0000
1000
,
0100
0001
0000
0001
,
0010
1000
0100
0100
,
0010
0100
0110
0001
,
0010
0000
0001
0000
0011
0000
0100
0100
,
1000
0100
1100
1000
,
0010
0000
1000
0000
1010
0000
0001
0001
,
0010
0001
0101
0100
,
0010
0000
0100
0000
0110
0000
0010
0010
,
1000
0100
0011
0100
,
1000
0000
0001
0000
1010
0000
0100
0001
,
1000
0110
1001
0110
,
1000
0110
1001
0110
,
0001
1010
0101
1010
,
0100
1010
0101
1010
,
0100
0011
0110
1010
,
0001
0110
0101
1100
,
0010
1100
0110
0101
,
1000
0110
1100
0101
,
0010
1100
1010
1001
,
0010
0011
0101
1001
,
0100
1010
1001
0110
,
0100
1100
1010
0101
,
0010
0011
1100
0101
,
0010
1100
0011
1100
,
0010
1000
1000
1000
,
0000
0001
0001
0001
,
0100
0110
0110
0110
,
0101
1010
0101
1010
,
0100
1100
1100
1100
,
0011
1100
0011
1100
,
0001
0011
0011
0011
,
1010
1100
0101
0011
,
0010
0110
0110
0110
,
1100
1001
0110
1100
,
0010
0011
1100
1100
,
0110
0101
0110
1001
,
0010
1100
0011
0011
,
1100
0101
0011
1100
,
0001
1010
1100
1100
,
1010
0101
0011
1100
,
0001
0011
1100
0110
,
0101
1100
0011
1010
,
2002
0000
0000
0000
,
0000
0000
0000
0000
,
0000
0000
3003
0000
,
0000
0000
0000
0000
,
0001
1000
0100
0000
0001
0100
0000
1000
,
0100
0000
0001
0100
0000
1000
0100
0000
,
0000
1000
0010
0000
0001
0010
0000
0100
,
1000
0000
0100
0001
0000
0010
0001
1000
,
0100
0000
0000
0000
;

//---------------dance-single - ----------------
#NOTEDATA:;
#CHARTNAME:;
#STEPSTYPE:dance-single;
#DESCRIPTION:;
#CHARTSTYLE:;
#DIFFICULTY:Challenge;
#METER:18;
#RADARVALUES:1.044354,1.203428,1.708314,0.013833,0.020749,1057.000000,810.000000,247.000000,2.000000,0.000000,0.000000,0.000000,0.000000,0.000000,1.044354,1.203428,1.708314,0.013833,0.020749,1057.000000,810.000000,247.000000,2.000000,0.000000,0.000000,0.000000,0.000000,0.000000;
#CREDIT:;
#NOTES:
// measure 0
0000
0000
0000
0000
,  // measure 1
1000
0100
0001
0000
1000
0100
0000
0010
,  // measure 2
0001
0000
1000
0010
0000
0100
0001
0000
,  // measure 3
0000
0001
0010
0000
0010
0100
0000
0100
,  // measure 4
1000
0000
0010
0100
0000
0001
0100
0010
,  // measure 5
1000
0100
0001
0000
1000
0100
0000
0010
,  // measure 6
0001
0000
1000
0010
0000
0100
0001
0000
,  // measure 7
0000
1000
0010
0000
0010
0100
0000
0100
,  // measure 8
0001
0000
0001
0010
0000
0100
1000
0010
,  // measure 9
0100
0001
0100
0000
0001
0010
0001
0100
,  // measure 10
0001
0010
0100
1000
0100
0010
0001
0100
,  // measure 11
0010
1000
0100
0010
0100
0001
0100
1000
,  // measure 12
0010
0100
0010
0001
0010
0100
0010
1000
,  // measure 13
0100
0010
0001
0010
0100
1000
0010
0100
,  // measure 14
0001
0010
0001
0100
0010
1000
0100
0010
,  // measure 15
0001
1000
0100
1000
0010
0100
1000
0100
,  // measure 16
0010
0100
0001
0010
1000
0010
0100
0010
,  // measure 17
0001
0100
0010
1000
1010
0000
0100
0000
,  // measure 18
0010
0000
0001
0000
0011
0000
0100
1000
,  // measure 19
1010
0001
1001
0010
,  // measure 20
0100
0000
1000
0000
0110
0000
0001
1000
,  // measure 21
1010
0100
0011
0100
,  // measure 22
1000
0000
0010
0000
0101
0000
1000
0100
,  // measure 23
0101
0010
1100
0010
,  // measure 24
0001
0000
0000
0000
0010
0000
0000
0000
1100
0000
0000
0000
0001
1000
0001
1000
,  // measure 25
0001
1000
0101
0000
1010
0000
0101
0000
,  // measure 26
0001
0010
0110
0000
1100
0000
0110
0000
,  // measure 27
0010
0001
0101
0000
1010
0000
0101
0000
,  // measure 28
1000
0010
0110
0000
1001
0000
0110
0000
,  // measure 29
0001
1000
1010
0000
0110
0000
0011
0000
,  // measure 30
1000
0100
0101
0000
0110
0000
1100
0000
,  // measure 31
1000
0001
1001
0000
0011
0000
1001
0000
,  // measure 32
0001
1000
1001
0000
1010
0000
1001
0000
,  // measure 33
0001
0100
0110
0000
1100
0000
0011
0000
,  // measure 34
0100
0010
0110
0000
0101
0000
1010
0000
,  // measure 35
0100
0001
0011
0000
0110
0000
1100
0000
,  // measure 36
1000
0010
1010
0000
0110
0000
0101
0000
,  // measure 37
1000
0100
0101
0000
1010
0000
1100
0000
,  // measure 38
0001
0100
1100
0000
0011
0000
0101
0000
,  // measure 39
1000
1010
0000
1010
,  // measure 40
0000
0011
0000
0011
,  // measure 41
0001
1000
1001
0000
1001
0000
0110
0000
,  // measure 42
1001
1100
0101
0011
,  // measure 43
1000
0100
1100
0000
1100
0000
0011
0000
,  // measure 44
1100
0110
0011
1100
,  // measure 45
0001
0010
0110
0000
0110
0000
1001
0000
,  // measure 46
0110
1100
0011
1001
,  // measure 47
1000
0010
1010
0000
1010
0000
0101
0000
,  // measure 48
1010
0110
0011
1001
,  // measure 49
1000
0010
0011
0000
0011
0000
1100
0000
,  // measure 50
0011
1001
1100
0101
,  // measure 51
0001
0100
1100
0000
1100
0000
0011
0000
,  // measure 52
1100
1001
0011
1010
,  // measure 53
1000
0100
0011
0000
1010
0000
1100
0000
,  // measure 54
0101
0011
1001
1100
,  // measure 55
0001
0010
1100
0000
0101
0000
0011
0000
,  // measure 56
1010
1100
0011
1001
,  // measure 57
1100
1000
0010
0100
0001
0100
0010
1000
,  // measure 58
0100
0010
0100
0010
0001
0010
0100
1000
,  // measure 59
0010
0100
0001
0100
0010
1000
0100
0010
,  // measure 60
0001
0100
0010
1000
0100
0010
0100
0010
,  // measure 61
0001
0100
0010
1000
0001
0010
0100
0010
,  // measure 62
0001
1000
0010
0100
0001
0010
0001
0010
,  // measure 63
0100
1000
0001
0100
1000
0100
0010
0100
,  // measure 64
0001
0010
0100
0010
1000
0010
0001
1000
,  // measure 65
0100
0010
0100
1000
0001
0010
0001
1000
,  // measure 66
0100
0010
0100
1000
0100
0010
0001
1000
,  // measure 67
0010
0100
0001
1000
0010
0100
0010
1000
,  // measure 68
0010
0100
0001
0100
0010
0100
0010
1000
,  // measure 69
0100
0010
0001
1000
0100
1000
0010
0100
,  // measure 70
0001
0010
0100
1000
0001
0100
0010
1000
,  // measure 71
1010
0000
0101
0000
1010
0010
1000
0010
,  // measure 72
0001
0000
0010
0000
1000
0000
0010
0000
0100
0000
0001
0000
0010
0001
0010
0001
,  // measure 73
0010
0001
0010
0001
0011
0010
0100
0010
,  // measure 74
0100
0010
0100
0010
0110
0100
1000
0100
,  // measure 75
1000
0100
1000
0100
1100
1000
0010
1000
,  // measure 76
0010
1000
0010
1000
1010
0010
1000
0010
,  // measure 77
0100
0001
0010
0001
0011
0010
0100
0010
,  // measure 78
0100
0010
0100
0010
0110
0100
1000
0100
,  // measure 79
1000
0100
1000
0100
1100
1000
0010
1000
,  // measure 80
0010
1000
0010
1000
1010
0100
0001
0010
,  // measure 81
0100
1000
0010
0100
0101
0001
1000
0010
,  // measure 82
1000
0001
0010
0100
0110
0010
0001
1000
,  // measure 83
0010
1000
0100
0010
0011
0001
1000
0100
,  // measure 84
1000
0010
1000
0001
0101
0100
0010
0010
,  // measure 85
1000
0001
0100
0010
1010
1000
0100
0010
,  // measure 86
0001
1000
0010
0100
0101
0001
0010
0100
,  // measure 87
1000
0001
1000
0100
0110
0010
0001
1000
,  // measure 88
0010
0100
0010
1000
1001
0001
0100
0010
,  // measure 89
1000
0100
0000
0100
,  // measure 90
0000
0001
0000
0001
,  // measure 91
0000
0010
0000
0010
,  // measure 92
0000
1000
0000
1000
,  // measure 93
0100
0001
0000
0001
,  // measure 94
0010
1000
0000
1000
,  // measure 95
0100
0001
0000
0001
,  // measure 96
0010
1000
0100
0100
,  // measure 97
0010
0010
0110
1000
,  // measure 98
0001
0000
0001
0000
0101
0000
1000
1000
,  // measure 99
1000
0010
0110
0100
,  // measure 100
0001
0000
0001
0000
0011
0000
0100
0100
,  // measure 101
0100
1000
1010
0010
,  // measure 102
0100
0000
0100
0000
0101
0000
0010
0010
,  // measure 103
0010
1000
1010
0000
,  // measure 104
0100
0000
0000
0000
0000
0000
0000
0000
0101
0000
0000
0000
1000
0001
1000
0001
,  // measure 105
1000
0010
1010
0100
0110
0001
1001
0000
,  // measure 106
0001
0100
0101
0010
0110
1000
1001
0000
,  // measure 107
0100
0010
1010
0100
0101
0010
0110
0000
,  // measure 108
0010
0100
0101
0010
1010
0100
0110
0000
,  // measure 109
1000
0100
1100
0001
0101
1000
1001
0000
,  // measure 110
0001
0010
0011
1000
1010
0001
1001
0000
,  // measure 111
0100
0010
1010
0100
0110
0001
0101
0000
,  // measure 112
0010
0100
0101
0010
0110
1000
1010
0000
,  // measure 113
0100
0001
1001
0100
0110
0010
1010
0000
,  // measure 114
0010
1000
1001
0010
0110
0100
0101
0000
,  // measure 115
0001
0010
0011
1000
1010
0010
0110
0000
,  // measure 116
1000
0100
1100
0001
0101
0100
0110
0000
,  // measure 117
1000
0001
1001
0100
0101
0001
0101
0000
,  // measure 118
0001
1000
1001
0010
1010
1000
1010
0000
,  // measure 119
0010
1000
1000
1000
,  // measure 120
0000
0001
0001
0001
,  // measure 121
1000
0010
1010
0000
1010
0000
1010
0000
,  // measure 122
0101
0000
0011
0000
1001
0000
1100
0100
,  // measure 123
0110
0110
0110
0011
,  // measure 124
1001
0000
1010
0000
0110
0000
0101
0001
,  // measure 125
0011
0011
0011
1100
,  // measure 126
0110
0000
0101
0000
1010
0000
1001
1000
,  // measure 127
1100
1100
1100
0011
,  // measure 128
1001
0000
1010
0000
0110
0000
0101
0001
,  // measure 129
1001
1001
0110
0110
,  // measure 130
1010
0000
0101
0000
0011
0000
1001
1000
,  // measure 131
1100
1100
0011
0011
,  // measure 132
1010
0000
1100
0000
0101
0000
0011
0001
,  // measure 133
1001
1001
0110
0110
,  // measure 134
1010
0000
0101
0000
0011
0000
1100
0100
,  // measure 135
0110
0110
1001
1001
,  // measure 136
0011
0000
1100
0000
1010
0000
0101
0100
,  // measure 137
2002
0000
0000
0000
,  // measure 138
0000
0000
0000
0000
,  // measure 139
0000
0000
3003
0000
,  // measure 140
0000
0000
0000
0000
,  // measure 141
1000
0100
0001
0000
1000
0100
0000
0010
,  // measure 142
0001
0000
1000
0010
0000
0100
0001
0000
,  // measure 143
0000
0001
0010
0000
0010
0100
0000
0100
,  // measure 144
1000
0000
0010
0100
0000
0001
0100
0010
,  // measure 145
1000
0000
0000
0000
;
