#TITLE:青春狂騒曲;
#SUBTITLE:|Youth Frenzy|;
#ARTIST:サンボマスター;
#TITLETRANSLIT:Seishun Kyosokyoku;
#SUBTITLETRANSLIT:;
#ARTISTTRANSLIT:Sambomaster;
#GENRE:Anime;
#CREDIT:Blood4Fame;
#MUSIC:Seishun Kyosokyoku.mp3;
#BANNER:Banner.png;
#BACKGROUND:BG.png;
#CDTITLE:;
#SAMPLESTART:8.414;
#SAMPLELENGTH:21.585;
#SELECTABLE:YES;
#OFFSET:0.435;
#BPMS:0.000=132.213
,32.000=141.128
,36.000=135.000
,60.000=135.402
,92.000=137.215
,100.000=134.958
,124.000=135.958
,128.000=141.096
,132.000=136.235
,148.000=135.415
;
#STOPS:;
#BGCHANGES:;
#FGCHANGES:;
//--------------- dance-single - Blood4Fame ----------------
#NOTES:
     dance-single:
     Blood4Fame:
     Beginner:
     2:
     0,0,0,0,0:
0000
0000
0000
0000
,
0000
0000
1001
0000
1001
0000
0000
0020
,
0000
0000
0000
0030
1000
0000
0010
0000
,
0000
0000
1001
0000
1001
0000
0000
0020
,
0000
0030
1000
0000
,
0022
0033
0010
0000
,
1000
0000
0010
0000
,
1000
0000
1000
0000
0000
0000
0000
0002
,
0003
0000
0100
0100
,
0100
0000
0010
0000
,
0001
0001
0001
0000
,
0020
0030
1000
1000
,
0000
0000
0100
0000
0100
0000
0000
0011
,
0000
0011
0000
0011
0000
0000
0000
0000
,
0010
0010
0000
0010
,
0020
0000
0000
0030
0000
0000
1000
0000
,
0000
1000
1000
1000
,
0000
0011
0000
1000
,
0000
0010
0000
0100
,
0000
0001
0001
0001
,
0000
0010
0000
1000
,
1000
0000
2000
0000
0000
3000
0000
0000
,
0100
0000
0100
0000
,
0020
0030
0010
0000
0000
0000
0010
0000
,
0000
0100
0100
0000
,
0110
0000
0000
0110
0000
0000
0220
0000
,
0330
0000
0100
0000
,
1001
0000
0000
1001
0000
0000
1001
0000
,
0000
1000
2000
3000
,
0011
0000
0000
0011
0000
0000
0011
0000
,
0000
1000
0000
0020
,
0000
0030
0000
0000
0001
0000
0000
0000
,
0100
0000
1000
0000
,
0000
0001
0000
0001
0000
0001
0000
0001
,
0000
0001
0000
0001
0000
0001
0000
0000
,
0000
0010
0000
0010
0000
0010
0000
0010
,
0000
0010
0000
0010
0000
0010
0000
0000
,
0000
0000
0220
0000
0000
0000
0000
0330
,
0000
0100
0100
0200
,
0000
0000
0300
0000
0000
1000
0000
1000
,
0000
1000
0000
0000
0000
0100
0000
0000
,
0000
1000
0000
1000
0000
1000
0000
1000
,
0000
1000
0000
1000
0000
1000
0000
0000
,
0000
0100
0000
0100
0000
0100
0000
0100
,
0000
0100
0000
0100
0000
0100
0000
0000
,
0000
0002
0000
0000
0000
0000
0000
0003
,
0000
0001
0000
0000
0000
0100
0000
0000
,
0000
0220
0000
0330
0000
0000
0000
0020
,
0000
0030
0000
2000
0000
3000
0000
0022
,
0000
0000
0000
0000
0000
0033
0000
0000
;
//--------------- dance-single - Blood4Fame ----------------
#NOTES:
     dance-single:
     Blood4Fame:
     Easy:
     4:
     0,0,0,0,0:
0000
0000
0000
0000
,
1001
0000
1001
0000
1001
0000
0100
0020
,
0000
0000
0000
0030
1000
0000
0010
0000
,
1001
0000
1001
0000
1001
0000
0100
0020
,
0000
0030
1000
0010
,
0022
0033
0010
1000
,
1000
0000
0200
0000
0010
0300
0001
0000
,
1000
0000
1000
0000
0100
0000
0001
0002
,
0003
0000
0100
0100
,
0010
0000
0001
0001
,
1000
0001
0010
0100
,
0020
0030
1100
1100
,
0001
0000
1000
0000
1000
0000
0000
0011
,
0000
0000
0022
0033
0000
0000
0022
0000
0000
0000
0033
0000
0000
0000
0000
0000
,
0010
0010
0001
0010
,
0020
0000
0000
0030
1000
0000
0010
0000
,
0000
1000
1000
0020
,
0030
0011
1000
1000
,
0001
0000
0020
0030
1000
0000
0100
0000
,
0002
0003
0001
0001
,
0010
0010
0001
1000
,
1000
0000
0200
0000
0000
0300
0000
0000
,
0100
0000
0100
0010
,
0020
0030
0010
0000
0100
0000
0010
0000
,
0000
0010
0220
0330
,
0110
0000
0000
0110
0000
0000
0202
0000
,
0000
0303
0100
0100
,
0011
0000
0000
0011
0000
0000
1001
0000
,
0020
0000
1000
0030
0100
0000
0200
0300
,
0011
0000
0000
0110
0000
0000
0110
0000
,
1000
0000
0000
0000
0000
0000
0000
0000
0010
0000
0000
0000
0000
0000
0100
0000
0000
0000
0000
0000
0000
0020
0000
0000
,
0000
0000
0000
0030
0000
0000
0000
0000
0001
0000
0000
0000
0000
0000
0001
0000
0000
0000
0000
0000
0100
0000
0000
0000
,
0000
0100
0000
0000
1000
0000
0000
1000
0000
0000
0010
0000
,
0000
0002
0000
0203
0000
0301
0000
0020
,
0000
0030
0000
0001
0000
0001
0000
0001
,
0000
0020
0000
1000
0000
1030
0000
0020
,
0000
0000
0030
0010
0000
0010
0000
0200
,
0000
0300
0020
0000
0000
0000
0000
0030
,
0000
0001
0000
0100
0000
0001
0000
0020
,
0000
0230
0000
0000
0300
1000
0000
1000
,
0000
1010
0000
0001
0000
0100
0000
0100
,
0000
0002
0000
0023
0030
2000
3000
0002
,
0000
0003
0000
1000
0000
0001
0000
1000
,
0000
0100
0000
0020
0030
0001
0000
0020
,
0000
0030
0000
0010
0000
0010
0000
0200
,
0000
0302
0000
0000
0000
0000
0000
0003
,
0000
0001
0000
0010
0000
0100
0000
0010
,
0000
0220
0000
0330
0000
1000
0000
0020
,
0000
0032
0000
2003
0000
3100
0000
0022
,
0000
0000
0000
0000
0000
0033
0000
0000
;
//--------------- dance-single - Blood4Fame ----------------
#NOTES:
     dance-single:
     Blood4Fame:
     Medium:
     7:
     0,0,0,0,0:
0000
0000
0000
0000
,
2001
0000
0000
0000
3001
0000
0000
1000
0001
0000
0001
0000
0100
0000
0120
0000
,
0000
0100
0130
0000
1000
0100
0010
0010
,
2001
0000
0000
0000
3001
0000
0000
1000
0001
0000
0001
0000
0100
0000
0120
0000
,
0000
0100
0130
0000
1000
0100
0010
0010
,
0021
0000
0031
0000
0010
0100
1000
1000
,
0000
1000
0200
0000
0010
0310
0001
0100
,
1200
0000
1300
0000
0100
0010
0001
0002
,
0003
0000
0000
1000
0100
0010
0100
0022
,
0033
0000
0011
0000
0001
0010
0001
0000
,
1000
1000
0001
0001
0010
0100
0100
0020
,
0000
0030
0001
0000
1100
0000
1100
0000
,
0001
0001
1000
1000
1000
0100
0100
0011
,
0000
0000
0022
0033
0000
0000
0022
0000
0000
0000
0033
0000
0000
0000
0000
0000
,
0010
0010
0010
1000
0001
1000
0010
0100
,
0020
0000
0000
0030
1000
0100
0010
1000
,
0000
0010
1000
0100
1000
0100
0010
0020
,
0000
0030
0011
0000
1000
1000
1000
0000
,
0001
0001
0020
0030
1000
1000
0100
0010
,
0001
0020
0000
0000
0030
0000
0000
0000
0001
0000
0001
0000
0001
0000
1000
0000
,
0010
0010
0010
0100
0001
0010
1000
0001
,
1000
0100
0100
0020
0000
0030
0000
0100
,
0100
0100
0000
0010
0100
0001
0010
0100
,
0020
0030
0010
0001
0100
0100
0010
1000
,
0000
1000
0010
0000
0220
0000
0330
0000
,
0110
0000
0000
0110
0000
0000
0202
0000
,
0000
0000
0303
1000
0100
1000
0100
0000
,
0011
0000
0000
0011
0000
0000
1001
0000
,
0020
0000
1000
1030
0100
1000
0200
0300
,
0011
0000
0000
0110
0000
0000
0110
0000
,
1000
0000
0000
0010
0000
0000
0000
0000
0010
0000
0000
0001
0000
0000
0100
0000
0000
1000
0000
0000
0000
0020
0000
0000
,
0000
0000
0000
0030
0000
0000
0000
0000
0001
0000
0000
0010
0000
0000
0001
0000
0000
1000
0000
0000
0100
0000
0000
0000
,
0000
0000
0100
0000
0000
0000
0000
0000
1000
0000
0000
0100
0000
0000
1000
0000
0000
0100
0000
0000
0010
0000
0000
0000
,
0001
0002
0000
0203
0000
0301
0100
0020
,
0000
0030
0000
0001
1000
0001
0100
0001
,
0100
0020
0000
1000
0000
1030
0100
0020
,
0000
0000
0030
0010
0001
0010
0100
0200
,
0000
0301
0020
0000
0000
0000
0000
0030
,
0000
0001
1000
0100
0010
0001
0010
0020
,
0000
0230
0000
0000
0300
1000
0100
1000
,
0000
1010
0000
0001
0010
0100
1000
0100
,
0010
0002
0000
0023
0030
2000
3000
0002
,
0000
0003
0000
1000
0100
0001
0100
1000
,
0010
0100
0000
0020
0030
0001
0001
0020
,
0000
0030
0000
0010
0001
0010
1000
0200
,
0000
0302
0200
0000
0000
0000
0000
0303
,
0000
0001
1000
0010
1000
0100
0100
0010
,
0000
0220
0000
0330
0000
1000
0002
0023
,
0000
0032
0000
2003
0000
3100
0000
0022
,
0000
0000
0000
0000
0000
0000
0000
0000
0000
0000
0033
0000
0000
0020
0030
0020
,
0030
0000
0000
0000
;
//--------------- dance-single - Blood4Fame ----------------
#NOTES:
     dance-single:
     Blood4Fame:
     Hard:
     8:
     0,0,0,0,0:
0000
0000
0000
0000
0000
0000
0000
0001
1000
0100
0010
0001
0000
0000
0000
0000
,
1001
0000
0000
0000
1001
0000
0000
1000
0001
0000
0001
0000
0100
0000
0110
0000
,
0000
0000
0110
0000
0110
0000
0000
0000
1000
0000
0100
0000
0010
1000
0010
0000
,
1001
0000
0000
0000
1001
0000
0000
1000
0001
0000
0001
0000
0100
0000
0110
0000
,
0000
0000
0110
0000
0110
0000
0000
0000
1000
0000
0100
0000
0010
1000
0010
0000
,
0011
0000
0011
0000
0010
0100
1000
1000
,
0000
0000
1000
0000
0100
0000
0000
0000
0010
0001
0010
0000
0001
0010
0100
0000
,
1100
0000
1100
0000
0100
0010
0001
0202
,
0303
0000
0000
1000
0100
0010
0100
0022
,
0033
0000
0011
0000
0001
0010
0001
0000
,
1000
1000
0001
0001
0010
0100
0100
0020
,
0000
0030
0001
0000
1100
0000
1100
0000
,
0001
0001
1000
1000
1000
0100
0100
0011
,
0000
0000
0022
0033
0000
0000
0022
0000
0000
0000
0033
0000
0000
0000
1000
0000
,
0010
0010
0010
1000
0001
1000
0010
0100
,
2020
0000
0000
3030
1010
0101
0011
1100
,
0000
0000
0010
0100
1000
0000
0100
0000
1000
0000
0100
0000
0010
0000
0022
0000
,
0000
0033
0011
0000
1010
1010
1010
0000
,
0001
0001
0020
0030
1000
1000
0100
0010
,
0001
0020
0000
0000
0030
0000
0000
0000
0011
0000
0011
0000
0011
0000
1000
0000
,
0010
0010
0010
0100
0001
0010
1000
0001
,
1000
0100
0100
0022
0000
0033
0000
1100
,
1100
1100
0000
0010
0100
0001
0010
0100
,
0020
0030
0010
0001
0100
0100
0010
1000
,
0000
1000
0010
0000
0010
0100
0010
0000
,
0110
0000
0000
0110
0000
0100
0101
0202
,
0300
0200
0303
1000
0100
1000
0100
0001
,
0011
0020
0000
0001
0030
0000
1001
0100
,
0020
0000
1000
1030
0100
1000
0200
0300
,
0011
0220
0330
0110
0000
0000
0110
0000
,
1000
0000
0000
0010
0000
0000
0000
0000
0010
0000
0000
0001
0000
0000
0110
0000
0000
1100
0000
0000
0000
2020
0000
0000
,
0000
0000
3000
0030
1010
0000
0000
0000
0001
0000
0000
0010
0000
0000
0001
0000
0000
1000
0000
0000
0100
0000
0000
0000
,
0000
0000
0100
0000
0000
0000
0000
0000
1000
0000
0000
0100
0000
0000
1000
0000
0000
0100
0000
0000
0010
0000
0000
0000
,
0001
0102
0000
0203
0000
0301
0100
0022
,
0000
0033
0000
0001
1000
0001
0100
0001
,
0110
0120
0000
0001
0000
1030
0100
0020
,
0000
0000
0030
0010
0001
0010
0100
0200
,
0000
0301
2020
0000
0000
0000
0000
3030
,
0000
0001
1000
0110
0110
0011
0011
0020
,
0000
0230
0000
0000
0300
1100
0110
1100
,
0000
1010
0000
0001
0010
0100
1000
0100
,
0010
0002
0000
0023
0030
2200
3300
0022
,
0000
0033
0000
2001
0100
3001
0100
1001
,
0110
0110
0000
0022
0033
0011
0001
0220
,
0000
0330
0000
0010
0001
0010
1000
0200
,
0000
0302
0200
0000
0000
0000
0000
0303
,
0000
0001
1000
0010
1000
0100
0100
0011
,
0000
0220
0000
0330
1000
1000
0002
0023
,
0000
0032
0000
2003
0000
3100
0000
0022
,
0000
0000
0000
0000
0000
0000
0000
0000
0000
0000
0033
0000
0000
0020
0030
0020
,
0030
0000
0000
0000
;
//--------------- dance-single - Blood4Fame ----------------
#NOTES:
     dance-single:
     Blood4Fame:
     Challenge:
     9:
     0.524,0.579,0.333,0.2,0.667:
0000
0000
0000
0000
0000
0000
0000
0001
1000
0100
0010
0001
0000
0000
0000
0000
,
1001
0000
0000
0000
1001
0000
0000
1000
0001
0000
0001
0000
0100
0000
0110
0000
,
0000
0000
0110
0000
0110
0000
0000
0010
1000
0010
0100
0000
0010
1000
0010
0000
,
1001
0000
0000
0000
1001
0000
0000
1000
0001
0000
0001
0000
0100
0000
0110
0000
,
0000
0000
0110
0000
0110
0000
0000
0010
1000
0010
0100
0000
0010
1000
0010
0000
,
1000
0010
0000
0000
0000
0000
1000
0010
0000
0000
0000
0000
0010
0000
0000
0100
0000
0000
0001
0000
0000
0001
0000
0000
,
0000
0000
0000
0000
0000
0000
1000
0000
0000
0000
0000
0000
0100
0000
0000
0000
0000
0000
0000
0000
0000
0000
0100
0000
0010
0000
0000
0001
0000
0000
0010
0000
0000
0000
0000
0000
0001
0000
0000
0010
0000
0000
0100
0000
0000
0000
0000
0000
,
1000
0100
0000
0000
0000
0000
1000
0100
0000
0000
0000
0000
0100
0000
0000
0010
0000
0000
0001
0000
0000
0200
0000
0000
,
0301
0010
0001
0000
0100
0000
1000
0000
0100
0000
0010
0000
0100
0000
2020
0000
,
3030
0000
0011
0000
0001
0010
0001
0000
,
1000
1000
0001
0001
0010
0100
0100
0020
,
0000
0000
0030
0000
0001
0000
0000
0000
1000
0100
0000
0000
1100
0000
0000
0000
,
0001
0001
1000
1000
1000
0100
0100
0011
,
0000
0000
0000
0001
0010
0000
0000
0000
0000
0022
0000
0000
0000
0000
0000
0033
0000
0000
0000
0000
0000
1000
0000
0000
,
1000
0100
0010
0100
1000
0000
1000
0000
0001
0000
1000
0000
0010
0000
0100
0000
,
2020
0000
0000
3030
1010
0101
0011
1100
,
0000
0000
0010
0100
1000
0000
0100
0000
1000
0000
0100
0000
0010
0000
0022
0000
,
0000
0000
0033
0001
0010
0000
0000
0000
1000
0010
1000
0010
1000
0000
0000
0000
,
0001
0001
0020
0030
0001
0100
0100
0010
,
1000
0020
0000
0000
0030
0000
0000
0000
0001
0010
0001
0010
0001
0000
1000
0000
,
0010
0010
0010
0100
0001
0010
0001
1000
,
1000
0000
0100
0000
0100
0000
0022
0000
0000
0000
0033
0000
0000
0000
1000
0100
,
1000
0100
1000
0000
0000
0000
0010
0000
0100
0000
0001
0000
0010
0000
0100
0000
,
0020
0000
0030
0100
0010
0000
0001
0000
0100
0000
0100
0000
0010
0000
1000
0000
,
0000
1000
0010
0000
0020
0230
0320
0030
,
0110
0000
0100
0110
0000
0100
0101
0202
,
0300
0200
0303
1000
0100
1000
0100
0001
,
0011
0020
0000
0001
0030
0000
1001
0100
,
0020
0000
1000
1030
0100
1000
0200
0300
,
0011
0220
0330
0110
0000
0000
0110
0000
,
1000
0000
0000
0100
0000
0000
0010
0000
0000
0000
0000
0000
0000
0000
0000
0000
0010
0000
0000
0000
0000
0000
0001
0000
0000
0000
0000
0000
0110
0000
0000
0000
0000
0000
0011
0000
0000
0000
0000
0000
0000
0000
2200
0000
0000
0000
0000
0000
,
0000
0000
3000
0300
1000
0010
0000
0000
1000
0000
0000
0010
0000
0000
1000
0000
0000
0001
0000
0000
0100
0000
0000
0000
,
0000
0000
0010
0000
0000
0000
0000
0000
1000
0000
0000
0100
0000
0000
1000
0000
0000
0100
0000
0000
0010
0000
0000
0000
,
0001
0101
0000
0101
0000
1001
0100
0021
,
0000
0031
0000
0001
1000
0001
0100
0001
,
0100
0110
0000
1010
0000
0110
0100
0010
,
0000
0010
0000
0010
1000
0010
0100
0200
,
0000
0301
2000
0010
0000
0001
0000
3010
,
0000
0001
1000
0110
0100
0010
0001
0020
,
0000
0000
0130
0000
0000
0000
0000
1000
0100
0000
1100
0000
0110
0000
1100
0000
,
0000
1010
0000
0001
0010
0100
1000
0100
,
0010
0001
0000
0011
0000
0101
0000
0021
,
0000
0031
0000
1001
0100
0011
0100
1001
,
0100
0110
0000
1010
0000
0101
0001
0210
,
0000
0310
0000
0010
1000
0001
0100
0200
,
0000
0301
0200
0010
0000
0001
0000
0310
,
0000
0001
1000
0010
1000
0100
0100
0011
,
0000
0000
0220
0000
0000
0000
0330
0000
1000
0100
1000
0000
0002
0000
0023
0000
,
0000
0032
0000
2003
0000
3100
0000
0022
,
0000
0000
0000
0000
0000
0000
0000
0000
0000
0000
0033
0000
0000
0020
0030
0020
,
0030
0000
0000
0000
;
