#TITLE:メギツネ;
#SUBTITLE:MEGITSUNE;
#ARTIST:BABYMETAL;
#TITLETRANSLIT:MEGITSUNE;
#SUBTITLETRANSLIT:;
#ARTISTTRANSLIT:;
#GENRE:Metal;
#CREDIT:Blood4Fame;
#MUSIC:MEGITSUNE.mp3;
#BANNER:Banner.png;
#BACKGROUND:BG.png;
#CDTITLE:;
#SAMPLESTART:71.951;
#SAMPLELENGTH:13.521;
#SELECTABLE:YES;
#OFFSET:0.725;
#BPMS:0.000=142.000
,76.000=284.000
,84.000=142.000
,88.000=284.000
,96.000=142.000
,100.000=284.000
,108.000=142.000
,112.000=284.000
,116.000=142.000
,180.000=568.000
,196.000=284.000
,324.000=142.000
,352.000=71.000
,354.250=345.739
,356.000=190.030
;
#STOPS:112.000=0.106
,112.500=0.106
,113.000=0.106
,113.500=0.053
,113.750=0.106
,114.250=0.106
,114.750=0.053
,115.000=0.211
,354.250=0.304
;
#DISPLAYBPM:71.000:284.000;
#BGCHANGES:1.725=MEGITSUNE.avi=1.000=1=0=1===CrossFade==,
99999.000=-nosongbg-=1.000=0=0=0=StretchNoLoop====
;
#FGCHANGES:;
//--------------- dance-single - Blood4Fame ----------------
#NOTES:
     dance-single:
     Blood4Fame:
     Beginner:
     3:
     0,0,0,0,0:
0000
0000
0000
0000
,
0100
0100
0100
0000
,
0001
0001
0001
0000
,
0100
0100
0100
0000
,
0001
0001
0001
0000
,
0100
0000
1001
0000
,
0010
0000
0110
0000
,
0001
0000
0010
0000
,
0001
0000
0010
0020
,
0030
0100
0000
1001
,
0000
0100
0000
1001
,
0000
0100
0000
1001
,
1000
1000
1000
2002
,
3003
0100
0000
1001
,
0000
0100
0000
1001
,
0000
0100
0000
1001
,
1000
1000
1000
2002
,
3003
0100
0000
0002
,
0003
0110
0000
0202
,
0000
0000
0000
0000
,
0000
0000
0000
0000
,
0303
0010
0010
0000
,
1100
0000
0000
0000
,
0011
0000
0000
0000
,
0000
0001
0001
0000
,
0202
0000
0000
0000
,
0000
0000
0000
0000
0000
0000
0000
0000
0000
0000
0000
0000
0000
0000
0000
0000
0000
0000
0000
0000
0000
0000
0000
0000
0000
0000
0000
0000
0000
0000
0000
0000
0000
0000
0000
0000
0000
0000
0000
0000
0000
0000
0000
0000
0000
0000
0000
0000
0000
0000
0000
0000
0000
0000
0000
0000
0000
0000
0000
0000
0000
0000
0000
0000
0000
0000
0000
0000
0000
0000
0000
0000
0000
0000
0000
0000
0000
0000
0000
0000
0000
0000
0000
0000
0000
0000
0000
0000
0000
0000
0000
0000
0000
0000
0000
0000
0000
0000
0000
0000
0000
0000
0000
0000
0000
0000
0000
0000
0000
0000
0000
0000
0000
0000
0000
0000
0000
0000
0000
0000
0000
0000
0000
0000
0000
0000
0000
0000
0000
0000
0000
0000
0000
0000
0000
0000
0000
0000
0000
0000
0000
0000
0000
0000
0000
0000
0000
0000
0000
0000
0000
0000
0000
0000
0000
0000
0000
0000
0000
0000
0000
0000
0000
0000
0000
0000
0000
0000
0000
0303
0000
0000
0000
0000
0000
0000
0000
0000
0000
0000
0000
0000
0000
0000
0000
0000
0000
0000
0000
0000
0000
0000
,
0000
0010
0000
0100
,
2000
0000
0000
3000
0000
0000
0010
0000
,
0000
0100
0000
1001
,
0000
0100
0000
1001
,
0000
0100
0000
1001
,
1000
1000
1000
2002
,
3003
0100
0000
1001
,
0000
0100
0000
1001
,
0000
0100
0000
1001
,
1000
1000
1000
0000
,
0002
0003
0200
0300
,
0001
0000
0100
0000
,
0010
0000
0202
0303
,
0010
0000
0020
0030
,
1000
0000
0010
0000
,
0001
0000
0100
0200
,
0300
0000
0100
0000
,
0002
0000
0000
0003
,
2000
0000
0000
0000
,
0000
0000
0000
0000
,
0000
0000
0000
0000
,
0000
0000
3000
0000
,
1000
0000
0000
0000
,
0010
0000
0000
0000
,
0010
0000
0000
0000
,
0010
0000
0000
0000
,
0010
0000
0000
0000
,
1000
0000
0000
0000
,
0010
0000
0000
0000
,
0010
0000
0000
0000
,
0001
0000
0000
0000
,
0010
0000
0000
0000
,
1000
0000
0000
0000
,
0010
0000
0000
0000
,
0010
0000
0000
0000
,
0001
0000
0000
0000
,
0010
0000
0000
0000
,
1000
0000
0000
0000
,
0001
0000
0000
0000
,
0100
0000
0000
0000
,
0100
0000
0000
0000
,
0100
0000
0000
0000
,
0100
0000
0000
0000
,
0001
0000
0000
0000
,
0100
0000
0000
0000
,
0100
0000
0000
0000
,
1000
0000
0000
0000
,
0100
0000
0000
0000
,
0001
0000
0000
0000
,
0100
0000
0000
0000
,
0100
0000
0000
0000
,
1000
0000
0000
0000
,
0100
0000
0000
0000
,
0001
0000
0000
0000
,
0200
0000
0300
0000
,
2200
0000
3300
0000
,
0220
0000
0330
0000
,
0001
0001
0000
0100
,
0100
0000
2000
3000
,
0000
2000
3000
0000
,
0001
0000
0001
0000
,
0220
0000
0000
0000
0000
0000
0000
0000
0000
0330
0000
0000
0000
0000
0000
0000
,
1100
0000
0000
0000
,
0110
0000
0000
0000
,
1100
0000
0000
0000
,
0110
0000
0000
0000
,
0100
0000
0010
0000
,
0001
0000
0100
0000
,
1000
0000
0001
0000
,
0010
0000
0000
0000
,
1100
0000
0000
0000
,
0110
0000
0000
0000
,
1000
0000
0100
0000
,
0100
0000
0000
0000
,
0100
0000
0010
0000
,
0001
0000
0100
0000
,
1000
0000
0001
0000
,
2020
0000
0000
0000
0000
3030
0000
0000
,
0010
0000
0100
0000
,
0001
0000
1000
0000
,
0010
0000
1000
0000
,
0200
0000
0000
0000
,
0000
0000
0000
0000
,
0000
0000
0000
0000
0000
0300
0000
0000
;
//--------------- dance-single - Blood4Fame ----------------
#NOTES:
     dance-single:
     Blood4Fame:
     Easy:
     4:
     0,0,0,0,0:
0000
0000
0000
0000
,
0100
0100
0100
0000
,
0001
0001
0010
0100
,
0100
0100
0100
0000
,
0001
0001
0010
0100
,
1100
0000
1001
0000
,
0011
0000
0110
0000
,
0011
0010
0010
0010
,
0011
0000
1000
0000
1000
0000
0020
0030
,
0010
0100
0010
1001
,
0010
0100
0010
1001
,
0010
0100
0001
1001
,
1010
0000
0010
0000
0010
0000
0020
0030
,
0010
0100
0010
1001
,
0010
0100
0010
1001
,
0010
0100
0001
1001
,
1010
0000
0010
0000
0010
0000
0020
0030
,
0010
0000
0100
0000
0001
0000
0002
0003
,
0000
0110
0000
0101
,
2000
3000
0002
0003
,
2000
3000
0002
0003
,
0000
0010
0000
1000
,
2000
3000
0200
0300
,
0020
0030
0002
0003
,
0000
0001
0000
1000
,
0202
0303
2020
3030
,
0202
0000
0000
0000
0303
0000
0000
0000
2020
0000
0000
0000
0000
3030
0000
0000
,
0000
0010
0000
0100
,
2000
0000
3000
0000
2000
0000
0000
0000
0000
0000
0000
3000
0010
0000
0000
0000
,
0010
0100
0010
1001
,
0010
0100
0010
1001
,
0010
0100
0001
0001
,
1010
0000
0010
0000
0010
0000
0020
0030
,
0010
0100
0010
1001
,
0010
0100
0010
1001
,
0010
0100
0001
0001
,
1010
0010
0010
0010
,
0002
0000
0013
0000
0200
0000
0000
0300
,
0001
0010
0200
0300
,
0010
0001
0202
0303
,
0010
0100
0020
0030
,
2000
3000
0020
0030
0020
0030
0000
0000
,
0001
0000
0010
0000
0100
0000
0000
0020
,
0000
0000
0000
0030
0000
0000
0000
0000
0100
0000
0000
0000
0001
0000
0000
0000
,
0002
0000
0000
0000
,
2003
0000
0000
0000
,
0000
0000
0000
0000
,
0000
0000
0000
0000
,
0000
0000
3000
0000
,
1000
0000
0100
0000
,
0010
0000
0001
0000
,
0010
0000
0100
0000
,
0010
0000
0001
0000
,
0010
0000
0100
0000
,
1000
0000
0100
0000
,
0010
0000
0001
0000
,
0010
0000
1000
0000
,
0001
0000
0100
0000
,
0010
0000
0100
0000
,
1000
0000
0001
0000
,
0010
0000
0100
0000
,
0010
0000
0100
0000
,
0001
0000
0001
0000
,
0010
0000
0010
0000
,
1000
0000
0100
0000
,
0001
0000
0010
0000
,
0100
0000
1000
0000
,
0100
0000
0010
0000
,
0100
0000
1000
0000
,
0100
0000
0010
0000
,
0001
0000
0010
0000
,
0100
0000
1000
0000
,
0100
0000
0001
0000
,
1000
0000
0010
0000
,
0100
0000
0010
0000
,
0001
0000
1000
0000
,
0100
0000
0010
0000
,
0100
0000
0010
0000
,
1000
0000
1000
0000
,
0100
0000
0100
0000
,
0001
0000
0010
0000
,
0200
0000
0000
0300
,
2200
0000
0000
3300
,
0220
0000
0000
0000
0000
0000
0000
0330
,
0001
0100
0001
0100
,
0100
0001
2000
3001
,
0100
2000
3010
0100
,
0001
0100
0001
0010
,
0220
0000
0000
0000
0000
0000
0000
0000
0000
0330
0000
0000
0000
0000
0000
0000
,
2200
0000
3300
0000
,
0220
0000
0330
0000
,
2200
0000
3300
0000
,
0220
0000
0330
0000
,
2200
3300
0220
0330
,
0022
0033
0202
0303
,
2020
3030
0202
0303
,
2020
0000
3030
0000
,
2200
0000
3300
0000
,
0220
0000
0330
0000
,
2000
3000
0200
0300
,
0220
0000
0000
0330
0000
0000
0000
0000
,
2200
3300
0220
0330
,
0022
0033
0202
0303
,
2020
3030
0202
0303
,
2020
0000
0000
0000
0000
3030
0000
0000
,
0020
0030
0200
0300
,
0002
0003
2000
3000
,
0020
0030
1000
0010
,
0200
0000
0000
0000
,
0000
0000
0000
0000
,
0000
0000
0000
0000
0000
0300
0000
0000
;
//--------------- dance-single - Blood4Fame ----------------
#NOTES:
     dance-single:
     Blood4Fame:
     Medium:
     9:
     0,0,0,0,0:
0000
0000
0000
0000
,
0100
0000
0000
1000
0000
1000
0000
1000
0100
0000
1000
0000
0100
0000
0000
0000
,
0001
0000
0001
0010
0010
0000
0100
0100
,
0100
0000
0000
1000
0000
1000
0000
1000
0100
0000
0010
0000
0100
0000
0000
0000
,
0001
0000
0001
0010
0010
0000
0100
0100
,
2100
0000
0001
3001
1002
0000
0100
0003
,
0012
0000
1000
0003
0110
0000
0100
1000
,
0011
0000
0010
0100
0010
0100
0010
0100
,
0011
0000
1000
0010
1000
0010
0020
0030
,
0010
0000
0000
0100
0000
0100
0000
0100
0010
0000
0000
0000
1001
0000
0000
0000
,
0010
0000
0000
0100
0000
0100
0000
0100
0010
0000
0000
0000
1001
0000
0000
0000
,
0010
0000
0000
0100
0000
0100
0000
0100
0001
0000
0010
0000
1001
0000
0000
0000
,
0010
1000
0010
1000
0010
1000
0020
0030
,
0010
0000
0000
0100
0000
0100
0000
0100
0010
0000
0000
0000
1001
0000
0000
0000
,
0010
0000
0000
0100
0000
0100
0000
0100
0010
0000
0000
0000
1001
0000
0000
0000
,
0010
0000
0000
0100
0000
0100
0000
0100
0001
0000
0000
0000
1001
0000
0000
0000
,
0010
1000
0010
1000
0010
1000
0020
0030
,
0010
0000
0000
0100
0000
0100
0000
0100
0001
0000
0010
0000
0002
0000
0003
0000
,
0000
0000
1000
0000
0010
0000
0010
0000
0000
0000
0000
0001
0100
0000
0000
0000
,
1100
1100
0011
0011
,
1100
1100
0011
0011
,
0000
0000
0100
0000
0010
0000
0000
0100
0000
0000
0000
0100
1000
0000
0000
0000
,
1100
1100
0110
0110
,
0011
0011
1001
1001
,
0000
0000
1000
0000
0001
0000
0000
0001
0000
0100
0000
0000
1000
0000
0000
0000
,
0101
0101
1010
1010
,
0101
0101
1010
1010
,
0000
0000
0001
0000
0010
0000
0000
1000
0000
0100
0000
0000
0100
0000
0001
0000
,
1000
0000
0100
0000
1000
0000
0100
0010
0000
0001
0000
0100
0010
0000
0000
0000
,
0010
0000
0000
0100
0000
0100
0000
0100
0010
0000
0000
0000
1001
0000
0000
0000
,
0010
0000
0000
0100
0000
0100
0000
0100
0010
0000
0000
0000
1001
0000
0000
0000
,
0010
0000
0000
0100
0000
0100
0000
0100
0001
0000
0010
0000
0001
0000
0000
0000
,
0010
1000
0010
1000
0010
1000
0020
0030
,
0010
0000
0000
0100
0000
0100
0000
0100
0010
0000
0000
0000
1001
0000
0000
0000
,
0010
0000
0000
0100
0000
0100
0000
0100
0010
0000
0000
0000
1001
0000
0000
0000
,
0010
0000
0000
0100
0000
0100
0000
0100
0001
0000
0010
0000
0001
0000
0000
0000
,
0010
1000
0010
1000
0010
1000
0100
0010
,
0002
0000
0023
0000
0230
0000
0300
1000
,
0001
0010
0100
0010
0200
0000
0310
0001
,
0020
0030
0002
0003
0202
0000
0303
1000
,
0010
1000
0100
1000
0020
0000
1030
0010
,
2000
3000
0020
0030
0020
0030
0000
1000
,
0001
0010
0100
0010
0100
0000
0001
0020
,
0000
0000
0000
0030
0000
0000
1000
0000
0200
0000
0002
0000
0303
0000
0001
0010
,
0002
0000
0000
0000
,
1003
0000
0010
0000
,
1000
0000
0100
0000
,
1000
0000
0010
0000
,
0020
0000
0000
0030
,
1000
0000
0000
0100
0000
0000
0010
0000
,
0100
0000
0000
0010
0000
0000
0001
0000
,
0100
0000
0000
0001
0000
0000
0100
0000
,
0100
0001
0010
0100
,
0010
0000
0000
0100
0000
0000
0100
0000
,
1000
0000
0000
1000
0000
0000
1000
0000
,
0010
0000
0000
0010
0000
0000
0010
0000
,
0001
0010
0100
1000
,
0001
0000
0000
0100
0000
0000
0010
0000
,
0100
0000
0000
0010
0000
0000
1000
0000
,
0100
0000
0000
1000
0000
0000
0100
0000
,
0100
0000
0000
0010
0000
0000
0010
0000
,
0010
0000
0000
0100
0000
0000
0100
0000
,
0001
0000
0000
0001
0000
0000
0001
0000
,
0010
0000
0000
0010
0000
0000
0010
0000
,
1000
0010
0100
0001
,
1000
0000
0000
0100
0000
0000
0010
0000
,
0100
0000
0000
0010
0000
0000
0001
0000
,
0100
0000
0000
0001
0000
0000
0100
0000
,
0100
0001
0010
0100
,
0010
0000
0000
0100
0000
0000
0100
0000
,
1000
0000
0000
1000
0000
0000
1000
0000
,
0010
0000
0000
0010
0000
0000
0010
0000
,
0001
0010
0100
1000
,
0001
0000
0000
0100
0000
0000
0010
0000
,
0100
0000
0000
0010
0000
0000
1000
0000
,
0100
0000
0000
1000
0000
0000
0100
0000
,
0100
0000
0000
0010
0000
0000
0010
0000
,
0010
0000
0000
0100
0000
0000
0100
0000
,
0001
0000
0000
0001
0000
0000
0001
0000
,
1000
0000
0000
0001
0000
0000
0010
0000
,
1000
0000
0000
0010
0000
0000
0001
0000
,
0001
0200
0000
0000
0000
0000
0000
0300
,
2200
0000
0000
0300
0100
0100
0100
3100
,
0220
0000
0000
0000
0000
0000
0000
0330
,
0001
1000
0000
0100
0010
0100
0001
1000
,
0100
0010
0001
1000
2000
0000
3001
0010
,
0100
1000
2000
0000
3010
1000
0100
0010
,
0001
1000
0100
0010
0001
1000
0010
0100
,
0220
0000
0000
0000
0000
0000
0000
0330
,
2200
0000
0000
0000
3300
0100
1000
0000
,
0220
0000
0000
0000
0330
0100
0010
0000
,
2200
0000
0000
0000
3300
0100
1000
0000
,
0220
0000
0000
0000
0330
0100
0010
0000
,
2200
0000
0000
3300
0220
0000
0000
0330
,
0022
0000
0000
0033
0202
0000
0000
0303
,
2020
0000
0000
3030
0101
0000
0110
0000
,
2020
0000
3030
0000
,
2200
0000
0000
0000
3300
0100
1000
0100
,
0220
0000
0000
0000
0330
0100
0010
0100
,
2100
0000
0100
3000
2100
0000
0100
3000
,
0220
0000
0000
0000
0330
0100
0010
0100
,
2200
0000
0000
3300
0220
0000
0000
0330
,
0022
0000
0000
0033
0202
0000
0000
0303
,
2020
0000
0000
3030
0101
0000
0110
0000
,
2020
0000
0000
3030
,
0022
0000
0000
0033
0202
0000
0000
0303
,
0022
0000
0000
0033
2002
0000
0000
3003
,
2020
0000
0000
3030
2000
0000
3020
0000
,
0230
0000
0000
0000
,
0000
0000
0000
0000
,
0000
0000
0000
0000
0000
0300
0000
0000
;
//--------------- dance-single - Blood4Fame ----------------
#NOTES:
     dance-single:
     Blood4Fame:
     Hard:
     10:
     0,0,0,0,0:
0000
0000
0000
0000
,
0100
0000
0000
1000
0000
1000
0000
1000
0100
0000
1000
0000
0100
0000
0000
0000
,
0001
0000
0001
0000
0001
0100
0010
0000
0010
0000
0010
0000
0100
0000
0100
0000
,
0100
0000
0000
1000
0000
1000
0000
1000
0100
0000
0010
0000
0100
0000
0000
0000
,
0001
0000
0001
0000
0001
0100
0010
0000
0010
0000
0010
0000
0100
0000
0100
0000
,
2100
0100
0001
3001
1002
1000
0100
0103
,
0012
0010
1000
0103
0110
0100
0100
1000
,
0011
0000
0010
0100
0010
0100
0010
0100
,
0011
0000
1000
0010
1000
0010
0020
0030
,
0010
0000
0010
0100
0000
0100
0000
0100
0010
0000
0001
0000
1000
0000
0010
0000
,
0010
0000
0010
0100
0000
0100
0000
0100
0010
0000
0001
0000
1000
0000
0010
0000
,
0010
0000
0010
0100
0000
0100
0000
0100
0001
0000
0010
0000
0001
0000
0010
0000
,
0010
1000
0010
1000
0010
1000
0020
0030
,
0010
0000
0010
0100
0000
0100
0000
0100
0010
0000
0001
0000
1000
0000
0010
0000
,
0010
0000
0010
0100
0000
0100
0000
0100
0010
0000
0001
0000
1000
0000
0010
0000
,
0010
0000
0010
0100
0000
0100
0000
0100
0001
0000
0010
0000
0001
0000
0010
0000
,
0010
1000
0010
1000
0010
1000
0020
0030
,
0010
0000
0010
0100
0000
0100
0000
0100
0001
0000
0010
0000
0002
0000
0003
0000
,
0000
0000
1000
0000
0010
0000
0010
0001
0000
0001
0000
0010
0100
0000
0000
0000
,
1100
1100
0011
0011
,
1100
1100
0011
0011
,
0000
0000
0100
0000
0010
0000
0001
0100
0000
0010
0000
0100
1000
0000
0000
0000
,
1100
1100
0110
0110
,
0011
0011
1001
1001
,
0000
0000
1000
0000
0001
0000
0001
0100
0000
0100
0000
0000
1000
0000
0000
0000
,
0101
0101
1010
1010
,
0101
0101
1010
1010
,
0000
0000
0001
0000
0010
0000
0010
1000
0000
0100
0010
0000
0100
0000
0001
0000
,
1000
0000
0100
0000
1000
0000
0100
0010
0000
0001
0000
0100
0010
0000
0000
0000
,
0010
0000
0010
0100
0000
0100
0000
0100
0010
0000
0001
0000
1000
0000
0010
0000
,
0010
0000
0010
0100
0000
0100
0000
0100
0010
0000
0001
0000
1000
0000
0010
0000
,
0010
0000
0010
0100
0000
0100
0000
0100
0001
0000
0010
0000
0001
0000
0010
0000
,
0010
1000
0010
1000
0010
1000
0020
0030
,
0010
0000
0010
0100
0000
0100
0000
0100
0010
0000
0001
0000
1000
0000
0010
0000
,
0010
0000
0010
0100
0000
0100
0000
0100
0010
0000
0001
0000
1000
0000
0010
0000
,
0010
0000
0010
0100
0000
0100
0000
0100
0001
0000
0010
0000
0001
0000
0010
0000
,
0010
1000
0010
1000
0010
1000
0100
0010
,
0002
0000
0023
0000
0230
0000
0300
1000
,
0001
0010
0100
0010
0200
0000
0310
0001
,
0020
0030
0002
0003
0202
0000
0303
1000
,
0010
1000
0100
1000
0020
0000
1030
0010
,
2000
3000
0020
0030
0020
0030
0000
1000
,
0001
0010
0100
0010
0100
0000
0011
0220
,
0000
0000
0000
0330
0000
0000
1000
0000
0200
0000
0002
0000
0303
0000
0001
0010
,
0002
0000
0000
0000
,
1003
0000
0010
0000
,
1000
0000
0100
0000
,
1000
0000
0010
0000
,
0020
0000
0000
0030
,
1000
0000
0000
0100
0000
0000
0010
0000
,
0100
0000
0000
0010
0000
0000
0001
0000
,
0100
0000
0000
0001
0000
0000
0100
0000
,
0100
0001
0010
0100
,
0010
0000
0000
0100
0000
0000
0100
0000
,
1000
0000
0000
1000
0000
0000
1000
0000
,
0010
0000
0000
0010
0000
0000
0010
0000
,
0001
0010
0100
1000
,
0001
0000
0000
0100
0000
0000
0010
0000
,
0100
0000
0000
0010
0000
0000
1000
0000
,
0100
0000
0000
1000
0000
0000
0100
0000
,
0100
0000
0000
0010
0000
0000
0010
0000
,
0010
0000
0000
0100
0000
0000
0100
0000
,
0001
0000
0000
0001
0000
0000
0001
0000
,
0010
0000
0000
0010
0000
0000
0010
0000
,
1000
0010
0100
0001
,
1000
0000
0000
0100
0000
0000
0010
0000
,
0100
0000
0000
0010
0000
0000
0001
0000
,
0100
0000
0000
0001
0000
0000
0100
0000
,
0100
0001
0010
0100
,
0010
0000
0000
0100
0000
0000
0100
0000
,
1000
0000
0000
1000
0000
0000
1000
0000
,
0010
0000
0000
0010
0000
0000
0010
0000
,
0001
0010
0100
1000
,
0001
0000
0000
0100
0000
0000
0010
0000
,
0100
0000
0000
0010
0000
0000
1000
0000
,
0100
0000
0000
1000
0000
0000
0100
0000
,
0100
0000
0000
0010
0000
0000
0010
0000
,
0010
0000
0000
0100
0000
0000
0100
0000
,
0001
0000
0000
0001
0000
0000
0001
0000
,
1010
0000
0000
0001
0000
0000
0010
0000
,
1000
0000
0000
0010
0000
0000
0001
0000
,
0011
2200
0000
0000
0000
0000
0000
3300
,
2200
0000
0000
0300
0100
0100
0100
3100
,
0220
0000
0000
0000
0000
0000
0000
0330
,
0001
0000
1000
0100
0000
1000
0100
0000
0010
0000
0100
0000
0001
0000
1000
0000
,
0100
0010
0001
1000
2000
0000
3001
0010
,
0100
1000
2000
0000
3010
1000
0100
0010
,
0001
1000
0100
0010
0001
1000
0010
0100
,
0220
0000
0000
0000
0000
0000
0000
0330
,
2100
0000
0100
3000
1000
0100
1000
0100
,
0210
0000
0010
0000
0310
0100
0010
0100
,
2100
0000
0100
3000
1000
0100
1000
0100
,
0210
0000
0010
0000
0310
0100
0010
0100
,
2100
0000
0100
0000
3210
0000
0010
0300
,
0021
0001
0132
0100
,
2023
3030
2020
3030
0101
0000
0110
0000
,
2020
0000
3030
0000
,
2100
0000
0100
3000
1000
0100
1000
0100
,
0210
0000
0010
0000
0310
0100
0010
0100
,
2100
0000
0100
3000
2100
0000
0100
3000
,
0210
0000
0010
0000
0310
0100
0010
0100
,
2100
0000
0100
0000
3210
0000
0010
0300
,
0021
0001
0132
0100
,
2023
0000
0000
3030
0101
0000
0110
0000
,
2020
0000
0000
3030
,
0022
0000
0000
0033
0202
0000
0000
0303
,
0022
0000
0000
0033
2002
0000
0000
3003
,
2020
0000
0000
3030
2000
0000
3020
0000
,
0230
0000
0000
0000
,
0000
0000
0000
0000
,
0000
0000
0000
0000
0000
0300
0000
0000
;
//--------------- dance-single - Blood4Fame ----------------
#NOTES:
     dance-single:
     Blood4Fame:
     Challenge:
     11:
     0,0,0,0,0:
0000
0000
0000
0000
,
0100
1000
0100
1000
0000
1000
0000
1000
0100
0000
0100
0010
0100
0000
0000
0000
,
0001
0010
0001
0010
0001
0100
0010
1000
0010
1000
0010
1000
0100
1000
0100
0000
,
0100
1000
0100
1000
0000
1000
0000
1000
0100
0000
0100
0010
0100
0000
0000
0000
,
0001
0010
0001
0010
0001
0100
0010
1000
0010
1000
0010
1000
0100
1000
0100
0000
,
2100
0100
0001
3001
1002
1000
0100
0103
,
0012
0000
0010
0000
1000
0000
0103
0000
0110
0000
0100
0000
0100
0000
1000
0100
,
0011
0000
0010
0010
0010
0010
0010
0010
,
0011
0000
0000
0000
1000
0100
0010
0100
1000
0100
0010
0001
0020
0000
0030
0000
,
0010
0001
0010
0100
0000
0100
0000
0100
0010
0000
0001
0000
1000
0100
0010
0000
,
0010
0001
0010
0100
0000
0100
0000
0100
0010
0000
0001
0000
1000
0100
0010
0000
,
0010
0001
0010
0100
0000
0100
0000
0100
1000
0000
0010
0000
1000
0100
0010
0000
,
0001
1000
0010
1000
0010
1000
0020
0030
,
0010
1000
0010
0100
0000
0100
0000
0100
0010
0000
1000
0000
0001
0100
0010
0000
,
0010
1000
0010
0100
0000
0100
0000
0100
0010
0000
1000
0000
0001
0100
0010
0000
,
0010
1000
0010
0100
0000
0100
0000
0100
0001
0000
0010
0000
0001
0100
0010
0000
,
0010
1000
0010
1000
0010
1000
0020
0030
,
0010
1000
0010
0100
0000
0100
0000
0100
0001
0000
0010
0000
0002
0000
0003
0000
,
0000
0000
1000
0100
0010
0000
0010
0001
0000
0001
0000
0010
0100
0000
0100
0000
,
1000
0100
1000
0100
0011
0000
0011
0000
,
1000
0100
1000
0100
0011
0000
0011
0000
,
0000
0000
0100
0000
0010
0000
1000
0001
0000
0010
0000
0001
0100
0000
0001
0000
,
1100
1100
0110
0110
,
0001
0010
0001
0010
1001
0000
1001
0000
,
0000
0000
1000
0100
1000
0000
0001
0100
0000
0100
0000
0000
1000
0100
0010
0000
,
0001
0100
0001
0100
1010
0000
1010
0000
,
0001
0100
0001
0100
1010
0000
1010
0000
,
0000
0000
0001
0100
0010
0000
0010
1000
0000
0100
0010
0000
0100
0010
0001
0000
,
1000
0000
0100
0000
1000
0000
0100
0010
0000
0001
0000
0100
0010
0000
0000
0000
,
0010
0001
0010
0100
0000
0100
0000
0100
0010
0000
0001
0000
1000
0100
0010
0000
,
0010
0001
0010
0100
0000
0100
0000
0100
0010
0000
0001
0000
1000
0100
0010
0000
,
0010
0001
0010
0100
0000
0100
0000
0100
1000
0000
0010
0000
1000
0100
0010
0000
,
0010
0001
0010
0001
0010
0001
0020
0030
,
0010
0001
0010
0100
0000
0100
0000
0100
0010
0000
0001
0000
1000
0100
0010
0000
,
0010
0001
0010
0100
0000
0100
0000
0100
0010
0000
0001
0000
1000
0100
0010
0000
,
0010
0001
0010
0100
0000
0100
0000
0100
0010
0000
0100
0000
1000
0100
0010
0000
,
0010
0001
0010
0001
0010
0001
0100
0010
,
2000
0000
3020
0000
0230
0000
0300
0001
,
0001
0010
0100
0010
0200
0000
0310
0001
,
0220
0330
0022
0033
0202
0000
0303
1000
,
0010
1000
0100
1000
0020
0000
1030
0010
,
2000
3000
0020
0030
0020
0030
0000
1000
,
0001
0010
0100
0010
0100
0000
0011
0220
,
0000
0000
0000
0330
0000
0000
1000
0000
0002
0000
0200
0000
0303
0000
0001
0010
,
0002
0000
0000
0000
,
1003
0100
0010
0001
,
1000
0001
0100
0010
,
1000
0100
0010
0001
,
0020
0000
0000
0030
,
1000
0000
1000
0100
0000
0010
0001
0000
,
0100
0000
0001
0010
0000
0001
1000
0000
,
0100
0000
0010
0001
0000
0100
0010
0000
,
0100
0001
0010
0100
,
0010
0000
0001
0100
0000
0100
0010
0000
,
1000
0000
0100
1000
0000
1000
0100
0000
,
0010
0000
0001
0010
0000
0010
0001
0000
,
0001
0010
0100
1000
,
0001
0000
0001
0100
0000
0010
1000
0000
,
0100
0000
1000
0010
0000
1000
0001
0000
,
0100
0000
0010
1000
0000
0100
0010
0000
,
0100
0000
1000
0010
0000
0010
0100
0000
,
0010
0000
1000
0100
0000
0100
0010
0000
,
0001
0000
0100
0001
0000
0001
0100
0000
,
0010
0000
1000
0010
0000
0010
1000
0000
,
1000
0010
0100
0001
,
1000
0000
1000
0100
0000
0010
0001
0000
,
0100
0000
0001
0010
0000
0001
1000
0000
,
0100
0000
0010
0001
0000
0100
0010
0000
,
0100
0001
0010
0100
,
0010
0000
0001
0100
0000
0100
0010
0000
,
1000
0000
0100
1000
0000
1000
0100
0000
,
0010
0000
0001
0010
0000
0010
0001
0000
,
0001
0010
0100
1000
,
1000
0000
1000
0100
0000
0010
0001
0000
,
0100
0000
0001
0010
0000
0001
1000
0000
,
0100
0000
0010
0001
0000
0100
0010
0000
,
0100
0000
0001
0010
0000
0010
0100
0000
,
0010
0000
0001
0100
0000
0100
0010
0000
,
1000
0000
0100
1000
0000
1000
0100
1000
,
0010
0000
0000
0001
0000
0000
0010
0000
,
1000
0100
0000
0010
0000
0001
0000
0000
,
0011
2200
0000
0000
0000
0000
0000
3300
,
2200
0000
0000
0300
0100
0100
0100
3100
,
0220
0000
0000
0000
0000
0000
0000
0330
,
0001
0000
1000
0100
0000
1000
0100
0010
0001
0100
0010
1000
0100
0001
0100
0010
,
0100
0001
0100
0001
0020
0030
0100
0100
,
1000
0000
0010
0000
0020
0000
0030
0000
0010
0100
0001
0100
0010
1000
0001
0100
,
0010
1000
0100
0010
0001
0010
0001
0100
0010
1000
0100
0010
0100
1000
0100
0000
,
0220
0000
0000
0000
0000
0000
0000
0330
,
2100
0000
0100
3000
1000
0100
1000
0100
,
0210
0000
0010
0000
0310
0100
0010
0100
,
2100
0000
0100
3000
1000
0100
1000
0100
,
0210
0000
0010
0000
0310
0100
0010
0100
,
2100
0000
0100
0000
3210
0000
0010
0300
,
0021
0001
0132
0100
,
2023
3030
2020
3030
0101
0000
0110
0000
,
2020
0000
3030
0000
,
2100
0000
0100
3000
1000
0100
1000
0100
,
0210
0000
0010
0000
0310
0100
0010
0100
,
2100
0000
0100
3000
2100
0000
0100
3000
,
0210
0000
0010
0000
0310
0100
0010
0100
,
2100
0000
0100
0000
3210
0000
0010
0300
,
0021
0001
0132
0100
,
2023
0000
0000
3030
0101
0000
0110
0000
,
2020
0000
0000
3030
,
0022
0000
0000
0033
0202
0000
0000
0303
,
0022
0000
0000
0033
2002
0000
0000
3003
,
2020
0000
0000
3030
2000
0000
3020
0000
,
0230
0000
0000
0000
,
0000
0000
0000
0000
,
0000
0000
0000
0000
0000
0300
0000
0000
;
