#TITLE:GIMME CHOCOLATE!! - ギミチョコ！！;
#SUBTITLE:;
#ARTIST:BABYMETAL;
#TITLETRANSLIT:;
#SUBTITLETRANSLIT:;
#ARTISTTRANSLIT:;
#GENRE:Metal;
#CREDIT:Blood4Fame;
#MUSIC:BABYMETAL - GIMME CHOCOLATE!!.mp3;
#BANNER:Banner.png;
#BACKGROUND:BG.png;
#CDTITLE:;
#SAMPLESTART:0.000;
#SAMPLELENGTH:0.000;
#SELECTABLE:YES;
#OFFSET:-0.644;
#BPMS:0.000=27.500
,4.000=220.000
,100.000=110.000
,132.000=220.000
,324.000=55.000
,332.000=220.000
,359.500=55.000
,360.500=220.000
,394.000=440.000
,456.000=110.000
;
#STOPS:;
#BGCHANGES:-0.322=video.avi=1.000=1=0=1===CrossFade==,
99999.000=-nosongbg-=1.000=0=0=0=StretchNoLoop====
;
#FGCHANGES:;
//--------------- dance-single - Blood4Fame ----------------
#NOTES:
     dance-single:
     Blood4Fame:
     Beginner:
     5:
     0,0,0,0,0:
0000
0000
0000
0000
,
1000
0000
0010
0000
,
0000
0001
0000
0100
,
0000
0000
0001
0001
,
0000
1000
0000
0100
,
0000
0001
0000
0100
,
0000
1000
1000
0000
,
0000
0100
0100
0000
,
0000
0010
0001
0000
,
1000
0000
0011
0000
,
0000
0000
1010
0000
,
0000
0000
0110
0000
,
0000
0000
0011
0000
,
0000
0000
1100
0000
,
0000
0000
0101
0000
,
0000
0000
0110
0000
,
1001
0000
0000
1001
,
1001
0000
1000
0000
,
0000
0001
0000
0000
,
0010
0000
0010
0010
,
0000
1000
1000
0000
,
1000
0000
0001
0000
,
1000
0000
0001
0000
,
0010
0010
0010
0000
,
0000
0110
0110
0000
,
0000
0000
0000
0000
1000
0000
0000
0001
0000
0000
0000
0000
0000
0000
0000
0001
,
0000
0000
0000
0000
0000
0000
0000
0001
0000
0000
0000
0100
0000
0000
0000
1000
,
0000
0000
0000
0000
0001
0000
0000
1000
0000
0000
0000
0000
0000
0000
0000
1000
,
0000
0000
0000
0000
0000
0000
0000
1000
0000
0000
0000
0010
0000
0000
0000
1000
,
0000
0000
0000
0000
1000
0000
0000
0001
0000
0000
0000
0000
0000
0000
0000
0001
,
0000
0000
0000
0000
0000
0000
0000
0001
0000
0000
0000
0100
0000
0000
0000
0100
,
0000
0000
0000
0000
0001
0000
0000
1000
0000
0000
0000
0000
0000
0000
0000
1000
,
0000
0000
0000
0000
0000
0000
0000
1000
0000
0000
0000
0010
0000
0000
0000
0000
,
0000
0100
0000
0000
0000
1000
0000
0000
,
0000
0010
0000
0000
0000
0001
0000
0000
,
0000
0100
0000
0000
0000
0000
0000
0110
,
0000
0000
0110
0000
0000
0000
0000
0010
,
0000
0000
0000
0100
0000
0000
0000
0010
,
0000
0000
0000
0100
0000
0000
0000
0010
,
0000
0000
0000
0100
0000
0000
0000
0010
,
0000
0000
0010
0010
,
0000
0100
0100
0100
,
0100
0100
0000
0000
,
0010
0000
1000
0001
,
0000
1000
0000
0000
0000
0000
0000
0000
,
0010
0010
0010
0010
,
0000
0000
0000
0010
,
0010
0000
0000
0000
1000
0000
0000
0001
,
0000
1000
0000
0000
,
1000
0000
1000
0000
,
1000
0000
1000
0000
,
1000
0000
0001
0000
,
0001
0000
1000
0000
,
1000
1000
1000
0000
,
0100
0100
0000
0100
,
0000
0010
0000
0100
,
0000
0001
0000
0100
,
0000
0010
0000
0000
,
0010
0000
1000
0000
,
1000
1000
0000
0100
,
0010
0000
0000
0000
,
0001
0000
0000
0001
0000
0000
0001
0000
,
0010
0000
0000
0010
0000
0000
0010
0000
,
0000
0000
0100
0000
,
0010
0000
0110
0000
,
2200
0000
0000
3300
0000
0000
0000
0000
,
2200
0000
0000
3300
0000
0000
0000
0000
,
0220
0000
0000
0330
0000
0000
0000
0000
,
0022
0000
0000
0033
0000
0000
0000
0000
,
2002
0000
0000
0000
,
0000
0000
0000
3003
,
0000
0100
0100
0000
,
0011
0000
0011
0000
,
1000
0000
1000
0000
,
0000
0001
0001
0000
,
0001
0001
0001
0000
,
0000
1000
1000
0000
,
1000
0000
0001
0000
,
1000
0000
0001
0000
,
0010
0010
0010
0000
,
0100
0100
0100
0000
,
0000
0000
0000
0000
1000
0000
0000
0001
0000
0000
0000
0000
0000
0000
0000
0001
0000
0000
0000
0000
0000
0000
0000
0001
0000
0000
0000
0000
0100
0000
0000
1000
,
0000
0000
0000
0000
0001
0000
0000
1000
0000
0000
0000
0000
0000
0000
0000
1000
0000
0000
0000
0000
0000
0000
0000
1000
0000
0000
0000
0000
0000
0000
0000
1000
,
0000
0000
0000
0000
0000
0000
1000
0000
0000
0000
0000
0001
,
0000
0000
0000
0000
0000
0000
0000
0000
0000
0000
0000
0001
,
0000
0000
0000
0000
0000
0000
0000
0000
0000
0000
0000
0001
,
0000
0000
0000
0000
0000
0100
0000
0000
0000
0000
0000
0100
,
0000
0000
0000
0000
0000
0000
0001
0000
0000
0000
0000
1000
,
0000
0000
0000
0000
0000
0000
0000
0000
0000
0000
0000
1000
,
0000
0000
0000
0000
0000
0000
0000
2002
,
0000
0000
0000
0000
0000
0000
0000
3003
0000
0000
0000
0000
0000
0000
0000
0000
0000
1001
0000
0000
0000
0000
0000
0000
,
0000
0000
0000
0000
0000
0000
0000
0000
0000
0000
0000
0000
0000
0000
0000
0000
0000
1001
0000
0000
0000
0000
0000
0000
,
0000
0000
0000
0000
0000
0000
0000
0000
0000
0000
0000
0000
0000
0000
0000
0000
0000
1001
0000
0000
0000
0000
0000
0000
,
0000
0000
0000
0000
0000
0000
0000
0110
0000
0000
0200
0000
,
0000
0300
0000
0000
0000
0000
0000
0000
0000
0000
0000
0000
0000
0000
0000
0000
0000
0100
0000
0000
0000
0000
0000
0100
,
0000
0000
0000
0000
0000
0000
0000
0000
0000
0000
0000
0000
0000
0000
0000
0000
0000
0100
0000
0000
0000
0000
0000
0100
,
0000
0000
0000
0000
0000
0000
0000
0000
0000
0000
0000
0000
0000
0000
0000
0000
0000
0100
0000
0000
0000
0000
0000
0100
,
0000
0000
0000
0000
0000
0000
0000
0010
0000
0000
0010
0000
,
0000
0000
0000
0000
0000
1000
0000
0000
0000
0000
0000
0000
0000
0000
0000
0000
0000
0000
0000
0000
0000
0000
0000
1001
,
0000
0000
0000
0000
0000
0000
0000
0000
0000
0000
0000
1001
0000
0000
0000
0000
0000
0000
0000
0000
0000
0000
0000
0000
,
0000
0000
0000
0000
0000
0000
0000
0000
0000
0000
0000
1001
0000
0000
0000
0000
0000
0000
0000
0000
0000
0000
0000
1001
,
0000
0000
0000
0000
0000
0000
0000
0000
0000
0000
0000
1001
0000
0000
0000
0000
0000
0000
0000
0000
0000
0000
0000
0000
,
0000
0000
0000
0000
0000
0000
0000
0000
0000
0000
0000
1001
0000
0000
0000
0000
0000
0000
0000
0000
0000
0000
0000
1001
,
0000
0000
0000
0000
0000
0000
0000
0000
0000
0000
0000
1001
0000
0000
0000
0000
0000
0000
0000
0000
0000
0000
0000
0000
,
0000
0000
0000
0000
0000
0000
0000
0000
0000
0000
0000
0000
0000
0000
0000
0000
0000
0110
0000
0000
0000
0000
0000
0000
,
0000
0000
0000
0000
0000
0100
0000
0000
0000
0000
0000
0000
0000
0000
0000
0000
0000
0200
0000
0000
0000
0000
0000
0300
,
0000
0000
0000
0000
0000
0000
0000
0000
0000
0000
0000
0000
0000
0000
0000
0000
0000
0000
0000
0000
0000
0000
0000
0100
,
0000
0000
0000
0000
0000
0000
0000
0000
0000
0000
0000
0100
0000
0000
0000
0000
0000
0000
0000
0000
0000
0000
0000
0010
,
0000
0000
0000
0000
0000
0000
0000
0000
0000
0000
0000
0000
0000
0000
0000
0000
0000
0000
0000
0000
0000
0000
0000
0100
,
0000
0000
0000
0000
0000
0000
0000
0000
0000
0000
0000
0100
0000
0000
0000
0000
0000
0000
0000
0000
0000
0000
0000
0010
,
0000
0000
0000
0000
0000
0000
0000
0000
0000
0000
0000
0000
0000
0000
0000
0000
0000
0000
0000
0000
0000
0000
0000
0100
,
0000
0000
0000
0000
0000
0000
0000
0000
0000
0000
0000
0100
0000
0000
0000
0000
0000
0000
0000
0000
0000
0000
0000
0010
,
0000
0000
0000
0000
0000
0000
0000
0000
0000
0000
0000
0000
0000
0000
0000
0000
0000
0001
0000
0000
0000
0000
0000
0000
,
0000
0000
0000
0000
,
0100
0000
0000
0000
;
//--------------- dance-single - Blood4Fame ----------------
#NOTES:
     dance-single:
     Blood4Fame:
     Easy:
     8:
     0,0,0,0,0:
0000
0000
0000
0000
,
1000
0010
0010
1000
,
0000
0001
0100
0100
,
0001
0001
0001
0001
,
0000
1000
0100
0100
,
0001
0001
0001
0100
,
0000
1000
1000
1000
,
0100
0100
0100
1000
,
0000
0010
0001
0001
,
1000
0000
0011
0000
,
0110
0000
1010
0000
,
0101
0000
0110
0000
,
1010
0000
0011
0000
,
0011
0000
1100
0000
,
0110
0000
0101
0000
,
1010
0000
0110
0000
,
1001
1001
1001
1001
,
1000
0000
1000
1000
,
0000
0001
0001
0001
,
0010
0000
0010
0010
,
0000
1000
1000
0100
,
1000
0100
0001
0100
,
1000
0100
0001
0100
,
0010
0010
0010
0010
,
0110
0110
0110
0000
,
0000
0000
0000
0000
1000
0000
0000
0001
0000
0000
0000
0100
0000
0010
0000
0001
,
0000
0000
0000
0100
0000
0010
0000
0001
0000
0000
0000
0100
0000
0000
0000
1000
,
0000
0000
0000
0000
0001
0000
0000
1000
0000
0000
0000
0010
0000
0100
0000
1000
,
0000
0000
0000
0010
0000
0100
0000
1000
0000
0000
0000
0010
0000
0000
0000
1000
,
0000
0000
0000
0000
1000
0000
0000
0001
0000
0000
0000
0100
0000
0010
0000
0001
,
0000
0000
0000
0100
0000
0010
0000
0001
0000
0000
0000
0100
0000
0000
0000
0100
,
0000
0000
0000
0000
0001
0000
0000
1000
0000
0000
0000
0010
0000
0100
0000
1000
,
0000
0000
0000
0010
0000
0100
0000
1000
0000
0000
0000
0010
0000
0000
0000
0000
,
0000
0100
0000
0001
0000
1000
0000
0100
,
0000
0010
0000
1000
0000
0001
0000
0010
,
0000
0100
0000
0001
0000
1000
0000
0110
,
0000
0000
0110
0000
0100
0000
0000
0010
,
0000
0000
0000
0100
0000
0100
0000
0010
,
0000
0000
0000
0100
0000
0100
0000
0010
,
0000
0000
0000
0100
0000
0100
0000
0010
,
0000
0011
0010
0100
,
0000
1100
0100
0100
,
0100
0100
0000
0100
,
0010
0100
1000
0001
,
0000
1000
0000
0000
0000
0000
0000
0000
,
0011
0010
0010
0010
,
0010
0010
0000
0010
,
0010
0000
0000
0000
1000
0000
0000
0001
,
0000
1000
0000
0000
,
1000
0010
1000
0010
,
1000
0010
1000
0010
,
1000
0001
0001
1000
,
0001
1000
1000
0000
,
1000
1000
1000
0100
,
0100
0100
0010
0100
,
0000
0010
0001
0100
,
0000
0001
0010
0100
,
0000
0010
0000
0001
,
0010
0000
1000
0010
,
1000
1000
0100
0100
,
0010
0000
0000
0000
,
0001
0000
0000
0001
0000
0000
0001
0000
,
0010
0000
0000
0010
0000
0000
0010
0000
,
1000
0001
0100
0010
,
0010
0000
0110
0000
,
2200
0000
0000
3300
,
2200
0000
0000
3300
,
0220
0000
0000
0330
,
0022
0000
0000
0033
,
2002
0000
0000
0000
,
0000
0000
0000
3003
,
1000
0100
0100
0100
,
0011
0011
0011
0011
,
1000
0100
1000
0100
,
0000
0001
0001
0010
,
0001
0001
0001
0010
,
0000
1000
1000
0100
,
1000
0000
0001
0000
,
1000
0000
0001
0000
,
0011
0011
0011
0011
,
0110
0110
0110
0000
,
0000
0000
0000
0000
1000
0000
0000
0001
0000
0000
0000
0100
0000
0010
0000
0001
0000
0000
0000
0100
0000
0010
0000
0001
0000
0000
0000
0000
0100
0000
0000
1000
,
0000
0000
0000
0000
0001
0000
0000
1000
0000
0000
0000
0010
0000
0100
0000
1000
0000
0000
0000
0010
0000
0100
0000
1000
0000
0000
0000
0000
0000
0000
0000
1000
,
0000
0000
0000
0000
0000
0000
1000
0000
0000
0000
0000
0001
,
0000
0000
0000
0000
0000
0100
0000
0000
0010
0000
0000
0001
,
0000
0000
0000
0000
0000
0100
0000
0000
0010
0000
0000
0001
,
0000
0000
0000
0000
0000
0100
0000
0000
0000
0000
0000
0100
,
0000
0000
0000
0000
0000
0000
0001
0000
0000
0000
0000
1000
,
0000
0000
0000
0000
0000
0010
0000
0000
0100
0000
0000
1000
,
0000
0000
0000
0000
0000
0000
0000
0000
0000
0000
0010
0000
0000
0000
0000
0000
0100
0000
0000
0000
0000
2002
0000
0000
,
0000
0000
0000
0000
0000
0000
0000
3003
0000
0000
0000
0000
0000
0000
0000
0000
0000
1001
0000
0000
0000
0000
0000
0000
,
0000
0000
0000
0000
0000
0110
0000
0000
0000
0000
0000
0000
0000
0000
0000
0000
0000
1001
0000
0000
0000
0000
0000
0000
,
0000
0000
0000
0000
0000
0110
0000
0000
0000
0000
0000
0000
0000
0000
0000
0000
0000
1001
0000
0000
0000
0000
0000
0000
,
0000
0000
0000
0000
0000
0110
0000
0000
0000
0000
0000
0000
0000
0000
0110
0000
0000
0000
0000
0000
0200
0000
0000
0000
,
0000
0300
0000
0000
0000
0010
0000
0000
0000
0000
0000
0000
0000
0000
0000
0000
0000
0100
0000
0000
0000
0000
0000
0100
,
0000
0000
0000
0000
0000
0010
0000
0000
0000
0000
0000
0000
0000
0000
0000
0000
0000
0100
0000
0000
0000
0000
0000
0100
,
0000
0000
0000
0000
0000
0010
0000
0000
0000
0000
0000
0000
0000
0000
0000
0000
0000
0100
0000
0000
0000
0000
0000
0100
,
0000
0000
0000
0000
0000
0010
0000
0000
0000
0000
0000
0000
0000
0000
0011
0000
0000
0000
0000
0000
0010
0000
0000
0000
,
0000
0000
0000
0000
0000
1000
0000
0000
0000
0000
0000
0000
0000
0000
0000
0000
0000
0000
0000
0000
0000
0000
0000
1001
,
0000
0000
0000
0000
0000
0000
0000
0000
0000
0000
0000
1001
0000
0000
0000
0000
0000
0000
0000
0000
0000
0000
0000
0110
,
0000
0000
0000
0000
0000
0000
0000
0000
0000
0000
0000
0110
0000
0000
0000
0000
0000
0000
0000
0000
0000
0000
0000
1001
,
0000
0000
0000
0000
0000
0000
0000
0000
0000
0000
0000
1001
0000
0000
0000
0000
0000
0000
0000
0000
0000
0000
0000
0110
,
0000
0000
0000
0000
0000
0000
0000
0000
0000
0000
0000
0110
0000
0000
0000
0000
0000
0000
0000
0000
0000
0000
0000
1001
,
0000
0000
0000
0000
0000
0000
0000
0000
0000
0000
0000
1001
0000
0000
0000
0000
0000
0000
0000
0000
0000
0000
0000
0110
,
0000
0000
0000
0000
0000
0000
0000
0000
0000
0000
0000
0000
0000
0000
0000
0000
0000
0110
0000
0000
0000
0000
0000
0000
,
0000
0000
0000
0000
0000
0100
0000
0000
0000
0000
0000
0000
0000
0000
0000
0000
0000
0100
0000
0000
0000
0000
0000
0010
,
0000
0000
0000
0000
0000
0000
0000
0000
0000
0000
0000
0000
0000
0000
0000
0000
0000
0000
0000
0000
0000
0000
0000
0100
,
0000
0000
0000
0000
0000
0000
0000
0000
0000
0000
0000
0100
0000
0000
0000
0000
0000
0000
0000
0000
0000
0000
0000
0010
,
0000
0000
0000
0000
0000
0000
0000
0000
0000
0000
0000
0000
0000
0000
0000
0000
0000
0000
0000
0000
0000
0000
0000
0100
,
0000
0000
0000
0000
0000
0000
0000
0000
0000
0000
0000
0100
0000
0000
0000
0000
0000
0000
0000
0000
0000
0000
0000
0010
,
0000
0000
0000
0000
0000
0000
0000
0000
0000
0000
0000
0000
0000
0000
0000
0000
0000
0000
0000
0000
0000
0000
0000
0100
,
0000
0000
0000
0000
0000
0000
0000
0000
0000
0000
0000
0100
0000
0000
0000
0000
0000
0000
0000
0000
0000
0000
0000
0010
,
0000
0000
0000
0000
0000
0000
0000
0000
0000
0000
0000
0000
0000
0000
0000
0000
0000
0011
0000
0000
0000
0000
0000
0000
,
0000
0000
0000
0000
0000
0100
0000
0000
0000
0000
0000
0000
0000
0000
0000
0000
0000
0200
0000
0000
0000
0000
0000
0000
,
0300
0000
0000
0000
;
//--------------- dance-single - Blood4Fame ----------------
#NOTES:
     dance-single:
     Blood4Fame:
     Medium:
     9:
     0,0,0,0,0:
0000
0000
0000
0000
,
1010
0000
0010
0000
0010
0000
1000
0020
,
0030
0101
0100
0100
,
0011
0000
0001
0000
0001
0000
0001
0020
,
0030
1100
0100
0100
,
0101
0000
0001
0000
0001
0000
0001
0200
,
0300
1010
1000
1000
,
1100
0000
0100
0000
0100
0000
1000
0200
,
0300
0011
0001
0001
,
2200
3300
0022
0033
,
0220
0330
1000
0110
,
0202
0303
0220
0330
,
2020
3030
0010
1001
,
0022
0033
2200
3300
,
0220
0330
0001
0110
,
2020
3030
0220
0330
,
0100
1001
0110
1001
,
1000
0000
1000
0000
1000
0000
1000
0200
,
0000
0310
0001
0000
0001
0000
0001
0000
,
0010
0000
0010
0000
0010
0000
0010
0002
,
0000
0103
1000
0000
1000
0000
0100
0000
,
1000
0100
0000
0000
0001
0100
0000
0000
,
1000
0100
0000
0000
0001
0100
0000
0000
,
0011
0011
0011
0011
,
0110
0000
0110
0000
0220
0000
0000
0330
,
0000
0000
0000
0000
2000
0000
3000
0001
0000
1000
0000
0100
0000
0010
0000
0001
,
0000
1000
0000
0100
0000
0010
0000
0001
0000
1000
0000
0200
0000
0300
0000
1000
,
0000
0000
0000
0000
0002
0000
0003
1000
0000
0001
0000
0010
0000
0100
0000
1000
,
0000
0001
0000
0010
0000
0100
0000
1000
0000
0001
0000
0020
0000
0030
0000
1000
,
0000
0000
0000
0000
2000
0000
3000
0001
0000
1000
0000
0100
0000
0010
0000
0001
,
0000
1000
0000
0100
0000
0010
0000
0001
0000
1000
0000
0200
0300
0000
1000
0100
,
0000
0000
0000
0000
0002
0000
0003
1000
0000
0001
0000
0010
0000
0100
0000
1000
,
0000
0001
0000
0010
0000
0100
0000
1000
0000
0002
0000
0020
0000
0000
0033
0000
,
1000
0100
0000
0001
0000
1000
0000
0100
,
0000
0010
0000
1000
0000
0001
0000
0010
,
0000
0100
0000
0001
0000
1000
0000
0220
,
0000
0330
0110
0000
0100
0000
0100
0010
,
0000
0000
0000
1100
0000
1100
0000
0022
,
0000
0033
0000
1100
0000
1100
0000
0022
,
0000
0033
0000
1100
0000
1100
0000
0022
,
0000
0033
0011
0000
0010
0000
0100
1000
,
0000
2100
0100
0100
,
0100
0000
3100
0000
0000
1000
0100
1000
,
0010
0100
1000
0001
,
0000
2000
0000
0000
0000
0000
3000
0000
,
0012
0010
0010
0010
,
0010
0000
0013
0000
0000
0001
0010
0001
,
0010
0000
0000
0000
1000
0000
0000
0001
,
0000
2000
0000
3000
,
1000
0010
1000
0010
,
1000
0010
1000
0010
,
1000
0001
0001
1000
,
0001
0000
1000
0400
4000
0000
3300
0000
,
1000
0100
1000
0000
1000
0000
1000
0000
,
1000
0100
1000
0000
0010
0000
0100
0000
,
0001
0100
0010
0000
0001
0000
0100
0000
,
0010
1000
0001
0000
0010
0000
0100
0000
,
0001
0100
0040
0000
0000
0030
0001
0100
,
0040
0000
0000
0030
1000
0100
0010
0000
,
1000
0100
1000
0000
0100
1000
0100
0000
,
0040
0000
0000
0000
0000
0000
0030
0100
,
0004
0000
0103
0004
0000
0103
0004
0000
,
0043
0000
0130
0040
0000
0130
0020
0030
,
1000
0001
0100
0010
,
0020
0000
0030
0000
0220
0000
0000
0330
,
2200
0000
0000
3300
,
2200
0000
0000
3300
,
0220
0000
0000
0330
,
0022
0000
0000
0033
,
2002
0000
0000
3003
,
0022
0000
0000
0033
,
1100
0100
0100
0100
,
0011
0010
0010
0010
,
1000
0100
1000
0000
1000
0000
1000
0200
,
0000
0300
0001
0010
0001
0000
0010
0000
,
0001
0010
0001
0000
0002
0000
0023
0032
,
0000
0003
1000
0100
1000
0000
0100
0000
,
1000
0100
0000
0000
0001
0100
0000
0000
,
1000
0100
0000
0000
0001
0100
0000
0000
,
0001
0010
0001
0010
0001
0010
0001
0010
,
0100
0010
0100
0010
0100
0020
0000
0030
,
0000
0000
0000
0000
1000
0000
0000
0001
0000
1000
0000
0100
0000
0010
0000
0001
0000
1000
0000
0100
0000
0010
0000
0001
0000
0000
1000
0000
0200
0000
0300
1000
,
0000
0000
0000
0000
0001
0000
0000
1000
0000
0001
0000
0010
0000
0100
0000
1000
0000
0001
0000
0010
0000
0100
0000
2000
0000
0000
0000
0000
3000
0000
0000
1000
,
0000
0000
0000
0000
0000
0000
0000
0000
0000
0000
0000
0000
2000
0000
0000
3000
0000
0000
0000
0000
0000
0000
0001
0000
,
0000
0000
1000
0000
0000
0100
0000
0000
0010
0000
0000
0001
,
0000
0000
1000
0000
0000
0100
0000
0000
0010
0000
0000
0001
,
0000
0000
0000
0000
1000
0000
0000
0000
0000
0000
0200
0000
0000
0300
0000
0000
0000
0000
0000
1000
0000
0000
0200
0000
,
0000
0000
0000
0000
0000
0000
0000
0300
0000
0000
0000
0000
0002
0000
0000
0003
0000
0000
0000
0000
0000
0000
1000
0000
,
0000
0000
0001
0000
0000
0010
0000
0000
0100
0000
0000
1000
,
0000
0000
0000
0000
0001
0000
0000
0000
0000
0000
0010
0000
0000
0000
0000
0000
0100
0000
0000
0000
0000
2002
0000
0000
,
0000
0000
0000
0000
0000
3003
0000
0000
0000
0000
0000
0000
0000
0000
0000
0000
0000
0001
0000
0000
0000
0000
0000
1000
,
0000
0000
0000
0000
0000
0100
0000
0000
0000
0000
0000
0010
0000
0000
0000
0000
0000
0001
0000
0000
0000
0000
0000
1000
,
0000
0000
0000
0000
0000
0100
0000
0000
0000
0000
0000
0010
0000
0000
0000
0000
0000
1000
0000
0000
0000
0000
0000
0001
,
0000
0000
0000
0000
0000
0220
0000
0000
0000
0000
0000
0330
0000
0000
0110
0000
0000
0000
0000
0000
0100
0000
0000
0000
,
0000
0000
0100
0000
0000
0010
0000
0000
0000
0000
0000
0000
0000
0000
0000
0000
0000
1100
0000
0000
0000
0000
0000
1100
,
0000
0000
0000
0000
0000
0022
0000
0000
0000
0000
0000
0033
0000
0000
0000
0000
0000
1100
0000
0000
0000
0000
0000
1100
,
0000
0000
0000
0000
0000
0022
0000
0000
0000
0000
0000
0033
0000
0000
0000
0000
0000
1100
0000
0000
0000
0000
0000
1100
,
0000
0000
0000
0000
0000
0022
0000
0000
0000
0000
0000
0033
0000
0000
0011
0000
0000
0000
0000
0000
0010
0000
0000
0000
,
0000
0000
0100
0000
0000
2000
0000
0000
0000
0000
0000
0000
0000
0000
0000
3000
0000
0000
0000
0000
0000
0000
0000
1001
,
0000
0000
0000
0000
0000
0000
0000
0000
0000
0000
0000
1001
0000
0000
0000
0000
0000
0000
0000
0000
0000
0000
0000
0110
,
0000
0000
0000
0000
0000
0000
0000
0000
0000
0000
0000
0110
0000
0000
0000
0000
0000
0000
0000
0000
0000
0000
0000
1001
,
0000
0000
0000
0000
0000
0000
0000
0000
0000
0000
0000
1001
0000
0000
0000
0000
0000
0000
0000
0000
0000
0000
0000
0110
,
0000
0000
0000
0000
0000
0000
0000
0000
0000
0000
0000
0110
0000
0000
0000
0000
0000
0000
0000
0000
0000
0000
0000
1001
,
0000
0000
0000
0000
0000
0000
0000
0000
0000
0000
0000
1001
0000
0000
0000
0000
0000
0000
0000
0000
0000
0000
0000
0220
,
0000
0000
0000
0000
0000
0000
0000
0000
0000
0000
0000
0330
0000
0000
0000
0000
0000
0110
0000
0000
0000
0000
0000
0000
,
0000
0000
0000
0000
0000
0100
0000
0000
0000
0000
0000
0000
0000
0000
0000
0000
0000
0100
0000
0000
0000
0000
0000
0020
,
0000
0000
0000
0000
0000
0000
0000
0000
0000
0000
0000
0030
0000
0000
0000
0000
0000
0000
0000
0000
0000
0000
0000
1100
,
0000
0000
0000
0000
0000
0000
0000
0000
0000
0000
0000
1100
0000
0000
0000
0000
0000
0000
0000
0000
0000
0000
0000
0022
,
0000
0000
0000
0000
0000
0000
0000
0000
0000
0000
0000
0033
0000
0000
0000
0000
0000
0000
0000
0000
0000
0000
0000
1100
,
0000
0000
0000
0000
0000
0000
0000
0000
0000
0000
0000
1100
0000
0000
0000
0000
0000
0000
0000
0000
0000
0000
0000
0022
,
0000
0000
0000
0000
0000
0000
0000
0000
0000
0000
0000
0033
0000
0000
0000
0000
0000
0000
0000
0000
0000
0000
0000
1100
,
0000
0000
0000
0000
0000
0000
0000
0000
0000
0000
0000
1100
0000
0000
0000
0000
0000
0000
0000
0000
0000
0000
0000
0022
,
0000
0000
0000
0000
0000
0000
0000
0000
0000
0000
0000
0033
0000
0000
0000
0000
0000
0011
0000
0000
0000
0000
0000
0000
,
0000
0000
0000
0000
0000
0100
0000
0000
0000
0000
0000
0000
0000
0000
0000
0000
0000
0100
0000
0000
0000
0000
0000
0000
,
0020
0030
0000
0000
;
//--------------- dance-single - Blood4Fame ----------------
#NOTES:
     dance-single:
     Blood4Fame:
     Hard:
     10:
     0,0,0,0,0:
0000
0000
0000
0000
,
1001
0000
1001
0000
1010
0000
1000
0020
,
0030
0101
0110
1001
,
1001
0000
1001
0000
0011
0000
0001
0020
,
0030
1100
0110
1001
,
1001
0000
1001
0000
0101
0000
0001
0200
,
0300
1010
0110
1001
,
1001
0000
1001
0000
1100
0000
1000
0200
,
0300
0011
0110
0001
,
1100
0100
0011
0011
,
0110
1100
1000
0110
,
0101
0101
0110
1010
,
1010
1001
0110
1001
,
0011
0110
1100
0100
,
0110
0011
0001
0110
,
1010
1000
0110
0101
,
0100
1001
0110
1001
,
1000
0100
1000
0000
1000
0000
1000
0200
,
0000
0310
0001
0010
0001
0000
0010
0000
,
0001
0010
0001
0000
0002
0000
0023
0032
,
0000
0103
1000
0100
2000
0000
3100
0000
,
1000
0200
0300
0000
0001
0200
0300
0000
,
1000
0200
0300
0000
0001
0200
0300
0000
,
0001
0010
0001
0010
0001
0010
0001
0010
,
0100
0010
0100
0010
0100
0020
0000
0030
,
0000
0000
0000
0000
1000
0100
0010
0001
0000
1000
0000
0100
0000
0010
0000
0001
,
0000
1000
0000
0100
0000
0010
0000
0001
0000
1000
0000
0200
0000
0300
0100
2000
,
3000
0000
0000
0000
0001
0010
0100
1000
0000
0001
0000
0010
0000
0100
0000
1000
,
0000
0001
0000
0010
0000
0100
0000
1000
0000
0002
0000
0023
0000
0030
0100
2000
,
3000
0000
0000
0000
1000
0100
0010
0001
0000
1000
0000
0100
0000
0010
0000
0001
,
0000
1000
0000
0100
0000
0010
0000
0001
0000
1000
0000
0100
0000
0000
1000
0200
,
0300
0000
0000
0000
0001
0010
0100
1000
0000
0001
0000
0010
0000
0100
0000
1000
,
0000
0001
0000
0010
0000
0100
0000
1000
0000
0002
0000
0020
0000
0000
0033
0000
,
1000
0100
0000
1001
0000
1001
0000
0110
,
0000
0110
0000
1001
0000
1001
0000
0110
,
0000
0110
0000
1001
0000
1001
0000
0220
,
0000
0330
0110
0000
0100
0000
0100
0010
,
0000
0000
0000
1100
0000
1100
0000
0022
,
0000
0033
0000
1100
0000
1100
0000
0022
,
0000
0033
0000
1100
0000
1100
0000
0022
,
0000
0033
0011
0000
0010
0000
0100
1000
,
0100
2100
0100
0100
,
0100
0000
3100
0000
0000
1000
0100
1000
,
0020
0230
2300
0002
,
3000
2000
0000
0000
0000
0000
3003
0000
,
0012
0010
0010
0010
,
0010
0000
0013
0000
0000
0001
0010
0001
,
0200
0000
0320
0000
2030
0000
0000
0002
,
0000
3000
2000
0000
0000
0000
3003
0000
,
1000
0000
0010
0000
1000
0100
0010
0000
,
1000
0000
0010
0000
1000
0100
0010
0000
,
1000
0000
0001
0000
0001
0100
1000
0000
,
0001
0000
1000
0400
4000
0000
3300
0000
,
1000
0100
1000
0000
1000
0010
1000
0000
,
1000
0100
1000
0000
0010
0001
0100
0000
,
0001
0100
0010
0000
0001
1000
0100
0000
,
0010
1000
0001
0000
0010
1000
0100
0000
,
0001
0100
0040
0000
0000
0030
0001
0100
,
0040
0000
0000
0030
1000
0100
0010
0000
,
1000
0100
1000
0000
0100
1000
0100
1000
,
0040
0000
0000
0000
0000
0000
0030
0100
,
0004
0000
0103
0004
0000
0103
0004
0000
,
0043
0000
0130
0040
0000
0130
0020
0030
,
1100
1001
0101
1010
,
0020
0000
0030
0000
0220
0000
0000
0330
,
2000
0000
0100
0000
0100
0000
0100
3000
,
2100
0100
0100
0100
,
3210
0010
0010
0010
,
0321
0001
0001
0001
,
0032
0000
0010
0000
0010
0000
0010
0003
,
0044
0000
0000
0000
0000
0000
0000
0033
,
1100
1100
1100
1100
,
0022
0033
0022
0033
0022
0033
0022
0033
,
1000
0100
1000
0000
1000
0100
1000
0200
,
0000
0310
0001
0010
0001
0000
0010
0000
,
0001
0010
0001
0000
0002
0000
0023
0032
,
0000
0103
1000
0100
1000
0000
0100
0000
,
1000
0200
0300
0000
0001
0200
0300
0000
,
1000
0200
0300
0000
0001
0200
0300
0000
,
0001
0010
0001
0010
0001
0010
0001
0010
,
0100
0010
0100
0010
0100
0020
0000
0030
,
0000
0000
0000
0000
1000
0100
0010
0001
0000
1000
0000
0100
0000
0010
0000
0001
0000
1000
0000
0100
0000
0010
0000
0001
0000
0000
1000
0000
0100
0000
0100
1000
,
0000
0000
0000
0000
0001
0010
0100
1000
0000
0001
0000
0010
0000
0100
0000
1000
0000
0001
0000
0010
0000
0100
0000
1000
0000
0001
1000
0000
1000
0100
0010
0001
,
0000
0000
0000
0000
0000
0000
0000
0000
0000
0000
0000
0000
1000
0000
0000
0100
0000
0000
0010
0000
0000
0000
0001
0000
,
0000
0000
1000
0000
0000
0100
0000
0000
0010
0000
0000
0001
,
0000
0000
1000
0000
0000
0100
0000
0000
0010
0000
0000
0001
,
0000
0000
0000
0000
1000
0000
0000
0000
0000
0000
0100
0000
0000
1000
0000
0000
0000
0000
0000
1000
0000
0000
0200
0000
,
0000
0000
0000
0000
0000
0000
0000
0300
0000
0000
0000
0000
0001
0000
0000
0010
0000
0000
0100
0000
0000
0000
1000
0000
,
0000
0000
0001
0000
0000
0010
0000
0000
0100
0000
0000
1000
,
0000
0000
0000
0000
0001
0000
0000
0000
0000
0000
0010
0000
0000
0000
0000
0000
0100
0000
0000
0000
0000
2002
0000
0000
,
0000
0000
0000
0000
0000
3003
0000
0000
0000
0000
0000
0000
0000
0000
0000
0000
0000
1001
0000
0000
0000
0000
0000
1001
,
0000
0000
0000
0000
0000
0110
0000
0000
0000
0000
0000
0110
0000
0000
0000
0000
0000
1001
0000
0000
0000
0000
0000
1001
,
0000
0000
0000
0000
0000
0110
0000
0000
0000
0000
0000
0110
0000
0000
0000
0000
0000
1001
0000
0000
0000
0000
0000
1001
,
0000
0000
0000
0000
0000
0220
0000
0000
0000
0000
0000
0330
0000
0000
0110
0000
0000
0000
0000
0000
0100
0000
0000
0000
,
0000
0000
0100
0000
0000
0010
0000
0000
0000
0000
0000
0000
0000
0000
0000
0000
0000
1100
0000
0000
0000
0000
0000
1100
,
0000
0000
0000
0000
0000
0022
0000
0000
0000
0000
0000
0033
0000
0000
0000
0000
0000
1100
0000
0000
0000
0000
0000
1100
,
0000
0000
0000
0000
0000
0022
0000
0000
0000
0000
0000
0033
0000
0000
0000
0000
0000
1100
0000
0000
0000
0000
0000
1100
,
0000
0000
0000
0000
0000
0022
0000
0000
0000
0000
0000
0033
0000
0000
0011
0000
0000
0000
0000
0000
0010
0000
0000
0000
,
0000
0000
0100
0000
0000
2000
0000
0000
0000
0000
0000
0000
0000
0000
0000
3000
0000
0000
0000
0000
0000
0000
0000
1001
,
0000
0000
0000
0000
0000
0000
0000
0000
0000
0000
0000
1001
0000
0000
0000
0000
0000
0000
0000
0000
0000
0000
0000
0110
,
0000
0000
0000
0000
0000
0000
0000
0000
0000
0000
0000
0110
0000
0000
0000
0000
0000
0000
0000
0000
0000
0000
0000
1001
,
0000
0000
0000
0000
0000
0000
0000
0000
0000
0000
0000
1001
0000
0000
0000
0000
0000
0000
0000
0000
0000
0000
0000
0110
,
0000
0000
0000
0000
0000
0000
0000
0000
0000
0000
0000
0110
0000
0000
0000
0000
0000
0000
0000
0000
0000
0000
0000
1001
,
0000
0000
0000
0000
0000
0000
0000
0000
0000
0000
0000
1001
0000
0000
0000
0000
0000
0000
0000
0000
0000
0000
0000
0220
,
0000
0000
0000
0000
0000
0000
0000
0000
0000
0000
0000
0330
0000
0000
0000
0000
0000
0110
0000
0000
0000
0000
0000
0000
,
0000
0000
0000
0000
0000
0100
0000
0000
0000
0000
0000
0000
0000
0000
0000
0000
0000
0100
0000
0000
0000
0000
0000
0020
,
0000
0000
0000
0000
0000
0000
0000
0000
0000
0000
0000
0030
0000
0000
0000
0000
0000
0000
0000
0000
0000
0000
0000
1100
,
0000
0000
0000
0000
0000
0000
0000
0000
0000
0000
0000
1100
0000
0000
0000
0000
0000
0000
0000
0000
0000
0000
0000
0022
,
0000
0000
0000
0000
0000
0000
0000
0000
0000
0000
0000
0033
0000
0000
0000
0000
0000
0000
0000
0000
0000
0000
0000
1100
,
0000
0000
0000
0000
0000
0000
0000
0000
0000
0000
0000
1100
0000
0000
0000
0000
0000
0000
0000
0000
0000
0000
0000
0022
,
0000
0000
0000
0000
0000
0000
0000
0000
0000
0000
0000
0033
0000
0000
0000
0000
0000
0000
0000
0000
0000
0000
0000
1100
,
0000
0000
0000
0000
0000
0000
0000
0000
0000
0000
0000
1100
0000
0000
0000
0000
0000
0000
0000
0000
0000
0000
0000
0022
,
0000
0000
0000
0000
0000
0000
0000
0000
0000
0000
0000
0033
0000
0000
0000
0000
0000
0011
0000
0000
0000
0000
0000
0000
,
0000
0000
0000
0000
0000
0100
0000
0000
0000
0000
0000
0000
0000
0000
0000
0000
0000
0100
0000
0000
0000
0000
0000
0000
,
0020
0030
0000
0000
;
//--------------- dance-single - Blood4Fame ----------------
#NOTES:
     dance-single:
     Blood4Fame:
     Challenge:
     11:
     0,0,0,0,0:
0000
0000
0000
0000
,
1001
0000
1001
0000
1010
0000
1010
2020
,
3030
0101
0110
1001
,
1001
0000
1001
0000
0011
0000
0011
0022
,
0033
1100
0110
1001
,
1001
0000
1001
0000
0101
0000
0101
0202
,
0303
1010
0110
1001
,
1001
0000
1001
0000
1100
0000
1100
2200
,
3300
0011
0110
1001
,
1100
0110
0011
0011
,
0110
1100
1010
0110
,
0101
0101
0110
1010
,
1010
1001
0110
1001
,
0011
0110
1100
1100
,
0110
0011
0101
0110
,
1010
1010
0110
0101
,
0101
1001
0110
1001
,
1000
0100
1000
0100
1000
0100
1000
0200
,
0000
0310
0001
0010
0001
0000
0011
0000
,
0001
0010
0001
0010
0002
0000
0023
0032
,
0003
0001
1000
0100
1000
0000
1100
0000
,
1100
0220
0330
0000
0011
0220
0330
0000
,
1100
0220
0330
0000
0011
0220
0330
0000
,
0001
0010
0001
0010
0001
0010
0001
0010
,
0100
0010
0100
0010
0100
0020
0000
0030
,
0000
0000
0000
0000
1000
0100
0010
0001
0000
1000
0000
0100
0000
0010
0000
0001
,
0000
1000
0000
0100
0000
0010
0000
0001
0000
1000
0000
0200
0000
1300
0100
2000
,
3000
0000
0000
0000
1000
0010
0100
0001
0000
1000
0000
0010
0000
0100
0000
0001
,
0000
1000
0000
0010
0000
0100
0000
0001
0000
2000
0000
3020
0000
1030
0010
2000
,
3000
0000
0000
0000
1000
0100
0010
0001
0000
1000
0000
0100
0000
0010
0000
0001
,
0000
1000
0000
0100
0000
0010
0000
0001
0000
1000
0000
0100
1000
0100
1000
0200
,
0300
0000
0000
0000
1000
0010
0100
0001
0000
1000
0000
0010
0000
0100
0000
0001
,
0000
1000
0000
0010
0000
0100
0000
0001
0000
2000
0000
0020
0000
0000
3030
0000
,
1000
0100
0000
1001
0000
1001
0000
0110
,
0000
0110
0000
1001
0000
1001
0000
0110
,
0000
0110
0000
1001
0000
1001
0000
0220
,
0000
0330
0110
0000
0100
1000
0100
0010
,
0000
0000
0000
1100
0000
1100
0000
0022
,
0000
0033
0000
1100
0000
1100
0000
0022
,
0000
0033
0000
1100
0000
1100
0000
0022
,
0000
0033
0011
0000
0010
0000
0100
1000
,
1100
1100
1100
1100
,
1100
0000
1100
0000
0000
1000
0100
1000
,
0220
0300
0230
0000
2300
0000
0002
0000
,
3000
2000
0000
0000
0000
0000
3003
0000
,
1010
1010
1010
1010
,
1010
0000
1010
0000
0000
0001
0010
0001
,
0220
0030
0320
0000
2030
0000
0000
0002
,
0000
3000
2000
0000
0000
0000
3003
0000
,
1000
0010
0100
0010
1000
0010
0100
0010
,
1000
0010
0100
0010
1000
0010
0100
0010
,
1000
0001
0010
0001
0100
0001
1000
0100
,
0010
0100
0001
0400
4000
0000
3300
0000
,
1000
0100
1000
0010
1000
0100
1000
0001
,
1000
0010
1000
0100
0010
0001
0100
0010
,
1000
0100
0010
0001
0100
0010
1000
0100
,
1000
0100
1000
0001
1000
0010
0100
0000
,
0001
0100
0040
0000
0000
0030
1000
0100
,
0040
0000
0000
0030
0001
0100
0010
1000
,
0001
0100
1000
0100
0001
1000
0100
1000
,
0020
0000
0000
0000
0000
0000
0030
0100
,
0001
1000
0100
1000
0001
0100
0001
1000
,
0010
0100
0001
0010
0001
0100
0010
0100
,
0202
0000
0003
0000
2302
0000
3003
0000
2200
0000
0000
3300
1000
0000
0100
0000
,
0020
0000
0000
0030
0220
0000
0000
0000
,
2330
0000
0100
0000
0100
0000
0100
3000
,
2100
0100
0100
0100
,
3210
0010
0010
0010
,
0321
0001
0001
0001
,
0032
0000
0010
0000
0010
0000
0010
0003
,
0044
0000
0000
0000
0000
0000
0000
0033
,
0101
0101
0101
0101
,
0022
0033
0022
0033
0022
0033
0022
0033
,
0001
0100
0001
0100
0001
0100
0001
0200
,
0000
0310
1000
0010
1000
0000
1010
0000
,
0001
0010
0001
0010
0002
0000
0023
0032
,
0000
1003
0100
1000
0100
0000
1100
0000
,
1100
0220
0330
0000
0011
0220
0330
0000
,
1100
0220
0330
0000
0011
0220
0330
0000
,
0001
0010
0001
0010
0001
0010
0001
0010
,
0100
0010
0100
0010
0100
0020
0000
0030
,
0000
0000
0000
0000
1000
0100
0010
0002
0000
2003
0000
3200
0000
0320
0000
0032
0000
2003
0000
3200
0000
0320
0000
0032
0000
0000
2003
0000
3100
1000
0100
2000
,
3000
0000
0000
0000
0001
0100
0010
2000
0000
3002
0000
0203
0000
0320
0000
2030
0000
3002
0000
0203
0000
0320
0000
2030
3000
0001
1000
0001
1000
0010
0100
0002
,
0003
0000
0000
0000
0000
0000
0000
0000
0000
0000
0000
0000
1000
0000
0000
0100
0000
0000
0010
0000
0000
0000
0001
0000
,
0000
0000
1000
0000
0000
0100
0000
0000
0010
0000
0000
0001
,
0000
0000
1000
0000
0000
0100
0000
0000
0010
0000
0000
0001
,
0000
0000
0000
0000
1000
0000
0000
0000
0000
0000
0100
0000
0000
1000
0000
0000
0100
0000
0000
1000
0000
0000
0200
0000
,
0000
0000
0000
0000
0000
0000
0000
0300
0000
0000
0000
0000
0001
0000
0000
0010
0000
0000
0100
0000
0000
0000
1000
0000
,
0000
0000
0001
0000
0000
0010
0000
0000
0100
0000
0000
1000
,
0000
0000
0000
0000
0001
0000
0000
0000
0000
0000
0010
0000
0000
0000
0000
0000
0100
0000
0000
0000
0000
2002
0000
0000
,
0000
0000
0000
0000
0000
3003
0000
0000
1000
0000
0000
0100
0000
0000
0000
0000
0000
1001
0000
0000
0000
0000
0000
1001
,
0000
0000
0000
0000
0000
0110
0000
0000
0000
0000
0000
0110
0000
0000
0000
0000
0000
1001
0000
0000
0000
0000
0000
1001
,
0000
0000
0000
0000
0000
0110
0000
0000
0000
0000
0000
0110
0000
0000
0000
0000
0000
1001
0000
0000
0000
0000
0000
1001
,
0000
0000
0000
0000
0000
0220
0000
0000
0000
0000
0000
0330
0000
0000
0110
0000
0000
0000
0000
0000
0100
0000
0000
0010
,
0000
0000
0100
0000
0000
0010
0000
0000
0000
0000
0000
0000
0000
0000
0000
0000
0000
0101
0000
0000
0000
0000
0000
0101
,
0000
0000
0000
0000
0000
2020
0000
0000
0000
0000
0000
3030
0000
0000
0000
0000
0000
0101
0000
0000
0000
0000
0000
0101
,
0000
0000
0000
0000
0000
2020
0000
0000
0000
0000
0000
3030
0000
0000
0000
0000
0000
0101
0000
0000
0000
0000
0000
0101
,
0000
0000
0000
0000
0000
2020
0000
0000
0000
0000
0000
3030
0000
0000
1010
0000
0000
0000
0000
0000
0010
0000
0000
0000
,
0000
0000
0100
0000
0000
0002
0000
0000
0000
0000
0000
0000
0000
0000
0000
0003
0000
0000
0000
0000
0000
0000
0000
1001
,
0000
0000
0000
0000
0000
0000
0000
0000
0000
0000
0000
1001
0000
0000
0000
0000
0000
0000
0000
0000
0000
0000
0000
0110
,
0000
0000
0000
0000
0000
0000
0000
0000
0000
0000
0000
0110
0000
0000
0000
0000
0000
0000
0000
0000
0000
0000
0000
1001
,
0000
0000
0000
0000
0000
0000
0000
0000
0000
0000
0000
1001
0000
0000
0000
0000
0000
0000
0000
0000
0000
0000
0000
0110
,
0000
0000
0000
0000
0000
0000
0000
0000
0000
0000
0000
0110
0000
0000
0000
0000
0000
0000
0000
0000
0000
0000
0000
1001
,
0000
0000
0000
0000
0000
0000
0000
0000
0000
0000
0000
1001
0000
0000
0000
0000
0000
0000
0000
0000
0000
0000
0000
0220
,
0000
0000
0000
0000
0000
0000
0000
0000
0000
0000
0000
0330
0000
0000
0000
0000
0000
0110
0000
0000
0000
0000
0000
0000
,
0000
0000
0000
0000
0000
0100
0000
0000
0000
0000
0000
0100
0000
0000
0000
0000
0000
0100
0000
0000
0000
0000
0000
0020
,
0000
0000
0000
0000
0000
0000
0000
0000
0000
0000
0000
0030
0000
0000
0000
0000
0000
0000
0000
0000
0000
0000
0000
1100
,
0000
0000
0000
0000
0000
0000
0000
0000
0000
0000
0000
1100
0000
0000
0000
0000
0000
0000
0000
0000
0000
0000
0000
0022
,
0000
0000
0000
0000
0000
0000
0000
0000
0000
0000
0000
0033
0000
0000
0000
0000
0000
0000
0000
0000
0000
0000
0000
1100
,
0000
0000
0000
0000
0000
0000
0000
0000
0000
0000
0000
1100
0000
0000
0000
0000
0000
0000
0000
0000
0000
0000
0000
0022
,
0000
0000
0000
0000
0000
0000
0000
0000
0000
0000
0000
0033
0000
0000
0000
0000
0000
0000
0000
0000
0000
0000
0000
1100
,
0000
0000
0000
0000
0000
0000
0000
0000
0000
0000
0000
1100
0000
0000
0000
0000
0000
0000
0000
0000
0000
0000
0000
0022
,
0000
0000
0000
0000
0000
0000
0000
0000
0000
0000
0000
0033
0000
0000
0000
0000
0000
0011
0000
0000
0000
0000
0000
0000
,
0000
0000
0000
0000
0000
0100
0000
0000
0000
0000
0000
0010
0000
0000
0000
0000
0000
0100
0000
0000
0000
0000
0000
0000
,
0020
0030
0000
0000
;
