#VERSION:0.83;
#TITLE:大宇宙ステージ;
#SUBTITLE:;
#ARTIST:黒魔;
#TITLETRANSLIT:Universe Stage;
#SUBTITLETRANSLIT:;
#ARTISTTRANSLIT:Chroma;
#GENRE:;
#ORIGIN:;
#CREDIT:;
#BANNER:Universe Stage-bn.png;
#BACKGROUND:Universe Stage-bg.jpg;
#PREVIEWVID:;
#JACKET:Universe Stage-jacket.png;
#CDIMAGE:;
#DISCIMAGE:;
#LYRICSPATH:;
#CDTITLE:;
#MUSIC:Universe Stage.mp3;
#OFFSET:1.164000;
#SAMPLESTART:32.885006;
#SAMPLELENGTH:15.000000;
#SELECTABLE:YES;
#BPMS:0.000=202.000,
236.000=101.000,
252.000=202.000;
#STOPS:;
#DELAYS:;
#WARPS:;
#TIMESIGNATURES:0.000=4=4;
#TICKCOUNTS:0.000=4;
#COMBOS:0.000=1;
#SPEEDS:0.000=1.000=0.000=0;
#SCROLLS:0.000=1.000;
#FAKES:;
#LABELS:0.000=Song Start;
#BGCHANGES:;
#KEYSOUNDS:;
#ATTACKS:
;

//---------------dance-single - ----------------
#NOTEDATA:;
#CHARTNAME:;
#STEPSTYPE:dance-single;
#DESCRIPTION:;
#CHARTSTYLE:;
#DIFFICULTY:Beginner;
#METER:2;
#RADARVALUES:0.129121,0.196445,0.016286,0.057000,0.000000,111.000000,109.000000,2.000000,7.000000,0.000000,0.000000,0.000000,0.000000,0.000000,0.129121,0.196445,0.016286,0.057000,0.000000,111.000000,109.000000,2.000000,7.000000,0.000000,0.000000,0.000000,0.000000,0.000000;
#CREDIT:;
#NOTES:
0000
0000
0000
0000
,
0200
0000
0000
0000
,
0000
0000
0000
0000
,
0310
0000
0000
0000
,
0010
0000
0000
0000
,
1000
0000
0000
0000
,
1000
0000
0000
0000
,
0001
0000
0000
0000
,
0010
0000
0000
0000
,
1000
0000
0000
0000
,
1000
0000
0000
0000
,
0001
0000
0000
0000
,
0001
0000
0000
0000
,
0010
0000
0000
0000
,
0010
0000
0000
0000
,
0100
0000
0000
0000
,
0100
0000
0000
0000
,
1000
0000
0000
0000
,
1000
0000
0000
0000
,
1001
0000
0000
0000
,
0000
0000
0000
0000
,
0020
0000
0000
0000
,
0000
0000
0000
0000
,
0030
0000
0000
0000
,
0100
0000
0000
0000
,
0100
0000
0000
0000
,
0010
0000
0000
0000
,
0100
0000
0000
0000
,
0010
0000
0000
0000
,
1000
0000
0001
0000
,
1000
0000
0001
0000
,
0100
0000
0010
0000
,
0100
0000
0010
0000
,
1000
0000
0001
0000
,
1000
0000
0001
0000
,
0100
0000
0010
0000
,
0100
0000
0010
0000
,
1000
0000
0000
0000
,
0001
0000
0000
0000
,
1000
0000
0000
0000
,
0010
0000
0000
0000
,
0001
0000
0000
0000
,
0100
0000
0000
0000
,
0001
0000
0000
0000
,
1000
0000
0000
0000
,
0100
0000
0000
0000
,
0100
0000
0000
0000
,
0110
0000
0000
0000
,
0010
0000
0000
0000
,
0001
0000
0000
0000
,
1000
0000
0000
0000
,
0001
0000
0000
0000
,
0200
0000
0300
0000
,
0001
0000
0000
0001
,
0000
0000
1000
0000
,
0010
0000
0010
0000
,
0010
0000
0200
0000
,
0000
0000
0000
0000
,
0300
0000
0000
0000
,
0010
0000
0000
0000
,
0000
0000
0000
0000
,
0010
0000
0000
0000
,
0200
0000
0000
0000
,
0310
0000
0000
0000
,
0010
0000
0000
0000
,
0001
0000
0000
0000
,
0001
0000
0000
0000
,
1000
0000
0000
0000
,
1000
0000
0000
0000
,
0010
0000
0000
0000
,
0010
0000
0000
0000
,
0100
0000
0000
0000
,
0100
0000
0000
0000
,
0001
0000
0000
0000
,
0001
0000
0000
0000
,
0010
0000
0000
0000
,
0010
0000
0000
0000
,
0200
0000
0000
0000
,
0310
0000
0000
0000
,
0001
0000
0000
0000
,
1000
0000
0000
0000
,
0001
0000
0000
0000
,
0001
0000
0000
0000
,
0100
0000
0000
0000
,
0010
0000
0000
0000
,
0100
0000
0000
0000
,
0100
0000
0000
0000
,
1000
0000
0001
0000
,
1000
0000
0001
0000
,
0100
0000
0010
0000
,
0100
0000
0010
0000
,
1000
0000
0001
0000
,
1000
0000
0001
0000
,
0100
0000
0010
0000
,
0100
0000
0010
0000
,
1000
0000
0000
0001
0000
0000
0000
0000
,
0200
0000
0300
0000
;

//---------------dance-single - ----------------
#NOTEDATA:;
#CHARTNAME:;
#STEPSTYPE:dance-single;
#DESCRIPTION:;
#CHARTSTYLE:;
#DIFFICULTY:Easy;
#METER:8;
#RADARVALUES:0.301283,0.392890,0.113999,0.244284,0.012214,259.000000,245.000000,14.000000,30.000000,0.000000,0.000000,0.000000,0.000000,0.000000,0.301283,0.392890,0.113999,0.244284,0.012214,259.000000,245.000000,14.000000,30.000000,0.000000,0.000000,0.000000,0.000000,0.000000;
#CREDIT:;
#NOTES:
0000
0000
0000
0000
,
0200
0000
0000
0000
,
0000
0000
0000
0000
,
0310
0000
0000
0000
,
0010
0000
0000
0000
0000
0200
0000
0000
,
0310
0000
0000
0000
,
1000
0000
0000
0000
0000
0200
0000
0000
,
0310
0000
0010
0000
,
0100
0000
0000
0000
0001
1000
0000
0000
,
1000
0000
0000
0000
0000
0000
0000
1000
0000
0000
0000
0000
,
0002
0000
0000
0000
0000
0203
0000
0000
,
0310
0100
0000
0100
,
0000
0010
0000
0010
,
0000
1000
0000
1000
,
0000
0001
0000
0001
,
0000
0010
0000
0010
,
0000
1000
0000
1000
,
0001
0000
0001
0000
,
1000
0000
0001
0000
0100
0000
0010
0100
,
0010
0000
0000
0000
,
0200
0000
0000
0000
,
0320
0000
0000
0000
,
2030
0000
0000
0000
,
3001
0000
0000
0000
,
0001
0000
0000
0000
0000
2000
0000
0000
,
3010
0000
0000
0000
,
0110
0000
0000
0000
0000
0002
0000
0000
,
0103
0000
0000
0000
,
0110
0000
0100
0001
,
0100
0010
1000
0001
,
0100
0000
0010
0000
1000
0000
0001
0010
,
0001
0100
0010
1000
,
0001
0000
0100
0000
0010
0000
1000
0100
,
1000
0010
0100
0001
,
1000
0000
0010
0000
0100
0000
0001
0010
,
0001
0100
0010
1000
,
0001
0100
0010
1000
,
1001
0000
0000
0000
0000
0001
0000
0100
,
0000
0020
0000
0000
0000
0130
0000
0000
,
0001
0000
0000
2000
0000
0000
0000
0000
,
3000
0000
0020
0000
0000
0000
0000
0000
0000
0000
0000
0000
0000
0000
0000
0130
0000
0000
0000
0000
0000
0000
0000
0000
,
0100
0000
0010
0100
0000
0000
0010
0000
,
0000
1000
0100
0001
,
0010
0000
0001
0000
0100
0001
0100
0000
,
0000
0010
0000
0000
0000
0000
0010
0000
0000
0000
0000
0000
,
2000
0000
0010
0000
,
3002
0000
0100
0000
,
1003
0000
0000
2000
0000
0000
0000
0000
,
0010
0000
0001
0000
,
3020
0000
0000
0000
0000
0130
0000
0000
,
0001
0100
0010
0010
,
1001
0000
0110
0000
,
0001
0001
0001
0000
,
1000
0100
0000
0001
,
0100
0000
1000
0100
,
0001
0010
0100
1000
,
0001
0100
0010
1000
,
0001
0000
0010
0000
0100
0000
1000
0001
,
0100
0000
0000
0000
,
0020
0000
0000
0000
,
0230
0000
0000
0000
,
0320
0000
0000
0000
,
2030
0000
3002
0203
,
0310
0000
0010
0100
,
0010
0000
0100
0000
,
0001
0010
0100
1000
,
0001
0000
1000
0000
,
0010
0000
0100
0010
,
0100
0000
0001
0000
,
1000
0100
0010
0001
,
0100
0000
0010
0000
,
1010
0000
0001
0100
,
0001
0000
0001
0000
,
1000
0100
1000
0010
,
1000
0000
1000
0000
,
0110
0000
0100
0001
,
0100
0000
0001
0010
,
1001
0000
0000
0000
,
0200
0000
0000
0310
,
0002
0000
0000
0000
,
2003
0000
0000
0000
,
3010
0000
0000
0000
,
0110
0000
0000
0000
0000
0002
0000
0000
,
1003
0000
0000
0000
,
0110
0000
0000
0000
0000
2000
0000
0000
,
3001
0000
0000
0000
,
0110
0000
0100
0001
,
0100
0010
1000
0001
,
0100
0000
0010
0000
1000
0000
0001
0010
,
0001
0100
0010
1000
,
0001
0000
0100
0000
0010
0000
1000
0100
,
1000
0010
0100
0001
,
1000
0000
0010
0000
0100
0000
0001
0010
,
0001
0100
0010
1000
,
0001
0100
0010
1000
,
1001
0000
0000
0110
0000
0000
0000
0000
,
2002
0000
3003
0000
;

//---------------dance-single - ----------------
#NOTEDATA:;
#CHARTNAME:;
#STEPSTYPE:dance-single;
#DESCRIPTION:;
#CHARTSTYLE:;
#DIFFICULTY:Medium;
#METER:13;
#RADARVALUES:0.532771,0.785779,0.146570,0.219855,0.219855,458.000000,440.000000,18.000000,27.000000,0.000000,0.000000,0.000000,0.000000,0.000000,0.532771,0.785779,0.146570,0.219855,0.219855,458.000000,440.000000,18.000000,27.000000,0.000000,0.000000,0.000000,0.000000,0.000000;
#CREDIT:;
#NOTES:
0000
0000
0000
0000
,
0200
0000
0000
0000
,
0000
0000
0000
0000
,
0310
0000
0000
0000
0000
0000
0000
0010
,
0100
0000
0000
0000
0000
0020
0000
0000
,
1030
0000
0000
0000
0000
0000
0000
0001
,
1000
0000
0000
0000
0000
0002
0000
0000
,
1003
0000
0100
0000
0000
0000
0100
0010
,
0100
0000
0000
0000
0100
0000
0000
0100
0000
0000
2000
0000
0000
0000
0000
0000
,
3001
0000
0000
0000
0000
0000
0000
0000
0000
0000
0000
0000
0000
0000
0001
0000
0000
0000
0000
0000
0000
1000
0000
0000
,
0001
0000
1000
0000
0001
0000
0000
0001
0000
0000
0002
0000
0000
0000
0000
0000
,
0013
0000
0100
0000
0000
0000
0100
0010
,
0100
0000
0000
0000
0010
0000
0000
0010
0000
0000
0020
0000
0000
0000
0000
0000
,
0031
0000
1000
0000
0000
0000
1000
0001
,
1000
0000
0000
0000
1000
0000
0000
1000
0000
0000
2000
0000
0000
0000
0000
0000
,
3010
0000
0100
0000
0000
0000
0100
0010
,
0100
0000
0000
0000
0100
0000
0000
0100
0000
0000
0200
0000
0000
0000
0000
0000
,
0310
0000
0000
0000
1000
0000
1000
0000
0001
0000
0000
0001
0000
0000
1000
0000
,
0000
1000
0000
0000
0001
0000
1000
0000
0001
0000
1000
0000
0001
0000
1000
0001
,
1000
0000
0000
0000
,
0210
0000
0000
0000
,
0320
0100
0000
1000
,
0100
1000
0000
1000
,
0130
0010
0000
0010
,
0100
0010
0000
0010
,
0001
1000
0000
1000
,
0001
1000
0000
1000
,
0010
0100
0000
0100
,
0010
0000
0100
0000
0010
0100
0010
1000
,
0001
0100
0010
1000
0001
0100
0010
1000
,
0001
0100
0010
1000
0001
0100
0010
1000
,
0010
0100
0001
1000
0010
0100
0001
1000
,
0010
0100
0001
1000
0010
0100
0001
1000
,
0001
0100
0010
1000
0001
0100
0010
1000
,
0001
0100
0010
1000
0001
0100
0010
1000
,
0010
0100
0001
1000
0010
0100
0001
1000
,
0010
0100
0001
1000
0010
0100
0001
1000
,
1001
0102
0000
0103
,
0000
2100
0000
3100
,
0002
0000
0000
0000
0000
0000
0103
0010
0100
0010
0100
0010
,
0000
0000
2000
0000
0000
0000
0000
0000
0000
0000
0000
0002
3000
0000
0000
0000
0000
0000
0000
0000
0000
0000
0000
0000
,
0103
2010
0000
3010
,
0000
0012
0000
0013
,
0000
0000
0000
0000
2000
0000
0000
0000
3001
0100
0001
0100
0001
0100
0001
0100
,
0000
0000
0000
0000
0002
0000
0000
0000
0000
0000
0000
0000
0000
0000
0000
0000
0000
0000
0000
0000
0000
0000
0000
0000
0000
0000
0000
0000
0000
0000
1003
0000
0000
0010
0000
0000
0100
0000
0000
0000
0000
0000
0010
0000
0000
0000
0000
0000
,
1001
0100
1000
0000
0010
0000
0100
0001
,
0010
0000
0100
0000
0001
1000
0010
0100
,
0010
0020
0130
2010
0010
0000
0010
0010
,
3000
0010
0100
0001
0010
0100
1000
0001
,
2000
0000
3000
0000
0000
0120
0000
0000
,
0130
0000
0000
0000
0001
0000
0000
0000
0100
0000
0000
0100
0000
0000
0010
0000
,
0110
0000
1001
0000
,
0001
0010
0100
1000
0010
0100
0001
0000
0000
0000
0000
0000
,
1000
0010
1000
0010
0000
0000
0000
0000
0000
0001
0010
0001
,
0010
0000
0000
0000
0000
0000
1000
0000
1000
0001
0000
0001
,
0100
0010
0100
0010
0100
0000
0001
1000
0001
1000
0001
0000
,
0100
0010
0100
0010
0100
0000
0001
0000
0001
0100
0000
0100
,
1000
0000
1000
0010
0000
0010
0001
0000
0001
0100
0010
0100
,
0001
0000
0000
0000
,
0000
0000
1000
1000
0100
0000
0001
0000
,
0010
0001
0100
1000
0010
0000
0010
0000
,
0000
0000
0001
0100
1000
0000
1000
0100
,
0010
0001
0100
0010
0100
0000
0100
0000
,
1001
0000
0001
0100
,
1000
0000
1000
0000
,
1000
0010
0001
0010
,
0100
0000
0100
0000
,
1001
0000
0100
0010
,
0001
0000
1000
0001
,
0010
0100
1000
0001
,
0100
0000
0010
0000
,
0110
0000
0001
0100
,
1000
0000
1000
0000
,
0001
0100
0010
0001
,
0100
0000
1000
0000
,
0001
0100
0010
0010
,
1000
0100
0010
0100
,
1001
0000
0000
0000
,
0010
0100
0010
0100
0010
0100
0010
0100
0010
0200
0000
0000
,
0320
0100
0000
1000
,
0100
1000
0000
1000
,
0130
0010
0000
0010
,
0100
0010
0000
0010
,
0001
1000
0000
1000
,
0001
1000
0000
1000
,
0010
0100
0000
0100
,
0010
0000
0100
0000
0010
0100
0010
1000
,
0001
0100
0010
1000
0001
0100
0010
1000
,
0001
0100
0010
1000
0001
0100
0010
1000
,
0010
0100
0001
1000
0010
0100
0001
1000
,
0010
0100
0001
1000
0010
0100
0001
1000
,
0001
0100
0010
1000
0001
0100
0010
1000
,
0001
0100
0010
1000
0001
0100
0010
1000
,
0010
0100
0001
1000
0010
0100
0001
1000
,
0010
0100
0001
1000
0010
0100
0001
1000
,
1001
0000
0000
0110
0000
0000
0000
0000
,
2002
0000
3003
0000
;

//---------------dance-single - ----------------
#NOTEDATA:;
#CHARTNAME:;
#STEPSTYPE:dance-single;
#DESCRIPTION:;
#CHARTSTYLE:;
#DIFFICULTY:Hard;
#METER:18;
#RADARVALUES:1.044604,1.807293,0.284998,0.350140,1.437203,898.000000,863.000000,35.000000,43.000000,0.000000,0.000000,0.000000,0.000000,0.000000,1.044604,1.807293,0.284998,0.350140,1.437203,898.000000,863.000000,35.000000,43.000000,0.000000,0.000000,0.000000,0.000000,0.000000;
#CREDIT:;
#NOTES:
0000
0000
0000
0000
,
0010
0100
0010
0100
0010
0100
0010
0100
0010
0100
0010
0100
0010
0100
0010
0100
,
0001
1000
0001
1000
0001
1000
0001
1000
0001
1000
0001
1000
0001
1000
0001
1000
,
0010
0000
0000
0000
0000
0000
0000
0010
,
0100
0000
0000
0000
0000
0020
0000
0000
,
1030
0000
0000
0000
0000
0000
0000
1000
,
0001
0000
0000
0000
0000
0002
0000
0000
,
0103
0000
0100
0000
0010
0000
1000
0001
1000
0001
0100
0000
0001
0000
0101
0000
,
1010
0000
1000
0000
0001
0000
1000
0010
0000
0000
0021
0000
0000
0000
0000
0000
,
0230
0000
0000
0000
0000
0000
0310
0000
0010
0000
0100
0000
0010
0000
1001
0000
0000
0000
0000
0000
0000
0110
0000
0000
,
1001
0000
0100
0010
0100
0000
0010
0100
0000
0010
0200
0000
0000
0000
0000
0000
,
0310
0000
0010
0000
1000
0000
0001
0010
0001
1000
0001
0000
0100
0000
0110
0000
,
0101
0000
0001
0000
1000
0000
0100
1000
0000
0100
2000
0000
0000
0000
0000
0000
,
3010
0000
0010
0000
0100
0000
0010
1000
0100
1000
0010
0000
0100
0000
0101
0000
,
1001
0000
1000
0000
0001
0000
0100
0001
0000
0100
0002
0000
0000
0000
0000
0000
,
0103
0000
0100
0000
0010
0000
1000
0001
0010
0100
1000
0000
0010
0000
0110
0000
,
0101
0000
0001
0000
1000
0000
0100
1000
0000
0100
2000
0000
0000
0000
0000
0000
,
3001
0000
0010
0000
0100
1000
0100
0000
0010
0001
0000
0010
0001
0000
0010
0100
,
1000
0001
1000
0001
0100
0010
0100
0001
1000
0010
0100
0010
1000
0001
0010
0100
,
2000
0000
0000
0000
,
3001
0010
1000
0001
0100
1000
0001
0010
1000
0001
0100
1000
,
0002
0000
0100
0000
0000
0000
0100
1000
,
2003
0000
0010
0000
0000
0001
0000
0000
,
3001
0000
0000
0100
0000
0000
0100
0010
,
0010
0000
0000
0100
0000
1001
0000
0000
,
0110
0000
0000
0010
0000
0000
1000
0010
,
0010
0000
0000
0100
0000
1010
0000
0000
,
1001
0000
0000
0001
0000
0000
0001
1000
,
1000
0000
0000
0000
0000
0000
0010
0000
0000
0000
0100
0000
0001
0010
0100
1000
,
0001
0100
0010
1000
0001
0100
0010
1000
0001
0100
0010
1000
0001
0100
0010
1000
,
0001
0100
0010
1000
0001
0100
0010
1000
0001
0100
0010
1000
0001
0100
0010
1000
,
0001
1000
0010
0100
0001
1000
0010
0100
0001
1000
0010
0100
0001
1000
0010
0100
,
0001
1000
0010
0100
0001
1000
0010
0100
0001
1000
0010
0100
0001
1000
0010
0100
,
0010
1000
0001
0100
0010
1000
0001
0100
0010
1000
0001
0100
0010
1000
0001
0100
,
0010
1000
0001
0100
0010
1000
0001
0100
0010
1000
0001
0100
0010
1000
0001
1000
,
0010
0100
0001
1000
0010
0100
0001
1000
0010
0100
0001
1000
0010
0100
0001
1000
,
0010
0100
0001
1000
0010
0100
0001
1000
0010
0100
0001
1000
0010
0100
0001
1000
,
0010
0000
0000
0000
0000
0010
0000
0100
,
0000
0002
0000
0000
0000
1003
0000
0000
,
0001
0000
0000
0000
0000
0000
0000
0000
0000
0010
0000
0000
0100
0000
0100
0000
0100
0000
0010
0000
0010
0000
0010
0000
,
0000
0000
1010
0000
0000
0000
1100
0000
0000
0000
0000
0101
0000
0000
0000
0011
0000
0000
1000
0000
0000
0001
0000
0000
,
0100
0000
0010
0100
0000
0100
0010
0100
,
0000
0100
1000
0100
0010
0010
1000
0010
,
0001
0000
0010
0000
1000
0000
0100
0000
0010
0001
1000
0001
0010
0001
1000
0001
,
0000
0000
0000
0000
0100
0000
0000
0000
0000
0000
0000
0000
0100
0000
0000
0000
0000
0000
0000
0000
0100
0000
0000
0000
0010
0000
0000
0000
0100
0000
0001
0000
0000
1000
0000
0000
0001
0000
0000
1000
0000
0000
0001
0000
0000
1000
0000
0000
,
0010
0000
0100
0000
0010
0100
1000
0000
0100
0000
0010
0100
0001
0000
0010
0000
,
0001
0010
1000
0000
0010
0000
0001
1000
0100
1000
0010
0000
0100
0000
0001
0000
,
0100
0102
0013
2001
0001
0000
0010
0001
,
3000
0000
0001
0000
0100
0000
0010
0000
1000
0001
1000
0001
0100
0010
1000
0001
,
2000
0010
3100
0010
0100
0020
0000
0030
,
0001
0000
1000
0000
0001
0000
1000
0000
0100
0000
0010
0100
0000
0010
0100
0000
,
1001
0000
0000
0000
0000
0000
0100
0010
1001
0000
0000
0000
0000
0000
0000
0100
,
0010
0010
0010
0100
0100
0100
0010
0000
0000
0000
0000
0000
,
1000
0100
0010
0001
0000
0000
0000
0000
0000
0001
0010
0100
,
1000
0000
0000
0000
0000
0000
1000
0100
0010
0001
0010
0100
,
1000
0010
0001
0010
1000
0000
0001
0010
1000
0010
0001
0000
,
1000
0100
0001
0100
1000
0000
0001
0100
1000
0100
0001
0010
,
1000
0001
1000
0010
0001
1000
0010
0100
1000
0001
1000
0100
,
0001
0000
0000
0000
,
2000
0000
0000
0000
3010
1000
0020
0000
0000
0000
1030
0010
2000
0000
0000
0000
3010
1000
0020
0000
0000
0000
1030
0010
2000
0000
3010
1000
0020
0000
0000
0000
,
0230
0000
0000
0000
0301
0100
0002
0000
0000
0000
0103
0001
0200
0000
0000
0000
0301
0100
0002
0000
0000
0000
0103
0001
0200
0000
0301
0100
0002
0000
0000
0000
,
2003
0000
0000
0000
3010
1000
0020
0000
0000
0000
1030
0010
2000
0000
0000
0000
3010
1000
0020
0000
0000
0000
1030
0010
2000
0000
3010
1000
0020
0000
0000
0000
,
0230
0000
0000
0000
0310
0100
0010
0100
0001
1000
0001
1000
0001
1000
0001
1000
0010
0100
0001
1000
0010
0100
0001
1000
0010
0100
0001
0010
0100
1000
0001
0010
,
0100
0000
0000
0000
1000
0100
0010
0000
0000
0000
0001
0100
0010
0000
0000
0000
,
1000
0100
0010
0000
0000
0000
0001
0100
0010
0000
0100
0000
1010
0000
0000
0000
,
0001
0000
0000
0000
0010
0001
0100
0000
0000
0000
0010
1000
0100
0000
0000
0000
,
1000
0001
0010
0000
0000
0000
0001
1000
0100
0000
0010
0000
0101
0000
0000
0000
,
0110
0000
0000
0000
0010
0100
0010
0000
0000
0000
0100
0010
0100
0000
0000
0000
,
0100
0010
0100
0000
0000
0000
0010
0100
0010
0000
0100
0000
0110
0000
0001
0000
,
1000
0000
0000
0000
0001
1000
0001
0000
0000
0000
1000
0001
1000
0000
0000
0000
,
1000
0001
1000
0000
0000
0000
0001
1000
0001
0000
1000
0000
1001
0000
0000
0000
,
1020
0000
0000
0000
1000
0001
0000
0000
0000
0000
0001
1000
0000
0000
0000
0000
,
1000
0001
0000
0000
0000
0000
0001
1000
0000
0000
1000
0001
0000
0000
0000
0000
,
0230
0000
0000
0000
1000
0001
0000
0000
0000
0000
0001
1000
0000
0000
0000
0000
,
1000
0001
0000
0000
0000
0000
0001
1000
0000
0000
1000
0001
0000
0000
0000
0000
,
0301
1000
0001
1000
0001
1000
0001
1000
0001
1000
0001
1000
0001
1000
0001
1000
,
0010
0100
0010
0100
0010
0100
0010
0100
0010
0100
0010
0100
0010
0100
0010
0100
,
0002
0000
0000
0000
,
1003
0010
0010
0001
0010
0010
1000
0100
0100
0001
0000
0000
,
0002
0000
0100
0000
0000
0000
0100
1000
,
2003
0000
0010
0000
0000
0001
0000
0000
,
3001
0000
0000
0100
0000
0000
0100
0010
,
0010
0000
0000
0100
0000
1001
0000
0000
,
0110
0000
0000
0010
0000
0000
1000
0010
,
0010
0000
0000
0100
0000
1010
0000
0000
,
1001
0000
0000
0001
0000
0000
0001
1000
,
1000
0000
0000
0000
0000
0000
0010
0000
0000
0000
0100
0000
0001
0010
0100
1000
,
0001
0100
0010
1000
0001
0100
0010
1000
0001
0100
0010
1000
0001
0100
0010
1000
,
0001
0100
0010
1000
0001
0100
0010
1000
0001
0100
0010
1000
0001
0100
0010
1000
,
0001
1000
0010
0100
0001
1000
0010
0100
0001
1000
0010
0100
0001
1000
0010
0100
,
0001
1000
0010
0100
0001
1000
0010
0100
0001
1000
0010
0100
0001
1000
0010
0100
,
0010
1000
0001
0100
0010
1000
0001
0100
0010
1000
0001
0100
0010
1000
0001
0100
,
0010
1000
0001
0100
0010
1000
0001
0100
0010
1000
0001
0100
0010
1000
0001
1000
,
0010
0100
0001
1000
0010
0100
0001
1000
0010
0100
0001
1000
0010
0100
0001
1000
,
0010
0100
0001
1000
0010
0100
0001
1000
0010
0100
0001
1000
0010
0100
0001
1000
,
0010
0000
0000
0000
0100
0100
0020
0000
0000
0000
0030
0000
0001
1000
0001
1000
,
2002
0000
3003
0000
;

//---------------dance-double - ----------------
#NOTEDATA:;
#CHARTNAME:;
#STEPSTYPE:dance-double;
#DESCRIPTION:;
#CHARTSTYLE:;
#DIFFICULTY:Easy;
#METER:8;
#RADARVALUES:0.312916,0.392890,0.146570,0.219855,0.008143,269.000000,251.000000,18.000000,27.000000,0.000000,0.000000,0.000000,0.000000,0.000000,0.312916,0.392890,0.146570,0.219855,0.008143,269.000000,251.000000,18.000000,27.000000,0.000000,0.000000,0.000000,0.000000,0.000000;
#CREDIT:;
#NOTES:
00000000
00000000
00000000
00000000
,
00002000
00000000
00000000
00000000
,
00000000
00000000
00000000
00000000
,
00013000
00000000
00000000
00000000
,
00010000
00000000
00000000
00000000
00000000
00002000
00000000
00000000
,
00013000
00000000
00000000
00000000
,
00010000
00000000
00000000
00000000
00000000
00002000
00000000
00000000
,
00013000
00100000
00000000
00100000
,
00010000
00000000
00001000
00000000
00000000
00101000
00000000
00000000
,
10010000
00000000
00000000
00000000
00000000
00000000
00000000
01000000
,
00010000
00000000
00000000
00000000
00000000
20000000
00000000
00000000
,
30100000
01000000
00000000
01000000
,
00100000
00000000
00010000
00000000
00000000
00011000
00000000
00000000
,
00001100
00000100
00000000
00000100
,
00000010
00000000
00000001
00000000
00000000
00002010
00000000
00000000
,
00003010
00000100
00000000
00000100
,
00000001
00000000
00000011
00000000
00000000
00001001
00000000
00000000
,
00000010
00000100
00000001
00000100
,
00001000
00000000
00010000
00000000
00001000
00000000
00100000
01000000
,
00100000
00000000
00000000
00000000
,
20000000
00000000
00000000
00000000
,
32000000
00000000
00000000
00000000
,
00200000
00000000
00000000
00000000
,
03300000
00000000
00000000
00000000
00000000
00000000
00000000
01000000
,
00100000
00000000
00000000
00000000
00000000
02000000
00000000
00000000
,
03010000
00000000
00000000
00000000
00000000
00000000
00000000
00001000
,
00010000
00000000
00000000
00000000
00000000
00002000
00000000
00000000
,
00013000
00000000
00000000
00000000
00000000
00000000
00000000
00000100
,
00010000
00000000
00000010
00000100
,
00000001
00000010
00000100
00001000
,
00000001
00000000
00000010
00000000
00000100
00000000
00001000
00000100
,
00001000
00000010
00000100
00000001
,
00001000
00000000
00000010
00000000
00000100
00000000
00000001
00001000
,
00000001
00001000
00000100
00010000
,
00000100
00000000
00001000
00000000
00000100
00000000
00010000
00001000
,
00010000
00001000
00100000
00001000
,
00010000
00000000
00001000
00000000
00100000
00000000
00010000
10000000
,
00010000
01000000
00000000
01000000
,
00000000
00010000
00000000
00010000
,
00000000
00000000
00002000
00000000
,
00000000
00003010
00000000
00000000
00000000
00000000
00000000
00000000
00000000
00001000
00000000
00000000
,
00000001
00000100
00000000
00000100
,
00000000
00001000
00000000
00001000
,
00000000
00000000
00000200
00000000
,
00000000
00000301
00000000
00000000
00000000
00000000
00000000
00000000
00000000
00000010
00000000
00000000
,
00001001
00000000
00000001
00000000
,
00000100
00000000
00001000
00000000
,
00002000
00010000
00003000
00020000
00000000
00000000
00000000
00000000
,
00030100
00000000
00000010
00000100
,
00001001
00000000
00000000
00000000
00000000
00000110
00000000
00000000
,
00000001
00000100
00001000
00000000
,
00010100
00000000
00011000
00000000
,
00010000
00010000
00010000
00000000
,
00002000
00003000
00000000
00020000
,
00030000
00000000
00001000
00010000
,
00100000
00100000
01000000
01000000
,
00100000
00100000
00010000
00001000
,
00000100
00000000
00000010
00000000
00000100
00000000
00000001
00000010
,
00000100
00000000
00000000
00000000
,
00020000
00000000
00000000
00000000
,
00032000
00000000
00000000
00000000
,
00023000
00000000
00000000
00000000
,
00032000
00000000
00010000
00010000
,
00013000
00000000
00001000
00010000
,
00100000
00000000
00100000
00000000
,
10000000
00100000
10000000
00010000
,
00100000
00000000
01000000
00000000
,
10010000
00000000
01000000
00100000
,
00010000
00000000
00001000
00000000
,
00010000
00000100
00001000
00000010
,
00000100
00000000
00000010
00000000
,
00001001
00000000
00000001
00000010
,
00000100
00000000
00000010
00000000
,
00000010
00000100
00001000
00010000
,
00100000
00000000
00010000
00000000
,
10010000
00000000
10000000
01000000
,
00100000
00000000
00001000
00010000
,
00011000
00000000
00000000
00000000
,
00002000
00000000
00000000
00103000
,
02000000
00000000
00000000
00000000
,
00200000
00000000
00000000
00000000
,
03300000
00000000
00000000
00000000
00000000
00000000
00000000
01000000
,
00100000
00000000
00000000
00000000
00000000
02000000
00000000
00000000
,
03010000
00000000
00000000
00000000
00000000
00000000
00000000
00001000
,
00010000
00000000
00000000
00000000
00000000
00002000
00000000
00000000
,
00013000
00000000
00000000
00000000
00000000
00000000
00000000
00000100
,
00010000
00000000
00000010
00000100
,
00000001
00000010
00000100
00001000
,
00000001
00000000
00000010
00000000
00000100
00000000
00001000
00000100
,
00001000
00000010
00000100
00000001
,
00001000
00000000
00000010
00000000
00000100
00000000
00000001
00001000
,
00000001
00001000
00000100
00010000
,
00000100
00000000
00001000
00000000
00000100
00000000
00010000
00001000
,
00010000
00001000
00100000
00001000
,
00010000
00000000
00001000
00000000
00100000
00000000
00010000
10000000
,
00010000
00000000
00000000
01100000
00000000
00000000
00000000
00000000
,
20020000
00000000
30030000
00000000
;

//---------------dance-double - ----------------
#NOTEDATA:;
#CHARTNAME:;
#STEPSTYPE:dance-double;
#DESCRIPTION:;
#CHARTSTYLE:;
#DIFFICULTY:Medium;
#METER:13;
#RADARVALUES:0.554873,0.785779,0.284998,0.187284,0.170999,477.000000,442.000000,35.000000,23.000000,0.000000,0.000000,0.000000,0.000000,0.000000,0.554873,0.785779,0.284998,0.187284,0.170999,477.000000,442.000000,35.000000,23.000000,0.000000,0.000000,0.000000,0.000000,0.000000;
#CREDIT:;
#NOTES:
00000000
00000000
00000000
00000000
,
00002000
00000000
00000000
00000000
,
00000000
00000000
00000000
00000000
,
00013000
00000000
00000000
00000000
00000000
00000000
00000000
00001000
,
00010000
00000000
00000000
00000000
00000000
00002000
00000000
00000000
,
00013000
00000000
00000000
00000000
00000000
00000000
00000000
00001000
,
00010000
00000000
00000000
00000000
00000000
00002000
00000000
00000000
,
00013000
00000000
00100000
00000000
00000000
00000000
00100000
00010000
,
00001000
00000000
00000000
00000000
00011000
00000000
00000000
00010000
00000000
00000000
00020000
00000000
00000000
00000000
00000000
00000000
,
00032000
00000000
00000000
00000000
00000000
00000000
00000000
00000000
00000000
00000000
00000000
00000000
00000000
00000000
00003010
00000000
00000000
00000000
00000000
00000000
00000000
00000100
00000000
00000000
,
00001000
00000000
00000100
00000000
00010000
00000000
00000000
00010000
00000000
00000000
00002000
00000000
00000000
00000000
00000000
00000000
,
00013000
00011000
00000000
00101000
,
00010000
00000000
01001000
00000000
00000000
00021000
00000000
00000000
,
00030100
00001010
00000000
00010010
,
00001000
00000000
00010100
00000000
00000000
00002001
00000000
00000000
,
00003010
00011000
00000000
00011000
,
00100000
00000000
01001000
00000000
00000000
00012000
00000000
00000000
,
00103000
00000000
00001000
00010000
,
00001000
00000000
00000000
00000000
00010000
00000000
00000000
00000000
00100000
00000000
00000000
00000000
10000000
00000000
01000000
00100000
,
00010000
00000000
00000000
00000000
,
20000000
00000000
00000000
00000000
,
30200000
01000000
00000000
01000000
,
02300000
00000000
00010000
00000000
00000000
00010000
00000000
00000000
,
03001000
00000000
00000000
00010000
00000000
00000000
00010000
00001000
,
00010000
00000000
00000010
00000000
00000000
00011000
00000000
00000000
,
00000100
00000000
00000000
00001000
00000000
00000000
00001000
00000010
,
00000100
00000000
00000001
00000000
00000000
00000011
00000000
00000000
,
00001100
00000000
00000000
00010000
00000000
00000000
00000100
00001000
,
00000010
00000000
00000000
00000100
00000000
00000001
00000010
00000100
,
00001000
00000001
00000100
00000010
00001000
00000001
00000100
00000010
,
00001000
00000001
00000100
00000010
00001000
00000001
00000100
00000010
,
00000100
00000001
00001000
00000010
00000100
00000001
00001000
00000010
,
00000100
00000001
00001000
00000010
00000100
00000001
00001000
00000010
,
00001000
00000100
00010000
00000010
00001000
00000100
00010000
00000010
,
00001000
00000100
00010000
00000010
00001000
00000100
00010000
00000010
,
00010000
00001000
00100000
00010000
01000000
00001000
00100000
00010000
,
01000000
00001000
00100000
00010000
01000000
00001000
00100000
00010000
,
01000000
01100000
00000000
00011000
,
00000000
01010000
00000000
11000000
,
00000000
00000000
00000000
00000000
00000000
00000000
00100000
00010000
00001000
00010000
00001000
00000100
,
00000000
00000000
00000000
00000000
00000010
00000000
00000000
00000000
00000000
00000000
00000000
00000000
00000010
00000000
00000000
00000000
00000000
00000000
00000000
00000000
00000000
00000100
00000000
00000000
00000000
00000000
00000000
00000000
00000000
00000000
00000010
00000000
00000000
00000000
00000000
00000000
00000001
00000000
00000000
00000000
00000000
00000000
00000010
00000000
00000000
00000000
00000000
00000000
,
00000100
00000000
00010000
00001000
00000000
00000010
00000100
00010000
,
00000000
00100000
00010000
00001000
00010000
00000100
00001000
00000010
,
00001000
00000000
00010000
00000000
01000000
00000000
00010000
00000000
00100000
00010000
00100000
00010000
00100000
00010000
00100000
00010000
,
00000000
00000000
00000000
00000000
01000000
00000000
00000000
00000000
00000000
00000000
00000000
00000000
01000000
00000000
00000000
00000000
00000000
00000000
00000000
00000000
00000000
10000000
00000000
00000000
00000000
00000000
00000000
00000000
00000000
00000000
10000000
00000000
00000000
00000000
00000000
00000000
01000000
00000000
00000000
00000000
00000000
00000000
10000000
00000000
00000000
00000000
00000000
00000000
,
00010000
00000000
00010000
00100000
01000000
00000000
01000000
00100000
,
00010000
00000000
00010000
00001000
00000010
00000000
00000010
00000100
,
00000010
00002001
00003000
00000110
00000020
00000000
00000130
00000001
,
00000000
00000001
00000010
00000100
00001000
00010000
00100000
00010000
,
10000000
00000000
00000000
00000000
00000000
00002200
00003300
00000000
,
00010000
00000000
00000000
00000000
00001000
00000000
00000000
00000000
00010000
00000000
00000000
00010000
00000000
00000000
00010000
00000000
,
00001000
00000000
00011000
00000000
,
00001000
00100000
00010000
01000000
00100000
00010000
00001000
00000000
00000000
00000000
00000000
00000000
,
00010000
00001000
00010000
00001000
00000000
00000000
00000000
00000000
00000000
00010000
00000100
00010000
,
00000100
00000000
00001000
00000010
,
00000100
00000001
00000100
00000001
00000100
00000000
00000010
00001000
00000010
00001000
00000010
00000000
,
00000100
00000001
00000100
00000001
00000100
00000000
00000001
00000000
00000001
00000010
00000000
00000010
,
00001000
00000000
00001000
00010000
00000000
00010000
00100000
00000000
00100000
10000000
01000000
00100000
,
00010000
00000000
00000000
00000000
,
00000000
00000000
01000000
00100000
00010000
00000000
00010000
00000000
,
00001000
00010000
00000100
00000010
00000001
00000000
00000001
00000000
,
00000000
00000000
00000100
00001000
00010000
00000000
01000000
00100000
,
10000000
00100000
00010000
00000100
00010000
00000000
00000100
00000000
,
00001010
00000000
00000001
00000010
,
00000100
00000000
00011000
00000000
,
00010000
00100000
10000000
01000000
,
00010000
00000000
00011000
00000000
,
00001100
00000000
00000100
00000010
,
00000001
00000000
00000100
00000001
,
00000010
00001000
00010000
01000000
,
10000000
00000000
10100000
00000000
,
01020000
00000000
00100000
00001000
,
00001000
00000000
00100000
00000000
,
02030000
00100000
10000000
00100000
,
00010000
00000000
00010000
00000000
,
03100000
01000000
00010000
00001000
,
00000100
00000000
00000010
00000000
00000100
00000000
00000010
00000000
00001000
00000000
00010000
00000000
00001000
00000000
00010000
00100000
,
01000000
00000000
00000000
00000000
,
20000000
00000000
00000000
30100000
,
00200000
01000000
00000000
01000000
,
02300000
00000000
00010000
00000000
00000000
00010000
00000000
00000000
,
03001000
00000000
00000000
00010000
00000000
00000000
00010000
00001000
,
00010000
00000000
00000010
00000000
00000000
00011000
00000000
00000000
,
00000100
00000000
00000000
00001000
00000000
00000000
00001000
00000010
,
00000100
00000000
00000001
00000000
00000000
00000011
00000000
00000000
,
00001100
00000000
00000000
00010000
00000000
00000000
00000100
00001000
,
00000010
00000000
00000000
00000100
00000000
00000001
00000010
00000100
,
00001000
00000001
00000100
00000010
00001000
00000001
00000100
00000010
,
00001000
00000001
00000100
00000010
00001000
00000001
00000100
00000010
,
00000100
00000001
00001000
00000010
00000100
00000001
00001000
00000010
,
00000100
00000001
00001000
00000010
00000100
00000001
00001000
00000010
,
00001000
00000100
00010000
00000010
00001000
00000100
00010000
00000010
,
00001000
00000100
00010000
00000010
00001000
00000100
00010000
00000010
,
00010000
00001000
00100000
00010000
01000000
00001000
00100000
00010000
,
01000000
00001000
00100000
00010000
01000000
00001000
00100000
00010000
,
01000000
00000000
00000000
01100000
00000000
00000000
00000000
00000000
,
20020000
00000000
30030000
00000000
;

//---------------dance-double - ----------------
#NOTEDATA:;
#CHARTNAME:;
#STEPSTYPE:dance-double;
#DESCRIPTION:;
#CHARTSTYLE:;
#DIFFICULTY:Hard;
#METER:18;
#RADARVALUES:1.041114,1.925160,0.309426,0.350140,1.441274,895.000000,857.000000,38.000000,43.000000,0.000000,0.000000,0.000000,0.000000,0.000000,1.041114,1.925160,0.309426,0.350140,1.441274,895.000000,857.000000,38.000000,43.000000,0.000000,0.000000,0.000000,0.000000,0.000000;
#CREDIT:;
#NOTES:
// measure 0
00000000
00000000
00000000
00000000
,  // measure 1
00001000
00010000
00001000
00010000
00001000
00010000
00001000
00010000
00001000
00010000
00001000
00010000
00001000
00010000
00001000
00010000
,  // measure 2
00001000
00010000
00001000
00010000
00001000
00010000
00001000
00010000
00001000
00010000
00001000
00010000
00001000
00010000
00001000
00010000
,  // measure 3
00001000
00000000
00000000
00000000
00000000
00000000
00000000
00010000
,  // measure 4
00001000
00000000
00000000
00000000
00000000
00120000
00000000
00000000
,  // measure 5
00031000
00000000
00000000
00000000
00000000
00000000
00000000
00010000
,  // measure 6
00001000
00000000
00000000
00000000
00000000
00120000
00000000
00000000
,  // measure 7
00031000
00000000
00101000
00000000
00000000
00000000
00010000
00110000
,  // measure 8
00001000
00000000
00000000
00000000
00011000
00000000
00000000
00011000
00000000
00000000
00120000
00000000
00000000
00000000
00000000
00000000
,  // measure 9
00230000
00000000
00000000
00000000
00000000
00000000
01000000
00000000
10300000
00000000
01000000
00000000
00000000
00000000
10010000
00000000
00000000
00000000
00000000
00000000
00000000
00011000
00000000
00000000
,  // measure 10
00010000
00000000
00001000
00010000
00001000
00000000
00010000
00001000
00000000
00010000
00002000
00000000
00000000
00000000
00003000
00000000
,  // measure 11
00011000
00000000
00010000
00000000
01000000
00000000
10000000
00100000
10000000
00100000
01000000
00000000
00010000
00000000
00001000
00000000
,  // measure 12
00001010
00000000
00000100
00000000
00000001
00000000
00001000
00000010
00000000
00001000
00000200
00000000
00000000
00000000
00000300
00000000
,  // measure 13
00000011
00000000
00000001
00000000
00001000
00000000
00000010
00000100
00000010
00000100
00001000
00000000
00010000
00000000
01000000
00000000
,  // measure 14
11000000
00000000
10000000
00000000
00100000
00000000
01000000
00010000
00000000
01000000
00200000
00000000
00000000
00000000
00300000
00000000
,  // measure 15
10010000
00000000
10000000
00000000
00100000
00000000
01000000
00010000
01000000
00010000
00100000
00000000
00001000
00000000
00000010
00000000
,  // measure 16
00000011
00000000
00000001
00000000
00000100
00000000
00000010
00001000
00000000
00000010
00000200
00000000
00000000
00000000
00000300
00000000
,  // measure 17
00000110
00000000
00000010
00000000
00001000
00000100
00010000
00001000
00100000
01000000
00000000
00100000
01000000
00000000
00100000
01000000
,  // measure 18
10000000
00100000
01000000
00010000
00100000
00001000
00010000
00000100
00001000
00000010
00001000
00000010
00010000
00001000
00010000
01000000
,  // measure 19
00100000
00000000
00000000
00000000
,  // measure 20
10000000
01000000
00010000
01000000
00010000
00001000
00000100
00001000
00000100
00000001
00000010
00001000
,  // measure 21
00000020
00000000
00000100
00000000
00000000
00000000
00000100
00001000
,  // measure 22
00002030
00000000
00010000
00000000
00000000
00010000
00000000
00000000
,  // measure 23
00013000
00000000
00000000
00001000
00000000
00000000
00010000
01000000
,  // measure 24
01000000
00000000
00010000
00001000
00000000
00011000
00000000
00000000
,  // measure 25
00001100
00000000
00000000
00010000
00000000
00000000
00001000
00000100
,  // measure 26
00000100
00000000
00001000
00000000
00010000
00001000
00000000
00000000
,  // measure 27
01010000
00000000
00000000
00001000
00000000
00000000
00010000
01000000
,  // measure 28
01000000
00000000
00000000
00000000
00010000
00000000
00000000
00000000
00001000
00000000
00000100
00000000
00000001
00000010
00000100
00001000
,  // measure 29
00000001
00000100
00000010
00001000
00000001
00000100
00000010
00001000
00000001
00000100
00000010
00001000
00000001
00000100
00000010
00001000
,  // measure 30
00000001
00000100
00000010
00001000
00000001
00000100
00000010
00001000
00000001
00000100
00000010
00001000
00000001
00000100
00000010
00001000
,  // measure 31
00000010
00010000
00000100
00001000
00000010
00010000
00000100
00001000
00000010
00010000
00000100
00001000
00000010
00010000
00000100
00001000
,  // measure 32
00000010
00010000
00000100
00001000
00000010
00010000
00000100
00001000
00000010
00010000
00000100
00001000
00000010
00010000
00000100
00010000
,  // measure 33
00001000
00100000
00010000
01000000
00001000
00100000
00010000
01000000
00001000
00100000
00010000
01000000
00001000
00100000
00010000
01000000
,  // measure 34
00001000
00100000
00010000
01000000
00001000
00100000
00010000
01000000
00001000
00100000
00010000
01000000
00001000
00100000
00010000
01000000
,  // measure 35
00010000
10000000
00100000
01000000
00010000
10000000
00100000
01000000
00010000
10000000
00100000
01000000
00010000
10000000
00100000
01000000
,  // measure 36
00010000
10000000
00100000
01000000
00010000
10000000
00100000
01000000
00010000
10000000
00100000
01000000
00010000
10000000
00100000
01000000
,  // measure 37
00010000
11000000
00000000
00101000
,  // measure 38
00000000
01010000
00000000
00011000
,  // measure 39
00000000
00000000
00000000
00000000
00000000
00000000
00000001
00000010
00001000
00010000
00000100
00000010
,  // measure 40
00000000
00000000
00000110
00000000
00000000
00000000
00010100
00000000
00000000
00000000
00000000
00011000
00000000
00000000
00000000
01010000
00000000
00000000
00010000
00000000
00000000
00100000
00000000
00000000
,  // measure 41
02000000
00000000
03100000
00020000
00000000
01030000
00100000
02000000
,  // measure 42
00000000
03001000
00010000
00001000
00000100
00000100
00000001
00000010
,  // measure 43
00000100
00000000
00010000
00000000
00000010
00000000
00001000
00000000
00000001
00000100
00000010
00001000
00000001
00000100
00000010
00001000
,  // measure 44
00000000
00000000
00000000
00000000
00000100
00000000
00000000
00000000
00000000
00000000
00000000
00000000
00000100
00000000
00000000
00000000
00000000
00000000
00000000
00000000
00000100
00000000
00000000
00000000
00000000
00000000
00000000
00000000
00000100
00000000
00010000
00000000
00000000
00001000
00000000
00000000
00010000
00000000
00000000
00001000
00000000
00000000
00000100
00000000
00000000
00000010
00000000
00000000
,  // measure 45
00001000
00000000
00000100
00000000
00000010
00000100
00001000
00000000
00010000
00000000
00001000
00000100
00000010
00000000
00010000
00000000
,  // measure 46
00000010
00000100
00001000
00000000
00010000
00000000
00001000
00000000
00000100
00000010
00000100
00010000
00001000
00000000
00010000
00000000
,  // measure 47
00012000
00100000
00003000
02010000
00100000
00000000
03100000
01000000
,  // measure 48
00000000
10000000
01000000
00010000
00001000
00000010
00000100
00000001
,  // measure 49
00000020
00000100
00001030
00000100
00001000
00000002
00000000
00000003
,  // measure 50
00000100
00000000
00000010
00000000
00000001
00000000
00000010
00000000
00001000
00000000
00000000
00001000
00000000
00000000
00001000
00000000
,  // measure 51
00001100
00000000
00000000
00000000
00000000
00000000
00000000
00000000
00000000
00000000
00000000
00000000
00000000
00000000
00000000
00000000
00000000
00000000
00000100
00000000
00000000
00001000
00000000
00000000
00001100
00000000
00000000
00000000
00000000
00000000
00000000
00000000
00000000
00000000
00000000
00000000
00000000
00000000
00000000
00000000
00000000
00000000
00000000
00000000
00000100
00000000
00000000
00000000
,  // measure 52
00001000
00010000
00100000
10000000
00100000
00010000
01000000
00000000
00000000
00000000
00000000
00000000
,  // measure 53
10000000
01000000
00100000
00010000
00000000
00000000
00000000
00000000
00000000
00100000
00010000
00001000
,  // measure 54
00000100
00000000
00000000
00000000
00000000
00000000
00000010
00000001
00000100
00000001
00001000
00000001
,  // measure 55
00000100
00001000
00010000
00100000
01000000
00000000
01000000
00100000
00010000
00001000
00000100
00000000
,  // measure 56
00000100
00001000
00010000
01000000
00100000
00000000
10000000
01000000
00010000
01000000
00010000
00001000
,  // measure 57
00000100
00001000
00000100
00000010
00000001
00000010
00000100
00001000
01000000
00100000
01000000
00010000
,  // measure 58
00001000
00000000
00000000
00000000
,  // measure 59
02000000
00000000
00000000
00000000
03001000
01000000
00002000
00000000
00000000
00000000
01003000
00001000
02000000
00000000
00000000
00000000
03001000
01000000
00002000
00000000
00000000
00000000
01003000
00001000
02000000
00000000
03001000
01000000
00002000
00000000
00000000
00000000
,  // measure 60
00023000
00000000
00000000
00000000
00030100
00010000
00000200
00000000
00000000
00000000
00010300
00000100
00020000
00000000
00000000
00000000
00030100
00010000
00000200
00000000
00000000
00000000
00010300
00000100
00020000
00000000
00030100
00010000
00000200
00000000
00000000
00000000
,  // measure 61
00002300
00000000
00000000
00000000
00003010
00001000
00000020
00000000
00000000
00000000
00010030
00001000
00020000
00000000
00000000
00000000
00030010
00001000
00000020
00000000
00000000
00000000
00010030
00001000
00020000
00000000
00000010
00001000
00030020
00000000
00000000
00000000
,  // measure 62
00010030
00001000
00010000
00001000
00010000
00001000
00010000
00001000
00010000
00001000
00010000
00001000
00010000
00001000
00010000
00001000
00100000
00010000
01000000
00010000
10000000
00100000
01000000
00010000
00100000
00001000
00010000
00001000
00010000
00001000
01000000
00001000
,  // measure 63
01000000
00000000
00000000
00000000
00100000
10000000
01000000
00000000
00000000
00000000
00100000
00010000
01000000
00000000
00000000
00000000
,  // measure 64
00100000
10000000
01000000
00000000
00000000
00000000
00100000
00010000
00001000
00000000
00010000
00001000
00000100
00000000
00000000
00000000
,  // measure 65
00000010
00000000
00000000
00000000
00000010
00000001
00000100
00000000
00000000
00000000
00000010
00001000
00000100
00000000
00000000
00000000
,  // measure 66
00000010
00000001
00000100
00000000
00000000
00000000
00000010
00000100
00001000
00000000
00000100
00001000
00010000
00000000
00000000
00000000
,  // measure 67
01100000
00000000
00000000
00000000
01000000
00100000
01000000
00000000
00000000
00000000
00100000
01000000
00100000
00000000
00000000
00000000
,  // measure 68
00100000
01000000
00100000
00000000
00000000
00000000
01000000
00100000
01000000
00000000
00100000
00010000
00001000
00000000
00000000
00000000
,  // measure 69
00000010
00000000
00000000
00000000
00000100
00000010
00000100
00000000
00000000
00000000
00000010
00000100
00000010
00000000
00000000
00000000
,  // measure 70
00000010
00000100
00000010
00000000
00000000
00000000
00000100
00000010
00000100
00000000
00000010
00000100
00010000
00000000
00000000
00000000
,  // measure 71
00012000
00000000
00000000
00000000
00010000
00000100
00000000
00000000
00000000
00000000
00000100
00010000
00000000
00000000
00000000
00000000
,  // measure 72
00010000
00000100
00000000
00000000
00000000
00000000
00000100
00010000
00000000
00000000
00010000
00000100
00000000
00000000
00000000
00000000
,  // measure 73
00023000
00000000
00000000
00000000
01000000
00001000
00000000
00000000
00000000
00000000
00001000
01000000
00000000
00000000
00000000
00000000
,  // measure 74
01000000
00001000
00000000
00000000
00000000
00000000
00001000
01000000
00000000
00000000
01000000
00001000
00000000
00000000
00000000
00000000
,  // measure 75
00031000
00010000
00001000
00010000
00001000
00010000
00001000
00010000
00001000
00010000
00001000
00010000
00001000
00010000
00001000
00010000
,  // measure 76
00100000
01000000
00100000
01000000
00100000
01000000
00100000
01000000
00100000
01000000
00100000
01000000
00100000
01000000
00100000
01000000
,  // measure 77
00020000
00000000
00000000
00000000
,  // measure 78
10030000
01000000
00010000
01000000
00010000
00001000
00000100
00001000
00000100
00000001
00000000
00000000
,  // measure 79
00000021
00000000
00000100
00000000
00000000
00000000
00000100
00001000
,  // measure 80
00002030
00000000
00010000
00000000
00000000
00010000
00000000
00000000
,  // measure 81
00013000
00000000
00000000
00001000
00000000
00000000
00010000
01000000
,  // measure 82
01000000
00000000
00010000
00001000
00000000
00011000
00000000
00000000
,  // measure 83
00001100
00000000
00000000
00010000
00000000
00000000
00001000
00000100
,  // measure 84
00000100
00000000
00001000
00000000
00010000
00001000
00000000
00000000
,  // measure 85
01010000
00000000
00000000
00001000
00000000
00000000
00010000
01000000
,  // measure 86
01000000
00000000
00000000
00000000
00010000
00000000
00000000
00000000
00001000
00000000
00000100
00000000
00000001
00000010
00000100
00001000
,  // measure 87
00000001
00000100
00000010
00001000
00000001
00000100
00000010
00001000
00000001
00000100
00000010
00001000
00000001
00000100
00000010
00001000
,  // measure 88
00000001
00000100
00000010
00001000
00000001
00000100
00000010
00001000
00000001
00000100
00000010
00001000
00000001
00000100
00000010
00001000
,  // measure 89
00000010
00010000
00000100
00001000
00000010
00010000
00000100
00001000
00000010
00010000
00000100
00001000
00000010
00010000
00000100
00001000
,  // measure 90
00000010
00010000
00000100
00001000
00000010
00010000
00000100
00001000
00000010
00010000
00000100
00001000
00000010
00010000
00000100
00010000
,  // measure 91
00001000
00100000
00010000
01000000
00001000
00100000
00010000
01000000
00001000
00100000
00010000
01000000
00001000
00100000
00010000
01000000
,  // measure 92
00001000
00100000
00010000
01000000
00001000
00100000
00010000
01000000
00001000
00100000
00010000
01000000
00001000
00100000
00010000
01000000
,  // measure 93
00010000
10000000
00100000
01000000
00010000
10000000
00100000
01000000
00010000
10000000
00100000
01000000
00010000
10000000
00100000
01000000
,  // measure 94
00010000
10000000
00100000
01000000
00010000
10000000
00100000
01000000
00010000
10000000
00100000
01000000
00010000
10000000
00100000
01000000
,  // measure 95
00010000
00000000
00000000
00000000
00100000
00001000
00200000
00000000
00300000
00000000
00000000
00000000
00001000
00010000
00001000
00010000
,  // measure 96
00022000
00000000
00033000
00000000
;
