#TITLE:月光乱舞;
#SUBTITLE:;
#ARTIST:P*Light;
#TITLETRANSLIT:Gekkou ranbu;
#SUBTITLETRANSLIT:;
#ARTISTTRANSLIT:;
#GENRE:;
#CREDIT:;
#BANNER:Gekkou ranbu-bn.png;
#BACKGROUND:Gekkou ranbu-bg.jpg;
#LYRICSPATH:;
#CDTITLE:;
#MUSIC:Gekkou ranbu.mp3;
#OFFSET:0.377000;
#SAMPLESTART:89.820023;
#SAMPLELENGTH:15.000000;
#SELECTABLE:YES;
#BPMS:0.000000=186.000000
;
#STOPS:
;
#BGCHANGES:;
#KEYSOUNDS:;
#ATTACKS:;

//---------------dance-single - ----------------
#NOTES:
     dance-single:
     :
     Beginner:
     3:
     0.182128,0.296327,0.094756,0.103370,0.000000,148.000000,137.000000,11.000000,12.000000,0.000000,0.000000,0.182128,0.296327,0.094756,0.103370,0.000000,148.000000,137.000000,11.000000,12.000000,0.000000,0.000000:
0000
0000
0000
0000
,
0000
0000
0000
0000
,
1000
0000
0000
1000
0000
0000
0000
0000
,
0001
0000
0000
0001
0000
0000
0000
0000
,
0100
0000
0000
0100
0000
0000
0000
0000
,
0010
0000
0000
0010
0000
0000
0000
0000
,
2000
0000
0000
0000
,
3002
0000
0000
0000
,
2003
0000
3002
0000
,
1003
0000
0000
0000
,
0001
0000
0001
0000
,
0100
0000
0100
0000
,
0001
0000
0001
0000
,
1000
0000
0001
0000
,
0010
0000
0010
0000
,
0100
0000
0100
0000
,
0010
0000
0100
0000
,
0000
1001
0000
0000
0000
0000
0000
0000
,
0001
0000
0001
0000
,
1000
0000
1000
0000
,
0001
0000
0001
0000
,
2000
0000
3000
0000
,
0010
0000
0010
0000
,
0100
0000
0100
0000
,
0010
0000
0100
0000
,
0000
1001
0000
0000
0000
0000
0000
0000
,
0002
0000
0000
0000
,
0003
0000
0000
0000
,
2000
0000
0000
0000
,
3200
0000
0000
0000
,
0320
0000
0000
0000
,
0230
0000
0000
0000
,
0320
0000
0000
0000
,
0130
0000
0100
0100
,
0100
0000
0000
0000
,
0010
0100
0010
0000
,
1000
0000
1000
0000
,
0100
0000
0100
0000
,
1000
0000
0000
0000
,
0001
0000
0010
0000
,
0002
0003
0100
0000
,
0100
0000
0010
0000
,
0100
0000
0000
0000
,
1001
0000
1001
0000
,
0001
0000
1000
0000
,
0100
0000
0000
0000
,
1000
0000
1000
0000
,
0001
0000
0100
0000
,
0010
0000
0010
0000
,
0100
0000
0100
0000
,
0010
0000
0100
0000
,
0010
0000
0100
0010
,
0100
0000
0000
0000
,
0000
0000
0000
0000
,
0001
0000
0000
0000
,
0001
0000
0000
0000
,
1000
0000
0000
0000
,
1000
0000
0000
0000
,
0010
0000
0000
0000
,
0010
0000
0000
0000
,
0100
0000
0000
0000
,
0100
0000
0000
0000
,
0001
0000
0000
0000
,
1000
0000
0000
0000
,
0010
0000
0010
0000
,
1000
0000
1000
0000
,
1001
0000
0000
0000
,
1001
0000
0000
0000
,
1001
0000
1001
0000
,
0110
0000
0000
0000
,
0001
0000
0001
0000
,
1000
0000
1000
0000
,
0001
0000
0001
0000
,
1000
0000
1000
0000
,
0010
0000
0010
0000
,
0100
0000
0100
0000
,
0010
0000
0100
0000
,
0000
1001
0000
0000
0000
0000
0000
0000
,
0100
0000
1000
0000
,
0010
0000
1000
0000
,
0001
0000
0001
0000
,
1000
0000
1000
0000
,
0100
0000
0100
0000
,
0001
0000
0001
0000
,
0010
0000
0100
0000
,
1000
0000
0000
0001
0000
0000
0000
0000
,
1001
0000
0000
0000
;

//---------------dance-single - ----------------
#NOTES:
     dance-single:
     :
     Easy:
     8:
     0.322416,0.481531,0.189511,0.155055,0.000000,262.000000,240.000000,22.000000,18.000000,0.000000,0.000000,0.322416,0.481531,0.189511,0.155055,0.000000,262.000000,240.000000,22.000000,18.000000,0.000000,0.000000:
0000
0000
0000
0000
,
0000
0000
0000
0000
,
1000
0000
0000
1000
0000
0000
0000
0000
,
0001
0000
0000
0001
0000
0000
0000
0000
,
0100
0000
0000
0100
0000
0000
0100
0000
,
0010
0000
0000
0010
0000
0000
0000
0000
,
2000
0100
0100
0000
,
3002
0100
0100
0000
,
2003
0000
0010
0000
,
3001
0000
0000
0100
,
0010
0000
0010
1000
,
0100
0000
1000
0001
,
0010
0000
0010
0001
,
0100
0000
0001
1000
,
0100
0100
0100
0000
,
0010
0010
0010
0000
,
0100
0010
0100
0100
,
0000
1001
0000
0000
0110
0000
0000
0000
,
0002
0000
0100
0000
,
0023
0000
0001
0000
,
0230
0000
1000
0000
,
2300
0000
0010
0000
,
3001
0001
0100
0100
,
0010
0010
1000
1000
,
0001
0100
1000
0100
,
0000
0011
0000
0000
1100
0000
0000
0000
,
2000
0000
0100
0000
,
0100
0000
0100
0100
,
3020
0000
0100
0000
,
2030
0000
0100
0100
,
3002
0000
0100
0000
,
2003
0000
0100
0000
,
3002
0010
2003
0100
,
3020
0000
0130
0000
0010
0100
0010
0100
,
0001
0000
0000
0000
,
1001
1000
1000
0000
,
0001
0100
0001
0100
,
0010
1000
0001
0100
,
0110
0000
0110
0000
,
0010
1000
0010
0010
,
0000
0001
0010
0100
,
1000
0001
1000
0000
,
0001
0000
0001
0000
,
0100
0100
0010
0010
,
1000
0100
1000
0100
,
1000
0001
1000
1000
,
0001
0010
0001
0010
,
0001
1000
0001
0001
,
1100
0000
0010
0000
,
0101
0000
1000
0000
,
0101
1000
1010
0001
,
0010
0000
0100
0000
1000
0001
1000
0001
,
0100
0000
0000
0000
,
0000
0000
0000
0000
,
0010
0000
0000
0000
,
0100
0000
0000
0000
,
0010
0000
0000
0000
,
0010
0000
0000
0000
,
1000
0000
0000
0000
,
0001
0000
0000
0000
,
2000
0000
0000
0000
,
0002
0000
0000
3003
,
0001
0001
0001
0000
,
1000
1000
1000
0000
,
0010
0000
0000
0010
0000
0000
0000
0000
,
0100
0000
0000
0100
0000
0000
0000
0000
,
0101
0001
1001
1000
,
0101
0001
1001
1000
,
0001
0000
1000
0000
0010
0100
0010
0100
,
0001
0000
0000
0000
,
1000
0100
0100
0010
,
0001
0100
0010
0010
,
1000
0000
0000
1000
0000
0000
0001
0000
,
1000
0000
0000
1000
0000
0000
0100
0000
,
1001
0010
1000
1000
,
0100
0010
0100
0100
,
0001
0000
0100
0010
,
0000
1001
0000
0000
0110
0000
0000
0000
,
0001
0100
1000
0100
,
0001
1000
0100
0010
,
0001
0000
0000
0001
0000
0000
0100
0000
,
1000
0000
0000
1000
0000
0000
0010
0000
,
0101
0001
0001
0010
,
1100
1000
1000
0010
,
0100
0001
0010
0100
,
1001
0000
0000
0110
0000
0000
0002
0000
,
1003
0000
0000
0000
;

//---------------dance-single - ----------------
#NOTES:
     dance-single:
     :
     Medium:
     12:
     0.559920,0.666736,0.292881,0.180897,0.215354,455.000000,421.000000,34.000000,21.000000,0.000000,0.000000,0.559920,0.666736,0.292881,0.180897,0.215354,455.000000,421.000000,34.000000,21.000000,0.000000,0.000000:
0000
0000
0000
0000
,
0000
0000
0000
0000
,
1100
0000
0000
1000
0000
0000
0000
0000
,
0101
0000
0000
0001
0000
0000
0000
0000
,
1100
0000
0000
0101
0000
0000
1000
0000
,
1001
0000
0000
0101
0000
0000
0000
0000
,
0020
0001
0001
0001
,
0230
1000
1000
1000
,
0310
0001
0010
0001
0100
0010
0100
0010
,
1000
0000
0000
1001
,
0001
0000
0000
0001
0100
0000
0000
0000
0001
0000
0100
0000
0010
0000
0000
0000
,
1000
0000
0000
1000
0100
0000
0000
0000
1000
0000
0100
0000
0010
0000
0000
0000
,
0002
0000
0013
0000
0100
1000
0010
0000
,
2000
0000
3010
0000
0100
0001
0010
0000
,
1002
0000
0103
0000
1000
0010
0100
0000
,
2001
0000
3010
0000
0100
1000
0010
0000
,
0001
0000
0000
0001
0000
0000
0010
0000
0001
0000
1000
0000
0001
0000
1000
0000
,
0000
0000
0010
0000
0000
0100
0000
0000
0110
0000
0000
0000
0010
0000
0000
0000
,
1000
0000
0000
1000
0100
0000
1000
0000
0001
0000
0010
0000
0100
0000
0000
0000
,
0001
0000
0000
0001
1000
0000
0100
0000
0010
0000
0000
0000
0001
0000
0000
0000
,
0100
0000
0000
0100
0001
0000
0010
0000
0001
0000
0010
0000
0100
0000
0000
0000
,
0001
0000
0000
0001
1000
0000
0010
0000
0100
0000
0000
0000
1001
0000
0000
0000
,
0011
0000
0000
0001
0010
0000
0001
0000
0010
0000
0001
0000
0010
0000
0000
0000
,
1100
0000
0000
0100
1000
0000
0100
0000
1000
0000
0100
0000
1000
0000
0000
0000
,
0010
0000
0000
0010
1000
0000
0010
0000
0100
0000
0001
0000
1000
0000
0100
0000
,
0000
0000
0010
0000
0000
0100
0000
0000
0110
0000
0000
0000
0010
0000
0000
0000
,
0002
0100
0010
0100
,
1000
0100
1000
1000
,
2003
0010
0001
0100
,
3002
0010
1000
0100
,
2003
0100
0010
0001
,
3200
0010
0001
0010
,
2300
0010
3002
0010
,
2003
0000
0000
0000
0010
0000
0000
0000
3001
0000
0001
0000
0100
0000
0100
0010
,
1000
0000
0000
0000
,
0001
0010
0100
1000
1001
0000
0000
0000
,
0001
1000
0100
0000
0001
1000
0100
0000
,
0010
0001
0010
0001
0100
0000
0010
0100
,
0020
0000
0030
0100
0200
0000
0310
0000
,
1000
0100
0001
0100
1000
0001
1000
0000
,
2000
0000
3001
0010
0001
0010
0100
1000
,
0100
1000
0010
1000
0100
0000
0010
1000
,
0100
0000
0100
0010
0001
0000
0110
0000
,
1000
1000
0001
0001
1000
0001
1001
0000
,
0010
0000
0000
0100
0010
0000
0100
0000
0000
0000
0001
0000
0010
0000
0100
0000
,
1000
0000
0000
1000
0100
0000
1000
0000
0002
0000
0000
0000
0013
0000
0000
0000
,
0010
0000
0000
0010
0001
0000
0100
0000
0000
0000
1000
0000
0010
0000
0100
0000
,
0001
0000
0000
0001
0100
0000
0010
0000
1000
0000
0000
0000
1000
0000
0100
0000
,
0100
0010
0001
0010
0100
1000
0100
1000
,
0010
0100
0010
0100
0001
0010
0001
0010
,
0100
0000
0000
0100
0000
0000
0010
0000
0100
0000
0000
0100
0000
0000
1000
0000
,
0001
0000
1000
0000
0001
0000
1000
0000
0010
0000
0100
0000
0010
0000
0100
0010
,
1000
0000
0000
0000
,
0000
0000
0000
0000
,
0100
0000
0000
0000
,
0010
0000
0000
0000
,
0001
0000
0000
0000
,
1000
0000
0000
0000
,
0001
0000
0000
0000
,
0100
0000
0000
0000
,
0020
0000
0000
0000
,
0200
0000
0330
0110
,
1000
0100
0000
0000
1000
0000
0100
1000
0000
0000
0000
0000
0001
0000
0000
0000
,
0010
0001
0000
0000
0010
0000
0001
0010
0000
0000
0000
0000
0100
0000
0000
0000
,
1000
0000
0000
1000
0000
0000
1000
0000
0000
1000
0000
0000
1000
0000
0000
0000
,
0001
0000
0000
0001
0000
0000
0001
0000
0000
0001
0000
0000
0001
0000
0000
0000
,
0110
0000
0010
0100
0110
0000
0000
0100
,
0110
0000
0010
0100
1001
0000
1001
0000
,
0001
0000
0010
0000
0100
0000
1000
0000
0001
0000
0100
0000
0010
0000
0100
0010
,
1000
0000
0200
0310
,
0001
0010
0000
0000
0100
0000
1000
0100
0000
0000
0000
0000
0010
0000
0000
0000
,
0001
0010
0000
0000
0100
0000
1000
0100
0000
0000
0000
0000
0010
0000
0000
0000
,
0001
0000
0000
0001
0000
0000
0001
0000
0000
0100
0000
0000
0100
0000
0100
0000
,
0010
0000
0000
0010
0000
0000
0010
0000
0000
1000
0000
0000
1000
0000
1000
0000
,
0100
1000
0000
0000
0010
0000
0100
0001
0000
0000
0000
0000
1000
0000
0000
0000
,
0100
1000
0000
0000
0010
0000
0100
0001
0000
0000
0000
0000
0010
0000
0000
0000
,
0100
0000
0000
1000
0000
0000
0001
0000
0100
0000
0010
0000
0100
0000
0010
0000
,
0000
0000
0101
0000
0000
0010
0000
0000
0101
0000
0000
0000
1100
0000
0000
0000
,
1000
0010
0001
0010
1000
0010
1000
0000
,
0100
0001
0100
1000
0100
1000
0010
0000
,
0100
0000
0000
0100
0000
0000
0010
0000
0000
0010
0000
0000
1000
0000
0001
0000
,
0100
0000
0000
0100
0000
0000
0010
0000
0000
0010
0000
0000
1000
0000
0001
0000
,
0011
0000
0001
0000
0011
0000
0010
0100
,
0110
0000
0100
0000
1100
0000
1000
0001
,
1001
0000
0000
0100
0000
0000
0010
0000
1000
0000
0100
0000
0010
0000
0001
0000
,
0011
0000
0000
0100
0000
0000
1001
0000
0000
0010
0000
0000
0100
0000
0000
0000
,
1001
0000
0000
0000
;

//---------------dance-single - ----------------
#NOTES:
     dance-single:
     :
     Hard:
     16:
     0.836804,1.074185,0.335952,0.155055,0.667597,680.000000,641.000000,39.000000,18.000000,0.000000,0.000000,0.836804,1.074185,0.335952,0.155055,0.667597,680.000000,641.000000,39.000000,18.000000,0.000000,0.000000:
0000
0000
0000
0000
,
0000
0000
0000
0000
,
1100
0000
1000
1100
0000
0000
0000
0000
,
0101
0000
0001
0101
0000
0000
0000
0000
,
1100
0000
0000
0101
0000
0000
1100
0000
,
1010
0000
0010
1010
0000
0000
0000
0000
,
2000
0100
0001
0010
,
3002
0010
1000
0100
,
1003
0000
0010
0000
0100
0000
0001
0000
1000
0010
0100
0001
1000
0010
0100
0001
,
0020
0000
0130
0000
1000
1000
1001
0000
,
0001
0000
0000
0100
0001
0000
0100
0000
0010
0000
1000
0000
0100
0000
0100
0000
,
0001
0000
0000
0100
0001
0000
0010
0000
0100
0000
1000
0000
0100
0000
0100
0000
,
0010
0000
0000
0010
0000
0000
1000
0000
0100
0000
0001
0000
0100
0000
1000
0000
,
0010
0000
0000
0010
0000
0000
0001
0000
0100
0000
0010
0000
1000
0000
0100
0000
,
0001
0000
0000
0001
0100
0000
1000
0000
0010
0000
0100
0000
0001
0000
0010
0000
,
1000
0000
0000
1000
0010
0000
0001
0000
0100
0000
0010
0000
1000
0000
0100
0000
,
1001
0000
0000
0010
0000
0000
1000
0000
0001
0000
0100
0000
0010
0000
0100
0000
,
0000
0000
0110
0000
0000
0101
0000
0000
1001
0000
0000
0000
0200
0000
0000
0000
,
0310
0000
0000
1000
0100
0000
1000
0000
0001
0000
0100
0000
0010
0000
0100
0000
,
0001
0000
0000
0001
0100
0000
0010
0000
0100
0000
0010
0000
1000
0000
0100
0000
,
0001
0000
0000
0001
0010
0000
0100
0000
1000
0000
0001
0000
0100
0000
0010
0000
,
1000
0000
0000
0001
0100
0000
0010
0000
1000
0000
0000
0100
0010
0000
0001
0000
,
0011
0000
0000
0010
0001
0000
0010
0000
0001
0010
0001
0000
0011
0000
0010
0000
,
1100
0000
0000
0100
1000
0000
0100
0000
1000
0100
1000
0000
1100
0000
0100
0000
,
0010
0000
0000
0010
0000
0000
0001
0000
0100
0000
0010
0000
1000
0000
0100
0000
,
0000
0000
0110
0000
0000
0101
0000
0000
1001
0000
0200
0000
0310
0000
0000
0000
,
0001
0100
0000
1000
0100
0000
0001
0100
0000
0000
0010
0000
1000
0000
0100
0000
,
0001
0000
0000
0100
0000
0000
0000
0000
0000
1000
0000
0000
0100
0000
0000
0000
0000
0000
0010
0000
0000
0000
0000
0000
0001
0000
0000
0000
0010
0000
0000
0000
0100
0000
0000
0000
1000
0000
0000
0000
0000
0000
0000
0000
0000
1000
0000
0000
,
0001
0010
0000
1000
0010
0000
0001
0010
0000
0000
1000
0000
0010
0000
0001
0000
,
0100
1000
0000
0100
0001
0000
0100
0000
0010
0000
0000
0000
0010
1000
0010
1000
,
0010
1000
0100
0010
0100
0010
0001
0010
,
0001
0000
0000
0100
0000
0000
0001
0000
0000
0100
0000
0000
0010
0000
0010
0000
0100
0000
0100
0000
0000
0000
0000
0000
,
1100
0000
0000
0001
0000
0000
0100
0000
0101
0000
0000
0010
0000
0000
1000
0000
,
1100
0000
0001
0000
0011
0000
1000
0000
0100
1000
0100
1000
0001
0100
0010
1000
,
0001
0000
0001
0010
0100
1000
0001
1000
,
0110
0001
0110
1000
0101
0000
0002
0000
,
0103
0000
0001
0100
0010
1000
0100
0001
,
0100
1000
0001
0100
0010
0000
0001
0010
,
0100
0000
0001
0010
0100
0000
0100
0000
,
1000
0100
0001
0100
1000
0010
0100
0000
,
0002
0000
0103
0010
0100
0010
1000
0010
,
0110
0001
0010
1000
0100
0000
0001
1000
,
1100
0000
0001
0100
0110
0000
0110
0000
,
0001
0001
1000
1000
0100
1000
1001
0000
,
0001
0100
0000
0100
1000
0000
0001
0100
0000
0000
0100
0000
1000
0000
0001
0000
,
0010
0000
0000
0010
0000
0000
0000
0000
0000
1000
0000
0000
0001
0000
0000
0000
0000
0000
0010
0000
0000
0000
0000
0000
0010
0000
0000
0000
1000
0000
0000
0000
0010
0000
0000
0000
1000
0000
0000
0000
0000
0000
0000
0000
0000
0001
0000
0000
,
0010
0000
0000
0010
1000
0000
0001
0010
0000
0000
0100
0000
1000
0000
0001
0000
,
0100
0100
0000
1000
0001
0000
0100
0000
0100
0000
0000
0000
0001
1000
0001
1000
,
0001
0010
0001
0010
0100
1000
0010
0100
,
0001
0000
0000
0010
0000
0000
0001
0000
0000
0010
0000
0000
0100
0000
0100
0000
0010
0000
0010
0000
0000
0000
0000
0000
,
1000
0000
0000
1000
0000
0000
0100
0000
0001
0000
0000
0001
0000
0000
0010
0000
,
0100
0000
1000
0000
0100
0000
1000
0000
0001
0100
0001
0100
0010
1000
0100
0010
,
0001
0000
0000
0000
,
0000
0000
0000
0000
1000
0010
0100
0001
,
1000
0000
0000
0000
1000
0010
0100
0001
,
1000
0000
0000
0000
1000
0010
0100
0001
,
1000
0010
0100
0001
0010
0100
1000
0001
,
0100
0000
0000
0000
0001
0100
0010
1000
,
0100
0000
0000
0000
0001
0100
0010
1000
,
0100
0000
0000
0000
0001
0100
0010
1000
,
0100
0010
0001
1000
0001
0100
0010
1000
,
0200
0000
0000
0310
,
0001
0100
0001
0100
0001
0000
1000
0010
0000
0000
0100
0000
0010
0000
1000
0000
,
0001
0100
0001
0100
0001
0000
1000
0010
0000
0000
0100
0000
0010
0000
1000
0000
,
0100
0000
0000
0100
0000
0000
0010
0000
0000
0010
0000
0000
0001
0000
1000
0000
,
0100
0000
0000
0100
0000
0000
1000
0000
0000
1000
0000
0000
0010
0000
0100
0000
,
0001
1000
0100
1000
0001
0000
0100
0000
0001
1000
0100
1000
0001
0000
0010
0000
,
0100
1000
0010
1000
0100
0000
0010
0000
0100
0010
0001
0010
0100
0000
1000
0000
,
0001
0010
0100
1000
0001
0010
0100
1000
0010
0100
0001
0010
0001
1000
0001
1000
,
0100
0000
0000
0000
0000
0000
0000
0000
0010
0100
0010
0100
0020
0000
0000
0000
,
1030
0100
1000
0010
0100
0000
0001
0010
0000
0000
0001
0000
1000
0000
0001
0000
,
1000
0100
1000
0010
0100
0000
0001
0010
0000
0000
0001
0000
0100
0001
0010
0001
,
1000
0000
0000
2000
0000
0000
0001
0000
0000
3002
0000
0000
0103
0000
0100
0000
,
0010
0000
0000
0020
0000
0000
0100
0000
0000
0230
0000
0000
0310
0000
0100
0000
,
0001
0010
0100
1000
0010
0000
0100
0010
0000
0000
0100
0000
1000
0000
0100
0000
,
0001
0010
0100
1000
0010
0000
0100
0010
0000
0000
0100
0000
0010
1000
0100
1000
,
0001
0000
0000
0001
0000
0000
1000
0000
0010
0100
0001
1000
0010
0100
0001
1000
,
0000
0000
0101
0000
0000
0110
0000
0000
1100
0000
1000
0000
1001
0000
0000
0000
,
1000
0010
0100
0001
1000
0000
0001
0010
0000
0000
0001
0100
0001
1000
0010
1000
,
0010
0100
0001
1000
0010
0000
1000
0100
0000
0000
1000
0000
0001
0100
0010
1000
,
0001
0000
0000
0002
0000
0000
1000
0000
0000
2003
0000
0000
3010
0000
0010
0000
,
0100
0000
0000
0200
0000
0000
0010
0000
0000
0320
0000
0000
0130
0000
0010
0000
,
1000
0100
0010
0001
0100
0000
0010
0100
0000
0000
0010
1000
0010
1000
0001
0100
,
0010
1000
0001
0100
0010
0000
0100
0010
0000
0000
0100
0000
0001
0100
0010
1000
,
0010
0000
0000
0100
0000
0000
0010
0000
1000
0001
1000
0001
1000
0001
1000
0001
,
0100
0000
0000
0110
0000
0000
0001
0000
0000
1001
0000
0000
0200
0000
0000
0000
,
0310
0000
0000
0000
;

//---------------dance-double - ----------------
#NOTES:
     dance-double:
     :
     Easy:
     8:
     0.292881,0.407450,0.215354,0.137826,0.000000,238.000000,213.000000,25.000000,16.000000,0.000000,0.000000,0.292881,0.407450,0.215354,0.137826,0.000000,238.000000,213.000000,25.000000,16.000000,0.000000,0.000000:
00000000
00000000
00000000
00000000
,
00000000
00000000
00000000
00000000
,
01000000
00000000
00000000
01000000
00000000
00000000
00000000
00000000
,
00100000
00000000
00000000
00100000
00000000
00000000
00000000
00000000
,
01000000
00000000
00000000
01000000
00000000
00000000
01000000
00000000
,
00100000
00000000
00000000
00100000
00000000
00000000
00000000
00000000
,
20000000
00000000
01000000
00000000
,
30200000
00000000
01000000
00000000
,
02300000
00000000
00010000
00010000
,
03100000
00000000
01000000
00100000
,
10000000
00000000
10000000
00100000
,
00010000
00000000
00010000
00000100
,
00001000
00000000
00001000
00000100
,
00010000
00000000
00000100
00001000
,
00000010
00000000
00000010
00000100
,
00000001
00000000
00000001
00001000
,
00000100
00000000
00000010
00000000
,
00000000
00001001
00000000
00000000
00000110
00000000
00000000
00000000
,
00000001
00000100
00000001
00000000
,
00001000
00000100
00000010
00000010
,
00000100
00001000
00010000
00000000
,
00100000
00001000
00010000
00000000
,
00101000
00000000
00010000
00000100
,
00010100
00000000
00001000
01000000
,
01001000
00000000
00010000
00100000
,
00000000
10000000
00000000
00000000
10010000
00000000
00000000
00000000
,
02000000
00000000
00000000
00000000
,
00000000
00000000
00000000
00000000
,
03200000
00000000
00000000
00000000
,
20300000
00000000
00000000
00000000
,
30200000
00000000
00000000
00000000
,
00320000
00000000
00000000
00000000
,
00030200
00000000
00000320
00000000
,
00000230
00000000
00002300
00000001
,
00003001
00000000
00000000
00000000
,
00000001
00001000
00001001
00000000
,
00000010
00000000
00000010
00000000
,
00000100
00000100
00000100
00000000
,
00001001
00000000
00000001
00000000
,
00000100
00001000
00010000
00001000
,
00002000
00013000
00100000
00000000
,
01000000
01000000
00010000
00000000
,
10010000
00000000
01100000
00000000
,
00100000
01000000
10010000
00000000
,
00010000
00000000
10000000
00000000
,
01000000
01000000
00100000
00000000
,
00001000
00000000
00010000
00000000
,
00100000
01000000
00100000
00100000
,
00010000
00001000
00010000
00000000
,
00000100
00001000
00000100
00000000
,
00001001
00000000
00000110
00000000
,
00000001
00000000
00000010
00000000
00000100
00000000
00010000
00001000
,
00010000
00000000
00000000
00000000
,
00000000
00000000
00000000
00000000
,
00001000
00000000
00000000
00000000
,
00001000
00000000
00000000
00000000
,
00010000
00000000
00000000
00000000
,
00010000
00000000
00000000
00000000
,
00000100
00000000
00000000
00000000
,
00000100
00000000
00000000
00000000
,
00000010
00000000
00000000
00000000
,
00000020
00000000
00000000
00000030
,
00000001
00000100
00000001
00000000
,
00001000
00000100
00001000
00000000
,
00000020
00000000
00000100
00000000
,
00020030
00000000
00001000
00000000
,
00031000
00010000
00001000
00001000
,
00010000
00001000
00010000
00010000
,
00001000
00000000
00100000
00000000
01000000
00000000
10000000
00100000
,
01000000
00000000
00000000
00000000
,
10000000
10000000
00010000
01000000
,
00100000
00100000
01000000
00010000
,
10010000
00000000
00100000
00010000
,
00011000
00000000
00001000
00010000
,
00000100
00000010
00000001
00000001
,
00000100
00000010
00001000
00001000
,
00000110
00000000
00000001
00000010
,
00000000
00001100
00000000
00000000
00000011
00000000
00000000
00000000
,
00000001
00000100
00001000
00010000
,
00001000
00010000
00100000
10000000
,
01000000
01000000
00100000
00010000
,
00001000
00001000
00000100
00000010
,
00001001
00000000
00000010
00000100
,
00001001
00000000
00000100
00000010
,
00001001
00000000
00000110
00000000
,
00001100
00000000
00000000
00110000
00000000
00000000
00001000
00000000
,
00011000
00000000
00000000
00000000
;

//---------------dance-double - ----------------
#NOTES:
     dance-double:
     :
     Medium:
     12:
     0.498390,0.666736,0.327338,0.146441,0.167976,405.000000,367.000000,38.000000,17.000000,0.000000,0.000000,0.498390,0.666736,0.327338,0.146441,0.167976,405.000000,367.000000,38.000000,17.000000,0.000000,0.000000:
00000000
00000000
00000000
00000000
,
00000000
00000000
00000000
00000000
,
01100000
00000000
00000000
01000000
00000000
00000000
00000000
00000000
,
01100000
00000000
00000000
00100000
00000000
00000000
00000000
00000000
,
10010000
00000000
00000000
01100000
00000000
00000000
01000000
00000000
,
01010000
00000000
00000000
10100000
00000000
00000000
00000000
00000000
,
02000000
00000000
00100000
00010000
,
03002000
00000000
00010000
00100000
,
02003000
00000000
00100000
00000000
03010000
00100000
01000000
10000000
,
00100000
00000000
00000000
10010000
,
10000000
00000000
10000000
00000000
00100000
00010000
00001000
00000000
,
00010000
00000000
00010000
00000000
00001000
00000100
00000001
00000000
,
00000010
00000000
00000100
00000000
00000010
00000100
00001000
00000000
,
00010000
00000000
00001000
00000000
00010000
01000000
00100000
00000000
,
10100000
00000000
01000000
00000000
00100000
00010000
00001000
00000000
,
00001010
00000000
00000100
00000000
00001000
00100000
00010000
00000000
,
01100000
00000000
00000000
10000000
01000000
00100000
00010000
01000000
,
00000000
00000000
01000000
00000000
00000000
00100000
00000000
00000000
10010000
00000000
00000000
00000000
01100000
00000000
00000000
00000000
,
20000000
00000000
01000000
00100000
,
30020000
00000000
00100000
00001000
,
00030200
00000000
00000010
00001000
,
00000302
00000000
00000010
00001003
,
00001001
00000000
00000000
00001000
00000010
00000000
00000000
00000000
00000100
00000000
00000001
00000000
00001000
00000000
00000000
00000000
,
00000110
00000000
00000000
00000010
00001000
00000000
00000000
00000000
00000001
00000000
00000100
00000000
00000010
00000000
00000000
00000000
,
00001100
00000000
00000000
00000001
00000010
00000100
00001000
00010000
,
00000000
00000000
00001000
00000000
00000000
00010000
00000000
00000000
00011000
00000000
00000000
00000000
00101000
00000000
00000000
00000000
,
02000000
00000000
00100000
00100000
,
03020000
00000000
00001000
00001000
,
00230000
00000000
01000000
01000000
,
00302000
00000000
00010000
00010000
,
00003200
00000000
00000010
00001000
,
00000302
00000000
00000010
00001000
,
00000203
00000000
00002300
00000000
,
00013000
00000000
00100000
00000000
10000000
01000000
00010000
00001000
,
00000100
00000010
00001000
00000010
,
00001000
00000001
00000010
00000100
00001000
00000000
00001001
00000000
,
00000010
00000001
00001000
00000001
00000010
00000001
00001000
00000000
,
00000001
00000100
00001000
00000000
00010000
00000000
00000100
00001000
,
00010000
00001000
00010000
01000000
,
00001000
00010000
00001000
00010000
00100000
10000000
01000000
00000000
,
10010000
00000000
10000000
01000000
00100000
00010000
00100000
00010000
,
00100000
00001000
00010000
00001000
00000100
00000000
00000010
00000100
,
00000001
00000000
00001000
00000100
00000100
00000000
00000010
00000000
,
00000001
00000001
00001000
00001000
00000001
00001000
00000110
00000000
,
00000001
00000010
00001000
00010000
,
00100000
00000000
10000000
00000000
01000000
00000000
00010000
00001000
,
00000100
00000000
00000001
00000000
00000010
00000000
00001000
00010000
,
00100000
00000000
10000000
00000000
01000000
00000000
10000000
00100000
,
00010000
00000000
00001000
00000000
00010000
00000000
00000100
00000010
,
00000001
00000000
00000010
00000000
00001000
00000000
00010000
00100000
,
10000000
00000000
00000000
10000000
00000000
00000000
00100000
00000000
00010000
00000000
00000000
00010000
00000000
00000000
00001000
00000000
,
00000100
00000000
00000001
00000000
00000010
00000100
00001000
00000010
,
00010000
00000000
00000000
00000000
,
00000000
00000000
00000000
00000000
,
00000100
00000000
00000000
00000000
,
00000100
00000000
00000000
00000000
,
00001000
00000000
00000000
00000000
,
00001000
00000000
00000000
00000000
,
00100000
00000000
00000000
00000000
,
00100000
00000000
00000000
00000000
,
00020000
00000000
00000000
00000000
,
00002000
00000000
00033000
00011000
,
00001000
00010000
00000000
00000000
00001000
00000000
00010000
00001000
00000000
00000000
00000000
00000000
00000000
00000000
00000000
00000000
,
00100000
00010000
00000000
00000000
00100000
00000000
00010000
00100000
00000000
00000000
00000000
00000000
00000000
00000000
00000000
00000000
,
01000000
00000000
00000000
01000000
00000000
00000000
10000000
00000000
00000000
10000000
00000000
00000000
00000000
00000000
00000000
00000000
,
00100000
00000000
00000000
00100000
00000000
00000000
00010000
00000000
00000000
00010000
00000000
00000000
00000000
00000000
00000000
00000000
,
00011000
00000000
00000100
00001000
00010000
00000000
00000100
00010000
,
00001000
00000000
00000100
00001000
00010000
00000000
00001000
00010000
,
00001000
00000100
00010000
00001000
00000100
00000010
00001000
00000001
,
00000010
00000000
00000000
00001001
,
00000001
00000100
00000000
00000000
00000010
00000000
00001000
00000001
00000000
00000000
00000000
00000000
00000010
00000000
00000000
00000000
,
00000100
00001000
00000000
00000000
00000100
00000000
00000010
00000001
00000000
00000000
00000000
00000000
00000010
00000000
00000000
00000000
,
00001000
00000000
00000000
00001000
00000000
00000000
00010000
00000000
00000000
00010000
00000000
00000000
00100000
00000000
00000000
00000000
,
00010000
00000000
00000000
00010000
00000000
00000000
00001000
00000000
00000000
00001000
00000000
00000000
00000010
00000000
00000000
00000000
,
00000001
00000010
00000000
00000000
00000100
00000000
00001000
00000100
00000000
00000000
00000000
00000000
00000010
00000000
00000000
00000000
,
00000001
00000100
00000000
00000000
00000010
00000000
00001000
00000001
00000000
00000000
00000000
00000000
00000010
00000000
00000000
00000000
,
00000001
00000000
00000000
00000001
00000000
00000000
00000100
00000000
00001000
00000000
00100000
00000000
00010000
00000000
01000000
00000000
,
00000000
00000000
10100000
00000000
00000000
01000000
00000000
00000000
10010000
00000000
00000000
00000000
01100000
00000000
00000000
00000000
,
10000000
01000000
00000000
00000000
00100000
00000000
00010000
01000000
00000000
00000000
00100000
00000000
10000000
00000000
00000000
00000000
,
00010000
00100000
00000000
00000000
01000000
00000000
10000000
00010000
00000000
00000000
00100000
00000000
00010000
00000000
00001000
00000000
,
00000100
00000000
00000000
00000100
00000000
00000000
00000010
00000000
00000000
00000010
00000000
00000000
00001000
00000000
00010000
00000000
,
00100000
00000000
00000000
00100000
00000000
00000000
00010000
00000000
00000000
00010000
00000000
00000000
00001000
00000000
00000100
00000000
,
00000101
00000101
00001010
00001100
,
00011000
00011000
01010000
10100000
,
00100000
00000000
00000000
00010000
00000000
00000000
00001000
00000000
00010000
00000000
00000100
00000000
00001000
00000000
00010000
00000000
,
01001000
00000000
00000000
00010000
00000000
00000000
00010010
00000000
00000000
00001000
00000000
00000000
00101000
00000000
00000000
00000000
,
00011000
00000000
00000000
00000000
;

//---------------dance-double - ----------------
#NOTES:
     dance-double:
     :
     Hard:
     16:
     0.847879,1.074185,0.422094,0.120598,0.667597,689.000000,640.000000,49.000000,14.000000,0.000000,0.000000,0.847879,1.074185,0.422094,0.120598,0.667597,689.000000,640.000000,49.000000,14.000000,0.000000,0.000000:
  // measure 0
00000000
00000000
00000000
00000000
,  // measure 1
00000000
00000000
00000000
00000000
,  // measure 2
01100000
00000000
01000000
01100000
00000000
00000000
00000000
00000000
,  // measure 3
10010000
00000000
00010000
10010000
00000000
00000000
00000000
00000000
,  // measure 4
01100000
00000000
00000000
10010000
00000000
00000000
01100000
00000000
,  // measure 5
10010000
00000000
01000000
01100000
00000000
00000000
00000000
00000000
,  // measure 6
20010000
01000000
00100000
30010000
,  // measure 7
10020000
01000000
00100000
10030000
,  // measure 8
01000000
00000000
00010000
00000000
10000000
00000000
00100000
00000000
01000000
00010000
00100000
00010000
01000000
00001000
00100000
00001000
,  // measure 9
00010000
00000000
00000000
00000000
00001000
00010000
00011000
00000000
,  // measure 10
00001000
00000000
00000000
00010000
00000100
00000000
00001000
00000000
00010000
00000000
00100000
00000000
00001000
00000000
00000000
00000000
,  // measure 11
00001000
00000000
00000000
00010000
00000100
00000000
00001000
00000000
00010000
00000000
00100000
00000000
00001000
00000000
00000000
00000000
,  // measure 12
00001000
00000000
00000000
00000100
00000010
00000000
00000100
00000000
00000001
00000000
00000010
00000000
00000100
00000000
00010000
00000000
,  // measure 13
00001000
00000000
00000000
01000000
00100000
00000000
01000000
00000000
00010000
00000000
00100000
00000000
01000000
00000000
00010000
00000000
,  // measure 14
00011000
00000000
00000000
00010000
00100000
00000000
10000000
00000000
00010000
00000000
10000000
00000000
00100000
00000000
00010000
00000000
,  // measure 15
00011000
00000000
00000000
00001000
00000010
00000000
00000001
00000000
00001000
00000000
00000001
00000000
00000010
00000000
00001000
00000000
,  // measure 16
00011000
00000000
00000000
00011000
00000000
00000000
00000100
00000000
00001000
00000000
00100000
00000000
00010000
00000000
00001000
00000000
,  // measure 17
00000000
00000000
01010000
00000000
00000000
00011000
00000000
00000000
00001100
00000000
00000000
00000000
00000110
00000000
00000000
00000000
,  // measure 18
00000001
00000000
00000000
00000001
00000100
00000000
00001000
00000000
00010000
00000000
00100000
00000000
10000000
00000000
01000000
00000000
,  // measure 19
00100000
00000000
00000000
00100000
01000000
00000000
10000000
00000000
00100000
00000000
00000000
00100000
01000000
00000000
00010000
00000000
,  // measure 20
10000000
00000000
00000000
10000000
01000000
00000000
00010000
00000000
00001000
00000000
00000010
00000000
00000001
00000000
00001000
00000000
,  // measure 21
00000100
00000000
00000000
00000100
00000001
00000000
00000100
00000000
00000010
00000000
00000000
00000010
00001000
00000000
00000010
00000000
,  // measure 22
00000101
00000000
00000000
00000001
00000010
00000000
00000100
00000000
00010000
00001000
00010000
00000000
00100000
00000000
01000000
00000000
,  // measure 23
10100000
00000000
00000000
10000000
01000000
00000000
00100000
00000000
00001000
00010000
00001000
00000000
00000010
00000000
00000100
00000000
,  // measure 24
00001001
00000000
00000000
00000001
00000100
00000000
00000010
00000000
00001000
00000001
00001000
00000010
00010000
00000100
00001000
00000010
,  // measure 25
00000000
00000000
00001100
00000000
00000000
00000101
00000000
00000000
00001100
00000000
00000010
00000000
00001001
00000000
00000000
00000000
,  // measure 26
00000010
00001000
00000000
00010000
00010000
00000000
00001000
00000000
00000000
00000000
00100000
00000000
00100000
00000000
00100000
00000000
,  // measure 27
00010000
00000000
00000000
00000000
00000000
00000000
00000000
00000000
00000000
00010000
00000000
00000000
01000000
00000000
00000000
00000000
00000000
00000000
00100000
00000000
00000000
00000000
00000000
00000000
10000000
00000000
00000000
00000000
10000000
00000000
00000000
00000000
00010000
00000000
00000000
00000000
00010000
00000000
00000000
00000000
00000000
00000000
00000000
00000000
00000000
00100000
00000000
00000000
,  // measure 28
01000000
00100000
00000000
00010000
00010000
00000000
00001000
00000000
00000000
00000000
00000010
00000000
00000010
00000000
00000010
00000000
,  // measure 29
00001000
00000000
00000000
00000001
00000010
00000000
00000100
00000000
00001000
00000000
00000000
00000000
00000010
00000100
00000010
00000100
,  // measure 30
00000001
00000010
00001000
00010000
01000000
10000000
00010000
00100000
,  // measure 31
10010000
00000000
00000000
01000000
00000000
00000000
00010000
00000000
00000000
00001000
00000000
00000000
00000010
00000000
00000001
00000000
00001000
00000000
00000100
00000000
00000000
00000000
00000000
00000000
,  // measure 32
00001001
00000000
00000000
00000001
00000000
00000000
00000001
00000000
00001001
00000000
00000000
00001000
00000000
00000000
00001000
00000000
,  // measure 33
00001100
00000000
00000100
00000000
00011000
00000000
00010000
00000000
00001000
00100000
00001000
00100000
00010000
01000000
00100000
01000000
,  // measure 34
00010000
00000000
10000000
00100000
00010000
00001000
00010000
00000100
,  // measure 35
00011000
00010000
00001100
00000100
00011000
00000000
00011000
00000000
,  // measure 36
00002000
00000000
00013000
00100000
10000000
01000000
00100000
00010000
,  // measure 37
00001000
00000010
00010000
00001000
00010000
00000000
00000100
00001000
,  // measure 38
00010000
00000000
00100000
00001000
00001000
00000000
00011000
00000000
,  // measure 39
00000100
00001000
00010000
00001000
00000010
00000001
00000010
00000000
,  // measure 40
00000200
00000000
00000310
00001000
00000010
00001000
00000100
00010000
,  // measure 41
00100000
00010000
00001000
00000010
00001000
00000000
00010000
00100000
,  // measure 42
00100000
00000000
10000000
00100000
10000000
00000000
11000000
00000000
,  // measure 43
00100000
00100000
00100000
00100000
00010000
01000000
10010000
00000000
,  // measure 44
01000000
00010000
00000000
00001000
00001000
00000000
00010000
00000000
00000000
00000000
00000100
00000000
00000100
00000000
00000100
00000000
,  // measure 45
00001000
00000000
00000000
00000000
00000000
00000000
00000000
00000000
00000000
00001000
00000000
00000000
00000010
00000000
00000000
00000000
00000000
00000000
00000100
00000000
00000000
00000000
00000000
00000000
00000001
00000000
00000000
00000000
00000001
00000000
00000000
00000000
00001000
00000000
00000000
00000000
00001000
00000000
00000000
00000000
00000000
00000000
00000000
00000000
00000000
00000100
00000000
00000000
,  // measure 46
00000010
00000100
00000000
00001000
00001000
00000000
00010000
00000000
00000000
00000000
01000000
00000000
01000000
00000000
01000000
00000000
,  // measure 47
00010000
00000000
00000000
10000000
01000000
00000000
00100000
00000000
00010000
00000000
00000000
00000000
01000000
00100000
01000000
00100000
,  // measure 48
10000000
01000000
00010000
00001000
00000010
00000001
00001000
00000100
,  // measure 49
00001001
00000000
00000000
00000010
00000000
00000000
00001000
00000000
00000000
00010000
00000000
00000000
01000000
00000000
10000000
00000000
00010000
00000000
00100000
00000000
00000000
00000000
00000000
00000000
,  // measure 50
10010000
00000000
00000000
10000000
00000000
00000000
10000000
00000000
10010000
00000000
00000000
00010000
00000000
00000000
00010000
00000000
,  // measure 51
00110000
00000000
00100000
00000000
00011000
00000000
00001000
00000000
00010000
00001000
00010000
00001000
00000100
00000001
00000010
00000100
,  // measure 52
00001000
00000000
00000000
00000000
,  // measure 53
00000000
00000000
00000000
00000000
00000010
00000100
00000001
00000100
,  // measure 54
00000010
00000000
00000000
00000000
00001000
00000100
00010000
00000100
,  // measure 55
00001000
00000000
00000000
00000000
00000010
00000100
00000001
00000100
,  // measure 56
00001000
00010000
00000100
00001000
00010000
00100000
00001000
00010000
,  // measure 57
00001000
00000000
00000000
00000000
10000000
00100000
01000000
00100000
,  // measure 58
10000000
00000000
00000000
00000000
00010000
10000000
01000000
10000000
,  // measure 59
00010000
00000000
00000000
00000000
01000000
00010000
00100000
00010000
,  // measure 60
01000000
00100000
00010000
00001000
01000000
00001000
00010000
00000100
,  // measure 61
00002000
00000000
00000000
00000000
00000000
00003000
00001100
00000000
,  // measure 62
00000001
00000010
00000001
00000010
00000100
00000000
00010000
00000100
00000000
00000000
00000010
00000000
00000100
00000000
00001000
00000000
,  // measure 63
00000001
00000010
00000001
00000010
00000100
00000000
00010000
00000100
00000000
00000000
00000010
00000000
00000100
00001000
00000100
00001000
,  // measure 64
00000010
00000000
00000000
00000010
00000000
00000000
00000100
00000000
00000000
00000100
00000000
00000000
00001000
00000000
00010000
00000000
,  // measure 65
00100000
00000000
00000000
00100000
00000000
00000000
01000000
00000000
00000000
01000000
00000000
00000000
00010000
00000000
00010000
00000000
,  // measure 66
10000000
00100000
10000000
00100000
10000000
00000000
00010000
00000000
01000000
00010000
01000000
00010000
01000000
00000000
00001000
00000000
,  // measure 67
00100000
00001000
00100000
00001000
00100000
00000000
00000100
00000000
00010000
00000100
00010000
00000100
00010000
00000000
00000010
00000000
,  // measure 68
00001000
00000100
00000010
00000001
00001000
00000100
00000010
00000001
00000100
00000010
00000100
00000001
00000010
00000100
00001000
00000001
,  // measure 69
00001000
00000000
00000000
00000000
00000000
00000000
00000000
00000000
00000010
00000100
00000010
00000100
00000020
00000000
00000000
00000000
,  // measure 70
00001030
00000100
00001000
00000100
00000010
00000000
00000001
00000100
00000000
00000000
00000010
00000000
00000100
00000000
00001000
00000000
,  // measure 71
00010000
00001000
00010000
00001000
01000000
00000000
00010000
00100000
00000000
00000000
01000000
00000000
10000000
01000000
00100000
00010000
,  // measure 72
02000000
00000000
00000000
03100000
00000000
00000000
00200000
00000000
00000000
01300000
00000000
00000000
00001000
00000000
00010000
00000000
,  // measure 73
00200000
00000000
00000000
10300000
00000000
00000000
02000000
00000000
00000000
03010000
00000000
00000000
10000000
00000000
10000000
00000000
,  // measure 74
00010000
01000000
00010000
01000000
00100000
00000000
10000000
01000000
00000000
00000000
00100000
00000000
01000000
00000000
00010000
00000000
,  // measure 75
00001000
00010000
00001000
00010000
00000100
00000000
00001000
00000010
00000000
00000000
00000100
00000000
00000001
00000010
00000100
00001000
,  // measure 76
00000001
00000000
00000000
00000001
00000000
00000000
00000100
00000000
00000001
00000010
00000100
00001000
00000010
00000100
00001000
00010000
,  // measure 77
00000000
00000000
00001010
00000000
00000000
00000110
00000000
00000000
00000100
00000000
00000010
00000000
00001001
00000000
00000000
00000000
,  // measure 78
00001000
00000100
00001000
00000100
00000010
00000000
00000001
00000100
00000000
00000000
00000010
00001000
00000010
00001000
00000100
00010000
,  // measure 79
00000100
00010000
00001000
00100000
00001000
00000000
00100000
01000000
00000000
00000000
01000000
00000000
10000000
01000000
00100000
00010000
,  // measure 80
02000000
00000000
00000000
03010000
00000000
00000000
00020000
00000000
00000000
10030000
00000000
00000000
00001000
00000000
00010000
00000000
,  // measure 81
00200000
00000000
00000000
10300000
00000000
00000000
20000000
00000000
00000000
31000000
00000000
00000000
10000000
00000000
10000000
00000000
,  // measure 82
00010000
01000000
00010000
01000000
00100000
00000000
10000000
01000000
00000000
00000000
00100000
00010000
00100000
00010000
01000000
00001000
,  // measure 83
01000000
00001000
00010000
00000100
00010000
00000000
00000010
00000100
00000000
00000000
00000100
00000000
00000001
00000010
00000100
00001000
,  // measure 84
00000001
00000000
00000000
00000001
00000000
00000000
00000100
00000000
00000010
00001000
00000010
00001000
00000100
00010000
00001000
00100000
,  // measure 85
00010000
00000000
00000000
00001000
00000000
00000000
00000010
00000000
00000000
00010000
00000000
00000000
00001000
00000000
00000000
00000000
,  // measure 86
00011000
00000000
00000000
00000000
;
