#TITLE:∀;
#SUBTITLE:;
#ARTIST:HuΣeR respect for D.J.Amuro;
#TITLETRANSLIT:;
#SUBTITLETRANSLIT:;
#ARTISTTRANSLIT:;
#GENRE:RENAISSANCE;
#CREDIT:;
#BANNER:banner.png;
#BACKGROUND:background.png;
#LYRICSPATH:;
#CDTITLE:CDTITLE.png;
#MUSIC:Turned A.ogg;
#OFFSET:1.002000;
#SAMPLESTART:76.329330;
#SAMPLELENGTH:16.000000;
#LASTBEATHINT:0.002999;
#SELECTABLE:YES;
#BPMS:0.000000=90.000000
,36.000000=180.000000
,132.000000=90.000000
,148.000000=180.000000
,276.000000=90.000000
,280.000000=180.000000
;
#STOPS:
;
#BGCHANGES:1.500=Turned A.avi=1.000=1=0=1===CrossFade==,
289.000=background.png=1.000=0=0=1=====,
99999=-nosongbg-=1.000=0=0=0 // don't automatically add -songbackground-
;
#KEYSOUNDS:;
#ATTACKS:;

//---------------dance-single - ----------------
#NOTES:
     dance-single:
     :
     Hard:
     16:
     0.763772,1.462720,0.413169,0.173531,0.727177,647.000000,597.000000,50.000000,21.000000,0.000000,0.000000,0.763772,1.462720,0.413169,0.173531,0.727177,647.000000,597.000000,50.000000,21.000000,0.000000,0.000000:
  // measure 0
0000
0000
0000
0000
,  // measure 1
0002
0000
0003
0100
0010
1000
0000
0000
0010
0000
1000
0001
0000
0010
0100
1000
,  // measure 2
0000
1000
2000
0000
3001
0100
0000
0010
1000
0000
0001
0010
0100
0010
1000
0000
,  // measure 3
0001
0011
1100
1001
0010
1001
0100
1001
,  // measure 4
1000
0101
0011
1100
0100
0011
0110
1100
,  // measure 5
1001
0000
1000
0000
0011
0010
0100
0000
0010
0000
0001
1000
0000
0010
0100
0001
,  // measure 6
1000
0100
0010
0000
0100
1000
0000
0001
1000
0000
0010
1000
0001
0010
1000
0010
,  // measure 7
0001
0000
0011
0000
1100
0000
1010
0000
0100
0000
1001
0000
0010
0000
1001
1000
,  // measure 8
0100
0000
1100
0000
0110
0000
0011
0000
0001
0001
0000
1000
1000
0000
0000
0000
,  // measure 9
0110
0000
0001
0100
1000
0100
0000
0000
,  // measure 10
1001
0000
0001
1000
0000
0010
0100
0001
,  // measure 11
0000
0000
1000
0000
0200
0000
0000
0000
0310
0000
0100
0000
0000
0000
0010
0001
,  // measure 12
0010
0000
0100
1000
0010
0100
0010
0000
,  // measure 13
1000
0010
0100
0001
0010
0001
1000
0100
,  // measure 14
0010
0001
0010
0001
0100
0020
1030
0001
,  // measure 15
0010
0100
0010
0100
0010
0100
0010
0100
0010
0100
0010
0100
0010
0100
0010
0100
,  // measure 16
2000
0000
3001
0100
1000
0010
0001
0000
,  // measure 17
0440
0000
0000
0000
0000
0000
0330
0000
1001
0000
0001
1000
0000
1000
0001
0000
,  // measure 18
0010
0100
0000
1000
0000
0010
0100
0010
0100
0000
0000
0000
0001
0000
0000
0000
,  // measure 19
0010
0000
0000
0000
0100
0000
0010
0000
0001
0000
0000
0000
1000
0010
1000
0010
,  // measure 20
1000
0000
0100
0000
0020
0000
0000
0000
0130
0000
0010
0001
0100
0001
1000
0000
,  // measure 21
0001
0000
0100
0000
1000
0000
0000
0000
0102
0000
0013
0100
0000
0100
1000
0000
,  // measure 22
0001
1000
0000
0001
0000
0010
0000
0001
0100
0000
0010
0000
2000
0000
0000
0000
,  // measure 23
3200
0000
0300
0010
0100
1000
0000
0000
,  // measure 24
0011
0000
0001
0200
0000
0320
2030
0000
,  // measure 25
0004
0000
0000
0000
0000
0000
3003
0000
0110
0000
1000
0000
0001
1000
0001
0000
,  // measure 26
1000
0100
0000
1000
0000
0010
0100
0000
0001
0000
0010
0000
0001
0100
0001
0100
,  // measure 27
0001
0000
1000
0000
0000
0000
0100
1000
0010
0000
0100
0001
0010
0000
0100
0000
,  // measure 28
0010
0000
0001
0000
0200
0000
0000
0000
0310
0000
1000
0100
0010
0001
1000
0000
,  // measure 29
1100
0000
0100
0000
1000
0010
1000
0010
0100
0000
0010
0000
1000
0001
1000
0000
,  // measure 30
0100
0010
0000
0100
0000
1000
0000
0010
0100
0000
0001
0000
1000
0001
0010
0000
,  // measure 31
0100
0000
0000
0010
0001
1000
0000
0000
,  // measure 32
1001
0000
1000
0000
1001
0000
0001
0000
1001
0000
1000
0000
0010
0100
0010
0000
,  // measure 33
1001
0000
0000
0000
0000
0000
0000
0000
0000
0000
0000
0000
0000
0000
0000
0000
0000
0000
0000
0000
0000
0000
0000
0000
0000
0000
0000
0000
0000
0000
1000
0001
,  // measure 34
1000
0000
0000
0000
0000
0000
0000
0000
0000
0000
0000
0000
0000
0000
0000
0000
0000
0000
0000
0000
0000
0000
0000
0000
0000
0000
0000
0000
0000
0000
1000
0001
,  // measure 35
1000
0000
0000
0000
0000
0000
0000
0000
0000
0000
0000
0000
0000
0000
0000
0010
,  // measure 36
1000
0000
0000
0000
0000
0000
0000
0000
1000
0000
0100
0000
0010
0100
1000
0010
,  // measure 37
0110
0000
0000
0000
0000
0000
0000
0000
0000
0000
1000
0001
1000
0000
0001
0000
,  // measure 38
0010
0000
0000
0100
0000
0000
0010
0000
0000
0000
0001
0000
0000
0000
1000
0001
,  // measure 39
1000
0000
0000
0000
0000
1010
0000
0101
,  // measure 40
0000
0000
0011
0000
0000
0000
0110
0000
0000
0000
1100
0000
0000
0000
1000
0001
,  // measure 41
1000
0000
0000
0100
0010
0001
0100
1000
,  // measure 42
0000
1100
0000
0110
0000
0000
0000
1000
,  // measure 43
0001
0010
0001
0010
0100
1000
0100
1000
0010
1000
0010
1000
0001
0100
0001
0100
,  // measure 44
0020
0000
2030
3200
0302
0203
0020
0300
,  // measure 45
0130
0000
1001
1000
0001
0010
0000
0000
,  // measure 46
0110
0000
0000
0010
0001
0000
0100
0000
1010
0000
0000
1000
0001
0000
0010
0000
,  // measure 47
0011
0000
0000
0000
0010
0000
0100
0000
0010
0000
0001
0000
0000
0000
1000
0001
,  // measure 48
1000
0000
1000
0001
0010
0100
1000
0000
,  // measure 49
1001
0000
1000
0100
0010
0100
0000
0000
,  // measure 50
0011
0000
0000
0000
0010
0000
0100
0000
1000
0000
0000
0000
0001
0000
1000
0001
,  // measure 51
0100
0000
0010
0000
1000
0000
0001
0000
0010
0000
0001
0000
1000
0000
0100
0010
,  // measure 52
0100
0000
0010
0000
0011
0000
0100
0100
,  // measure 53
1001
0000
0010
0000
1001
0000
0000
0000
1000
0100
1000
0100
0010
0001
1000
0001
,  // measure 54
0100
0010
1000
0001
0010
0100
0010
0001
,  // measure 55
1000
0100
1000
0000
0100
0010
0100
0000
0010
0001
0010
0000
0001
0100
0001
0000
,  // measure 56
0100
0010
0100
0010
0100
0010
1000
0001
1000
0001
1000
0100
0010
0001
1000
0100
,  // measure 57
0010
0100
1000
0000
0100
1000
0010
0000
0100
0001
0010
0000
0100
0010
0001
0000
,  // measure 58
1000
0001
0100
0000
0001
0010
0100
0000
0010
0001
1000
0000
0010
0100
0001
0000
,  // measure 59
1000
0100
1000
0000
0100
0010
0100
0000
0010
0001
0010
0000
0001
0100
0001
0000
,  // measure 60
0100
0000
0010
0000
1000
0000
0001
0000
0010
0100
0010
0001
0100
0010
1000
0100
,  // measure 61
0010
0000
0000
0000
0001
0000
0100
0000
0001
0000
0010
0000
0100
0010
0001
0100
,  // measure 62
0010
0000
0000
0000
0100
0000
0001
0000
0100
0000
0010
0000
0100
0010
1000
0001
,  // measure 63
0010
0000
0100
1000
0010
0000
0100
0000
0010
1000
0001
0000
0010
0000
0100
0000
,  // measure 64
1000
0000
0000
1000
0100
0000
0010
0000
0100
0000
1000
0000
0010
0100
0001
1000
,  // measure 65
0100
0000
0000
0000
0010
0000
0001
0000
0100
0000
0010
0000
1000
0100
0010
0001
,  // measure 66
1000
0000
0000
0000
0001
0000
0010
0000
0100
0000
0010
0000
0001
0010
0100
1000
,  // measure 67
0001
0010
0100
1000
0100
0010
0100
1000
0010
0100
0001
0010
0100
0010
0001
1000
,  // measure 68
0100
0010
0100
1000
0010
0100
0001
0010
0100
0010
0001
0010
0100
1000
0100
0010
,  // measure 69
0001
0010
0100
1000
0100
0010
0100
1000
0100
0010
0001
0010
0100
0010
0001
1000
0100
0010
0001
0010
0100
1000
0100
0010
0100
1000
0100
0010
0001
0010
0100
2000
,  // measure 70
0002
0000
0000
0000
,  // measure 71
0000
0000
0000
0000
,  // measure 72
0000
3003
0000
0000
;

//---------------dance-single - ----------------
#NOTES:
     dance-single:
     :
     Medium:
     12:
     0.526495,0.751967,0.347062,0.057844,0.099160,446.000000,404.000000,42.000000,7.000000,0.000000,0.000000,0.526495,0.751967,0.347062,0.057844,0.099160,446.000000,404.000000,42.000000,7.000000,0.000000,0.000000:
0000
0000
0000
0000
,
1000
0100
0001
0100
0000
1100
0000
0011
,
0000
0001
0010
1000
0000
1010
0110
0000
,
0000
0001
0100
1000
0000
1100
0000
0110
,
0000
1000
0010
0001
0000
0001
0110
0000
,
1000
0000
0100
0000
0110
0000
0001
0000
0000
0000
0110
0000
0000
0000
1001
1000
,
0001
0000
0001
0000
0100
0000
1000
0000
0000
0000
0100
0000
1010
0000
0101
0001
,
0010
0000
0100
0000
1000
0000
0001
0000
0000
0000
1100
0000
0000
0000
0011
0010
,
0100
0000
0000
0000
1000
0000
0000
0000
0001
0100
0000
0100
0001
0000
1000
0000
,
1001
0001
0010
0001
,
1000
0010
1000
0100
,
0010
0100
1000
0010
,
0100
0001
1000
0010
,
1000
0010
1000
0000
0010
0100
0010
0000
,
0100
0001
0100
0000
0001
0010
0001
0000
,
0010
0001
0010
0100
1000
0001
0100
0010
,
2010
0000
3001
0010
1000
0010
0001
0000
,
2002
0000
3000
0000
0103
0001
0010
0000
,
0100
0010
0001
0000
1001
0000
0110
0000
,
0100
0010
1000
0000
0001
1000
0100
0000
,
0010
0100
1000
0000
0100
1000
0010
0001
,
0010
0100
0001
0000
0010
0100
1000
0000
,
0100
1000
0010
0000
0101
0000
0011
0000
,
1001
0000
0000
1000
0001
0010
0000
0000
,
0100
0000
0010
0001
0000
1000
0010
0000
,
0220
0000
0030
0000
0301
0010
0100
1000
,
0000
0001
1000
0010
0000
1000
0001
0000
,
0010
0000
0001
0000
0010
0100
1000
0100
,
0000
1000
0010
0100
1000
0100
0001
1000
,
0200
0000
0310
0100
1000
0001
0000
1000
,
0001
0010
0000
0100
0010
0001
0000
0010
,
0100
0000
0000
0010
0001
1000
0000
0000
,
1001
0000
0010
0100
0001
1000
0010
0000
,
0101
0000
0000
0000
0000
0000
0000
0000
0000
0000
0000
0000
0000
0000
0000
0000
0000
0000
0000
0000
0000
0000
0000
0000
0000
0000
0000
0000
0000
0000
1000
0010
,
1000
0000
0000
0000
0000
0000
0000
0000
0000
0000
0000
0000
0000
0000
0000
0000
0000
0000
0000
0000
0000
0000
0000
0000
0000
0000
0000
0000
0000
0000
1000
0010
,
1000
0000
0000
0000
0000
0000
0000
0000
0000
0000
0000
0000
0000
0000
0000
0100
,
0010
0000
0000
0000
0000
0000
0000
0000
0100
0000
0001
0000
1000
0100
0010
0001
,
1000
0000
0000
0000
0000
0100
1000
0010
,
0100
0000
0000
0010
0000
0000
1000
0000
0000
0000
0001
0000
0000
0000
1000
0100
,
1000
0000
0000
0000
0000
0100
0000
1000
,
0000
0000
0010
0000
0000
0000
0100
0000
0000
0000
0001
0000
0000
0000
0100
0010
,
0100
0000
0000
0010
0100
0001
1000
0100
,
0000
0110
0000
0011
0000
0000
0000
0001
,
0010
0100
1000
0100
0010
0100
1000
0010
,
0200
0000
1300
0100
0001
0100
1000
0000
,
0101
0000
1010
1000
0001
0010
0000
0000
,
1100
0000
1000
0010
1010
0000
0001
0100
,
0101
0000
0001
0000
0010
0100
0000
0100
,
1000
0000
0100
0001
0100
0010
0001
0000
,
1001
0000
1000
0100
0010
0001
0000
0000
,
1001
0000
0001
0100
0110
0000
0010
1000
,
1100
0000
0000
0000
0000
0000
0100
0000
0010
0000
0100
0000
0000
0000
1000
0001
,
1000
0000
1000
0000
0101
0000
0001
0010
,
0100
0100
0100
0000
0010
0001
0100
0000
,
0010
1000
0001
0000
1000
0100
0010
0000
,
0100
1000
0010
0000
0100
0001
0010
0000
,
1000
0100
1000
0100
0001
0100
0001
0100
,
1000
0100
0010
0001
1000
0000
0001
0000
,
1000
0100
0010
0001
1000
0000
0010
0000
,
0100
0001
0010
0000
0100
1000
0010
0000
,
0100
0010
1000
0001
0010
0100
1000
0001
,
1001
0000
1000
0100
0010
0001
1000
0100
,
0110
0000
0100
0010
0001
1000
0100
0010
,
0001
0000
0010
0100
0000
0100
1000
0000
,
1001
0000
0001
0100
1000
0100
0010
1000
,
0100
0000
0010
0001
0100
0010
1000
0001
,
1001
0000
0001
0010
0100
1000
0100
0010
,
0001
0010
0001
0010
1000
0010
1000
0010
,
0001
0010
1000
0010
0001
0010
1000
0010
,
0001
0100
0001
0100
1000
0100
1000
0100
0001
0100
1000
0100
0010
1000
0001
0010
,
1100
0000
0000
0000
;

//---------------dance-single - ----------------
#NOTES:
     dance-single:
     :
     Easy:
     9:
     0.352964,0.433827,0.181794,0.033053,0.020658,299.000000,277.000000,22.000000,4.000000,0.000000,0.000000,0.352964,0.433827,0.181794,0.033053,0.020658,299.000000,277.000000,22.000000,4.000000,0.000000,0.000000:
0000
0000
0000
0000
,
1000
0000
0001
0000
0010
0001
0010
0000
,
0001
0000
1000
0000
0010
1000
0010
0000
,
0100
0010
1000
0001
0000
1000
0000
0001
,
0000
0010
0001
0100
0000
0010
1000
0100
,
0010
0000
1100
0000
0100
1000
0010
0000
,
0100
0000
0001
0000
0010
0001
1000
0000
,
0001
1000
0001
0010
0000
0100
0000
1000
,
0000
1000
0001
0100
0000
0100
0001
1000
,
0100
1000
0010
0100
,
0010
1000
0001
0010
,
0001
0100
0010
1000
,
0100
0010
0100
1000
,
0001
1000
0010
0100
,
0010
0000
1000
0000
0001
0020
0130
0000
,
0010
0001
0100
0010
,
1001
0000
1000
0010
0100
0001
1000
0000
,
1002
0000
0103
0000
,
0001
0000
0100
0000
,
0001
0000
0010
0000
,
0100
0000
0010
0001
,
1000
0000
0010
0000
,
1000
0000
0100
0000
,
1000
0000
0000
0001
0100
0001
0000
0000
,
0100
0000
0010
1000
0000
1000
0100
0000
,
1002
0000
0013
0000
,
0001
0000
0100
0000
,
0010
0000
1000
0000
,
0001
0000
0010
0001
,
1000
0000
0100
0000
,
1000
0000
0010
0000
,
0100
0000
0000
0010
1000
0010
0000
0000
,
1000
0000
0001
0010
0100
1000
0001
0000
,
0110
0000
0000
0000
0000
0000
0000
0000
0000
0000
0000
0000
0000
0000
0000
0001
,
0001
0000
0000
0000
0000
0000
0000
0000
0000
0000
0000
0000
0000
0000
0000
0001
,
0001
0000
0000
0000
0000
0000
0000
0000
0000
0000
0000
0000
0000
0000
0000
1000
,
0001
0000
0000
0000
0000
0000
0000
0000
1000
0100
0000
0010
0001
0000
1000
0000
,
1001
0000
0000
0000
0000
1000
0100
0010
,
0000
0100
0000
1000
0000
0010
0000
0100
,
0010
0000
0000
0000
0000
0100
0000
0010
,
0000
1000
0000
0001
0000
0010
0000
0100
,
0010
0000
0000
0100
0010
0001
1000
0010
,
0000
0100
0000
0100
0000
0000
0000
0010
,
1000
0001
1000
0100
,
1100
0000
1000
0010
0001
0010
1000
0000
,
1001
0110
0100
0001
,
0011
0001
1001
1000
,
1100
1000
0010
0000
,
0100
0000
0001
0100
0010
1000
0100
0000
,
0110
0100
1000
0001
,
1001
0001
0011
0001
,
1001
0000
1000
0000
0100
0000
1000
0010
,
1000
0000
0001
0000
0011
0000
0100
1000
,
0001
1000
1001
0000
0001
0000
0010
0000
,
0001
1000
0100
0010
,
0100
1000
0010
0100
,
0001
0000
0010
0000
0001
1000
0100
0000
,
0010
0100
1000
0000
0010
0000
0100
0000
,
0001
1000
0100
0010
,
0100
1000
0010
0100
,
0001
1000
0010
0100
0001
1000
0010
0100
,
0001
0010
0001
1000
,
1100
0100
1000
0010
,
0100
0000
0000
0010
0000
0000
1000
0000
,
0001
1000
0100
0010
,
0011
0001
0100
0010
,
1010
1000
0010
0100
,
0101
0001
0010
0100
,
0010
0001
1000
0100
,
0020
0000
0000
0000
,
0130
0000
0000
0000
;

//---------------dance-single - ----------------
#NOTES:
     dance-single:
     :
     Beginner:
     5:
     0.172350,0.260296,0.082634,0.000000,0.000000,146.000000,136.000000,10.000000,0.000000,0.000000,0.000000,0.172350,0.260296,0.082634,0.000000,0.000000,146.000000,136.000000,10.000000,0.000000,0.000000,0.000000:
0000
0000
0000
0000
,
1000
0000
0001
0000
,
0100
0000
0010
1000
,
0100
0000
1000
0000
,
0001
0000
0100
0010
,
0100
0000
0001
0000
,
1000
0000
0100
0000
,
1000
0000
0001
0000
,
0100
0000
0010
1000
,
1001
0000
0001
0000
,
1000
0000
0000
0000
,
0010
0000
0100
0000
,
0001
0000
0000
0000
,
0010
0000
0100
0000
,
1000
0000
0001
0000
,
0100
0000
0010
0000
,
1001
0001
0100
0001
,
1000
0000
1001
0000
,
0001
0000
1000
0000
,
0010
0000
1000
0000
,
0100
0000
0010
0100
,
1000
0000
0100
0000
,
1000
0000
0010
0000
,
0100
0000
0010
0000
,
1000
0001
1000
0000
,
1001
0000
0110
0000
,
0010
0000
0100
0000
,
0001
0000
0010
0000
,
0001
0000
1000
0000
,
0001
0000
0100
0000
,
0001
0000
0010
0000
,
0100
0000
0010
0000
,
0001
0001
1000
1000
,
0110
0000
0000
0000
,
1000
0000
0000
0000
,
1000
0000
0000
0000
,
1000
0000
0001
1000
,
0010
0000
0000
0000
,
1000
0000
0000
0000
,
0100
0000
0000
0000
,
1000
0000
0000
0000
,
0001
0000
0000
0000
,
1000
0000
0000
0000
,
0010
0000
0100
0000
,
1001
0001
1000
0010
,
0000
1001
0000
0000
,
1000
0000
0001
0000
,
0010
0000
0000
0000
,
0100
0000
0010
0000
,
0001
0000
0000
0000
,
1000
0000
0010
0000
,
0100
0000
0000
0000
,
0010
0000
1000
0000
,
0000
1001
0001
0000
,
1000
0000
0010
0000
,
1000
0000
0100
0000
,
0010
0000
0001
0000
,
1000
0000
0001
0000
,
0100
0000
0001
0000
,
0010
0000
0001
0000
,
1000
0000
0001
0000
,
1000
0001
0000
0000
,
0010
0001
0000
0000
,
0010
0000
0000
0000
,
0100
0000
0000
0000
,
1000
0010
0000
0000
,
0100
0001
0000
0000
,
1000
0000
0100
0000
,
0010
0000
0001
0000
,
1000
0100
0010
0001
,
1001
0000
0000
0000
;
