#VERSION:0.83;
#TITLE:トラウマ催眠少女さとり！;
#SUBTITLE:;
#ARTIST:DJ SHARPNEL feat.一ノ瀬月琉;
#TITLETRANSLIT:Trauma Saimin Shoujo Satori!;
#SUBTITLETRANSLIT:;
#ARTISTTRANSLIT:;
#GENRE:;
#ORIGIN:;
#CREDIT:;
#BANNER:Trauma saimin shoujo Satori!-bn.png;
#BACKGROUND:Trauma saimin shoujo Satori!-bg.png;
#PREVIEWVID:;
#JACKET:Trauma saimin shoujo Satori!-jacket.png;
#CDIMAGE:;
#DISCIMAGE:;
#LYRICSPATH:;
#CDTITLE:;
#MUSIC:Trauma Saimin Shoujo Satori!.mp3;
#OFFSET:-0.090000;
#SAMPLESTART:67.479004;
#SAMPLELENGTH:15.000000;
#SELECTABLE:YES;
#BPMS:0.000=210.000;
#STOPS:;
#DELAYS:;
#WARPS:;
#TIMESIGNATURES:0.000=4=4;
#TICKCOUNTS:0.000=4;
#COMBOS:0.000=1;
#SPEEDS:0.000=1.000=0.000=0;
#SCROLLS:0.000=1.000;
#FAKES:;
#LABELS:0.000=Song Start;
#BGCHANGES:0.000=Trauma saimin shoujo Satori!.avi=1.000=0=0=0=StretchNoLoop====,
99999=-nosongbg-=1.000=0=0=0 // don't automatically add -songbackground-
;
#KEYSOUNDS:;
#ATTACKS:
;

//---------------dance-single - ----------------
#NOTEDATA:;
#CHARTNAME:;
#STEPSTYPE:dance-single;
#DESCRIPTION:;
#CHARTSTYLE:;
#DIFFICULTY:Beginner;
#METER:5;
#RADARVALUES:0.236225,0.319519,0.103348,0.060287,0.000000,192.000000,180.000000,12.000000,7.000000,0.000000,0.000000,0.000000,0.000000,0.000000,0.236225,0.319519,0.103348,0.060287,0.000000,192.000000,180.000000,12.000000,7.000000,0.000000,0.000000,0.000000,0.000000,0.000000;
#CREDIT:;
#NOTES:
0000
0000
0000
0000
,
0000
0000
0000
0000
,
0100
0000
0100
0000
,
0010
0000
0010
0000
,
0100
0000
0100
0000
,
0010
0000
0010
0000
,
1000
0000
1000
0000
,
0001
0000
0001
0000
,
1000
0000
1000
0000
,
0001
0000
0001
0000
,
1000
0000
1000
0000
,
0100
0000
0010
0000
,
0001
0000
0001
0000
,
0010
0000
0100
0000
,
1000
0000
1000
0000
,
0010
0000
0100
0000
,
0001
0000
0001
0000
,
0100
0000
0010
0000
,
1001
0000
1000
0000
,
0001
0000
0010
0000
,
0001
0000
0010
0000
,
0010
0000
0100
0000
,
1000
0000
1000
0000
,
0010
0000
0100
0000
,
0001
0000
0001
0000
,
1000
0000
1000
0000
,
0110
0000
0010
0000
,
0100
0000
0001
0000
,
0010
0000
0010
0000
,
0100
0000
0100
0000
,
1000
0000
0001
0000
,
0100
0000
0001
0000
,
0010
0000
0010
0000
,
0001
0000
1000
1000
,
0020
0000
0030
0000
,
0200
0000
0300
0000
,
0020
0000
0030
0000
,
2000
0000
3000
0000
,
0002
0000
0003
0000
,
0020
0000
0030
0000
,
0200
0000
0300
0000
,
1000
0000
0000
0000
,
0001
0000
0001
0000
,
0001
0000
0001
0001
,
1000
0000
1000
0000
,
1000
0000
1000
1000
,
0010
0000
0010
0000
,
0010
0000
0010
0010
,
0100
0000
0100
0000
,
0110
0000
0000
0000
,
0001
0000
0001
0000
,
1000
0000
1000
0000
,
0001
0000
0001
0000
,
1000
0000
1000
0000
,
0010
0000
0100
0000
,
0010
0000
0100
0000
,
0001
0000
1000
0000
,
0001
0000
1000
0000
,
0100
0000
0000
0000
,
1100
0000
1000
0000
,
1000
0000
1000
0000
,
0010
0000
0010
0000
,
0100
0000
0100
0000
,
1001
0000
0000
0000
,
0110
0000
0000
0000
,
1001
0000
0110
0000
,
1001
0000
0000
0000
,
0011
0000
0001
0000
,
0001
0000
0001
0000
,
0100
0000
0100
0000
,
0100
0000
0100
0000
,
0010
0000
0010
0000
,
1000
0000
1000
0000
,
0001
0000
0010
0000
,
0100
0000
1000
0000
,
1001
0000
0000
0000
,
0110
0000
0000
0000
,
0001
0000
0001
0000
,
1000
1000
1000
0000
,
0010
0000
0010
0000
,
0100
0100
0100
0000
,
1000
0000
1000
0000
,
0010
0010
0010
0000
,
0100
0000
0100
0000
,
0001
0001
0001
0000
,
1000
0000
0001
0000
,
1000
1000
1000
0000
,
0001
0000
1000
0000
,
0001
0001
0001
0000
,
0100
0000
0010
0000
,
0100
0100
0100
0000
,
0001
0000
0001
0000
,
1000
0100
0010
0001
;

//---------------dance-single - ----------------
#NOTEDATA:;
#CHARTNAME:;
#STEPSTYPE:dance-single;
#DESCRIPTION:;
#CHARTSTYLE:;
#DIFFICULTY:Easy;
#METER:9;
#RADARVALUES:0.396169,0.439339,0.430619,0.000000,0.000000,322.000000,272.000000,50.000000,0.000000,0.000000,0.000000,0.000000,0.000000,0.000000,0.396169,0.439339,0.430619,0.000000,0.000000,322.000000,272.000000,50.000000,0.000000,0.000000,0.000000,0.000000,0.000000,0.000000;
#CREDIT:;
#NOTES:
0000
0000
0000
0000
,
0000
0000
0000
0000
,
1100
0000
0101
0000
,
0001
0010
0100
1000
,
0011
0000
1100
0000
,
1000
0100
0010
0001
,
1010
0000
0101
0000
,
0001
0010
0100
1000
,
1010
0000
0101
0000
,
1000
0100
0010
0001
,
0100
0101
0000
0101
,
1000
0000
1000
0000
,
0010
1010
0000
1010
,
0001
0000
0001
0000
,
1000
1100
0000
1100
,
0010
0000
0010
0000
,
0001
0011
0000
0011
,
0001
0010
0100
1000
,
0010
0010
1000
1000
,
0100
0010
0001
0000
,
0100
0100
0010
0010
,
0100
0001
1000
0000
,
0001
0001
0010
0010
,
0001
0010
0100
0000
,
1000
1000
0100
0100
,
1000
0100
0010
0000
,
0001
0100
1000
0100
,
0001
0100
0001
0000
,
1000
0100
0001
0100
,
1000
0100
1000
0000
,
0010
1000
0100
1000
,
0010
0100
0010
0000
,
0001
0100
0010
0100
,
0001
1000
0100
0100
,
0110
0000
0000
0000
,
0010
0000
0000
0000
,
0001
0000
0000
0000
,
0100
0000
0000
0000
,
1000
0000
0000
0000
,
0010
0000
0000
0000
,
0001
0000
0100
1000
,
0010
0000
0000
0000
,
1100
0100
0100
0100
,
0100
0100
0100
0100
,
0010
0010
0010
0010
,
0010
0010
0010
0010
,
0001
0001
0001
0001
,
0001
0001
0001
0001
,
1000
0001
1000
0001
,
0110
0000
0000
0000
,
1000
0100
0100
0100
,
0000
0001
0100
0100
,
0010
1000
1000
0100
,
0000
0010
0001
0001
,
1001
1000
0100
0100
,
0000
0001
0100
0100
,
0010
1000
0010
1000
,
0000
1000
0100
0010
,
1001
0000
0000
0000
,
0101
0000
0001
0100
,
0010
0000
1000
0100
,
0010
0001
0010
0100
,
1000
0000
1000
0000
,
1010
0000
0000
1000
0000
0000
0100
0000
,
0110
0000
0000
0010
0000
0000
0001
0000
,
0101
0000
0000
0010
0000
0000
1000
0000
,
0001
0100
1000
0000
,
1000
0100
1000
0100
,
0010
0001
0010
0001
,
1000
0100
0010
0001
,
1000
0000
1000
0000
,
0011
0000
0000
0010
0000
0000
0100
0000
,
1100
0000
0000
1000
0000
0000
0100
0000
,
0110
0000
0000
0010
0000
0000
0100
0000
,
0110
0000
1001
0000
,
0110
0000
0000
0000
,
1001
0010
0100
0000
,
1100
0000
0011
0000
,
1000
0100
0010
0001
,
0011
0000
1100
0000
,
0001
0010
0100
1000
,
1010
0000
0101
0000
,
1000
0100
0010
0001
,
0101
0000
1010
0000
,
0001
0010
0100
1000
,
1001
0000
0110
0000
,
0001
0100
1000
0100
,
1001
0000
0110
0000
,
1000
0100
0001
0100
,
1100
0000
0101
0000
,
0001
0010
1000
0100
,
0101
0000
1001
0000
,
0010
0100
1010
1001
;

//---------------dance-single - ----------------
#NOTEDATA:;
#CHARTNAME:;
#STEPSTYPE:dance-single;
#DESCRIPTION:;
#CHARTSTYLE:;
#DIFFICULTY:Medium;
#METER:11;
#RADARVALUES:0.570877,0.639038,0.740664,0.068899,0.004306,464.000000,378.000000,86.000000,8.000000,0.000000,0.000000,0.000000,0.000000,0.000000,0.570877,0.639038,0.740664,0.068899,0.004306,464.000000,378.000000,86.000000,8.000000,0.000000,0.000000,0.000000,0.000000,0.000000;
#CREDIT:;
#NOTES:
0000
0000
0000
0000
,
0000
0000
0000
0000
,
1000
0100
0000
0000
1000
0010
0000
0000
,
0001
0010
0100
1000
,
0001
0010
0000
0000
0001
0100
0000
0000
,
1000
0100
0010
0001
,
0100
0010
0000
0000
1000
0001
0000
0000
,
0010
1000
0100
0010
,
1000
0001
0000
0000
0100
0010
0000
0000
,
0100
0001
0010
0100
,
1000
0100
0010
0000
0001
0010
0100
0000
,
1100
0110
0011
0101
,
0001
0100
0010
0000
1000
0010
0100
0000
,
0101
0110
1010
1100
,
1000
0100
0010
0000
0001
0010
0100
0000
,
1100
1010
0101
0011
,
0001
1000
0100
0000
1000
0001
0100
0000
,
0110
0110
1001
1001
,
0001
0000
1000
0000
0100
1000
0100
0000
,
1000
0000
0001
0000
0010
0001
0010
0000
,
0100
1000
0100
0000
0010
0001
0100
0000
,
0010
0000
0010
0000
1000
0100
0010
0000
,
0001
0000
1000
0000
0001
1000
0100
0000
,
0001
0000
0010
0000
0001
0010
0100
0000
,
1000
0010
0100
0000
0001
0100
0010
0000
,
0100
0010
1000
0001
1000
0000
1100
0000
,
0001
0000
0010
0000
0001
0010
0100
0000
,
1000
0010
1000
0010
0100
0000
0001
0000
,
0010
0000
0100
0000
0010
0100
0010
0000
,
0001
0100
0001
0100
0010
0000
1100
0000
,
1000
0100
1000
0000
0001
0000
0010
0000
,
0100
1000
0001
1000
0001
0000
0110
0000
,
0100
0010
1000
0000
0100
0010
0001
0000
,
0100
0010
1000
0001
1000
0100
0100
0000
,
0020
0000
0000
0000
,
0230
0000
0000
0000
,
2300
0000
0000
0000
,
3020
0000
0000
0000
,
0032
0000
0000
0000
,
0203
0000
0000
0000
,
0320
0000
0230
0000
,
1300
0000
0000
0000
,
1100
0100
0100
0100
,
0100
0000
0100
0000
0100
0000
0100
0100
,
0010
0010
0010
0010
,
0010
0000
0010
0000
0010
0000
0001
0010
,
0100
0100
1000
1000
,
0010
0000
0010
0000
1000
0000
0100
0100
,
0010
0000
0001
0000
0100
0000
0010
0001
,
1000
0000
0010
0000
,
0100
0100
0001
0001
,
0010
0010
1000
1000
,
0010
0010
0100
0100
,
1000
1000
0001
0001
,
0100
0100
1000
1000
,
0010
0010
0001
0001
,
0010
0010
1000
1000
,
0100
0100
0001
0001
,
1001
0000
0000
0000
,
1100
0010
0011
0110
,
1100
0000
1000
0000
0001
0000
1000
0010
,
1000
0000
0001
0010
0100
0000
1000
0000
,
1100
1000
1010
0001
,
0010
0000
0001
0010
0000
0000
0011
0000
,
0100
0000
1000
0100
0000
0000
1100
0000
,
1000
0000
0001
1000
0000
0000
0010
0000
,
0100
0000
0000
0010
0000
0000
0100
0000
0100
0000
0000
0000
0110
0000
0000
0000
,
1001
0001
0010
0100
,
1000
0000
0100
0000
0010
0000
0001
0100
,
1000
0000
0010
0001
0010
0000
0100
0000
,
1000
0100
0010
1001
,
0010
0000
0100
0010
0000
0000
1100
0000
,
0010
0000
0001
0010
0000
0000
1100
0000
,
0001
0000
1000
0010
0000
0000
1100
0000
,
0101
0010
0110
0010
,
1001
0000
0000
0000
,
0001
0100
0010
1000
0100
1000
0010
0000
,
1100
0001
0011
0100
,
1010
0101
1010
0101
,
0011
0100
1010
0100
,
0011
1100
0011
1100
,
0101
0010
1100
0010
,
1001
0110
1001
0110
,
0011
0100
1001
0010
,
0101
1010
0101
1010
,
1100
0100
0110
0010
,
0011
0101
0110
1010
,
1010
1000
1100
0100
,
0110
0011
0101
1001
,
1010
0010
0110
0100
,
0101
0011
0101
1100
,
0110
0001
0110
1000
,
0110
0110
1001
1001
;

//---------------dance-single - ----------------
#NOTEDATA:;
#CHARTNAME:;
#STEPSTYPE:dance-single;
#DESCRIPTION:;
#CHARTSTYLE:;
#DIFFICULTY:Hard;
#METER:15;
#RADARVALUES:0.803411,0.878677,1.205732,0.086124,0.034449,653.000000,513.000000,140.000000,10.000000,0.000000,0.000000,0.000000,0.000000,0.000000,0.803411,0.878677,1.205732,0.086124,0.034449,653.000000,513.000000,140.000000,10.000000,0.000000,0.000000,0.000000,0.000000,0.000000;
#CREDIT:;
#NOTES:
0000
0000
0000
0000
,
0000
0000
0000
0000
,
1000
1000
0000
0000
0001
0001
0000
0000
,
1100
0110
0011
0101
,
0001
0001
0000
0000
0100
0100
0000
0000
,
0011
0110
1100
1010
,
1000
1000
0000
0000
0010
0010
0000
0000
,
1010
0110
0101
0011
,
0001
0001
0000
0000
0100
0100
0000
0000
,
0101
0110
1010
1100
,
1000
1000
0100
0000
0001
0001
0100
0000
,
1100
0011
1100
0011
,
0100
0100
0010
0000
0010
0010
0100
0000
,
1001
0110
1001
0110
,
0001
0001
0100
0000
1000
1000
0100
0000
,
0011
1100
0011
1100
,
0010
0010
1000
0000
1000
1000
0100
0000
,
0101
0011
1100
1010
,
0001
0100
0001
0100
0001
0100
0010
0000
,
1000
0100
1000
0100
1000
0100
0010
0000
,
0001
0010
0100
1000
0100
1000
0100
0000
,
1000
0010
0100
0001
0100
0001
0010
0000
,
0001
0100
1000
0000
0100
0001
1000
0000
,
0100
0001
0100
0000
0001
1000
0100
0000
,
0010
0100
0010
0001
1000
0010
1000
0000
,
0101
1100
1010
0011
,
0001
0010
0001
0010
0100
0010
0100
0010
,
0100
1000
0100
1000
0010
0100
0001
0100
,
0010
1000
0010
1000
0100
0010
0100
0010
,
0001
0100
0001
0100
0010
1000
0100
0010
,
1000
0100
1000
0100
1000
0010
1000
0010
,
0100
0001
0100
0010
1000
0010
0100
0001
,
0010
0100
0010
0100
1000
0001
1000
0001
,
0010
0100
0001
0010
0100
1000
1000
0000
,
1001
0000
0000
0001
0100
0010
1000
0010
,
1000
0001
1000
0001
0010
0000
0000
0000
,
0001
0000
0010
0000
0100
0000
0010
0000
0100
0000
0000
1000
0000
0000
0100
0000
,
1000
0000
0000
0001
0100
0000
0010
0000
,
1000
0000
0100
0010
0100
0010
0001
0010
,
0001
0100
0010
1000
0010
0000
0000
0000
,
1000
0000
0100
0000
0001
0000
0010
0000
1000
0000
0100
0000
0001
0000
0010
0100
,
1000
0000
0000
0000
,
1100
1100
1100
1100
,
1100
0000
1100
0000
1100
0000
1100
1100
,
0110
0110
0110
0110
,
0011
0011
1001
1001
,
1010
1001
0011
1001
,
1100
1001
0101
1001
,
0001
0000
0010
0000
0100
0000
1000
0000
0001
0000
0100
0000
0010
1000
0010
1000
,
0100
0000
0100
0000
,
1000
0100
1000
0100
0001
0100
0001
0100
,
1000
0010
1000
0010
0001
0010
0001
0010
,
1000
0100
0001
0100
1000
0010
0001
0010
,
1000
0100
0001
0100
1000
0010
0001
0010
,
1000
0100
0010
0100
0010
0001
0010
0001
,
0100
0010
0100
0010
1000
0100
1000
0100
,
1000
0010
0100
0001
0100
0001
0010
0001
,
0010
0100
1000
0100
1000
0001
0100
0001
,
0100
0000
0010
0000
0010
0000
0100
0010
0100
0000
0000
0000
1001
0000
0000
0000
,
2010
3100
0012
0100
,
2003
0000
0010
0000
0010
0000
3010
0010
,
0100
0000
1000
0100
0010
0000
0011
0000
,
1100
0000
0001
0000
1001
0000
1000
0100
,
0010
0000
0001
0010
0100
0000
1100
0000
,
1000
0000
0010
0100
0001
0000
0101
0000
,
0001
0000
0010
0100
1000
0000
1100
0000
,
0001
0000
0000
0100
0000
0000
1000
0000
0010
0000
0000
0000
1000
0000
0001
0000
,
0102
0013
2100
0010
,
3002
0000
0100
0000
0100
0000
0103
0100
,
0010
0000
0001
0010
0100
0000
1100
0000
,
0011
0000
1000
0000
1001
0000
0001
0010
,
0100
0000
1000
0100
0010
0000
0011
0000
,
0001
0000
0100
0010
1000
0000
1010
0000
,
1000
0000
0100
0010
0001
0000
0011
0000
,
2100
3100
0012
0013
,
2002
0000
0000
3003
,
1001
0000
0001
0000
0100
0000
0001
0010
0001
0000
1000
0100
1000
0000
0000
0000
,
1010
0010
0100
0000
0101
0001
0010
0000
,
1100
0110
0011
0101
,
1010
0010
1000
0000
0110
0100
0010
0000
,
0011
1100
1001
0110
,
0101
0001
0100
0000
1010
0010
1000
0000
,
1100
0110
0101
1001
,
0110
0010
1000
0000
0101
0100
0010
0000
,
1100
1001
0101
0011
,
0101
0101
0001
1000
1100
1100
0100
0010
,
0110
0011
0101
1010
,
1010
1010
1000
0001
0011
0011
0010
0100
,
1100
0110
0011
1001
,
1001
1001
1000
0010
0110
0110
0100
0001
,
0011
0110
1100
1001
,
0110
0110
0000
0000
1001
1001
0000
0000
,
0011
0001
1001
0001
0110
1010
1001
0000
;

//---------------dance-double - ----------------
#NOTEDATA:;
#CHARTNAME:;
#STEPSTYPE:dance-double;
#DESCRIPTION:;
#CHARTSTYLE:;
#DIFFICULTY:Easy;
#METER:9;
#RADARVALUES:0.386327,0.439339,0.370332,0.000000,0.000000,314.000000,271.000000,43.000000,0.000000,0.000000,0.000000,0.000000,0.000000,0.000000,0.386327,0.439339,0.370332,0.000000,0.000000,314.000000,271.000000,43.000000,0.000000,0.000000,0.000000,0.000000,0.000000,0.000000;
#CREDIT:;
#NOTES:
00000000
00000000
00000000
00000000
,
00000000
00000000
00000000
00000000
,
01100000
00000000
10010000
00000000
,
10000000
01000000
00100000
00010000
,
01100000
00000000
01010000
00000000
,
00100000
00010000
00001000
00000100
,
00010100
00000000
00001100
00000000
,
00001000
00000100
00000010
00000001
,
00000101
00000000
00001010
00000000
,
00000001
00000010
00000100
00001000
,
00000101
00000000
00001010
00000000
,
00000100
00000010
00010000
00001000
,
00011000
00000000
00110000
00000000
,
00010000
01000000
00100000
10000000
,
11000000
00000000
01100000
00000000
,
10000000
00010000
01000000
00100000
,
00011000
00000000
00010100
00000000
,
00000010
00000100
00000010
00000100
,
00000001
00000010
00000100
00001000
,
00000010
00000100
00000001
00000000
,
00000100
00000010
00000100
00000010
,
00001000
00000100
00010000
00000000
,
00000100
00000010
00000100
00000010
,
00001000
00010000
00001000
00000000
,
00100000
00010000
00100000
00010000
,
00100000
00001000
00010000
00000000
,
00100000
10000000
01000000
00100000
,
00010000
01000000
00100000
10000000
,
00010000
00100000
00010000
00100000
,
00001000
00010000
00001000
00010000
,
00000100
00001000
00000010
00000100
,
00000001
00000010
00000100
00000000
,
00001000
00001000
00000001
00000000
,
00000010
00000100
00000110
00000000
,
00000001
00000000
00000001
00000000
,
00000010
00000000
00000010
00000000
,
00000100
00000000
00000100
00000000
,
00001000
00000000
00001000
00000000
,
00010000
00000000
00010000
00000000
,
00100000
00000000
00100000
00000000
,
01000000
00000000
01000000
10000000
,
00100000
00000000
00000000
00000000
,
11000000
01000000
01000000
01000000
,
01000000
01000000
01000000
01000000
,
00100000
00100000
00100000
00100000
,
00100000
00100000
00100000
00100000
,
01000000
01000000
00100000
00100000
,
00010000
00010000
10000000
10000000
,
00100000
01000000
00010000
00001000
,
00010000
00000000
00000000
00000000
,
00001000
00000000
00001000
00000000
,
00010000
00000000
00010000
00000000
,
00100000
00000000
00010000
00000000
,
00001000
00000000
00000100
00000000
,
00000010
00000000
00000010
00000000
,
00000100
00000000
00000100
00000000
,
00001000
00010000
00001000
00010000
,
00100000
00100000
10000000
00000000
,
10010000
00000000
00000000
00000000
,
10000000
00000000
10000000
01000000
,
00100000
00000000
00100000
00010000
,
00001000
00000100
00001000
00000010
,
00000100
00000000
00000100
00000001
,
00000010
00000000
00000010
00000100
,
00001000
00000000
00001000
00000010
,
00000100
00000000
00000100
00000001
,
00001001
00000000
00000110
00000000
,
00000001
00000010
00000001
00000010
,
00000100
00001000
00000100
00001000
,
00010000
00100000
00010000
00100000
,
01000000
10000000
01000000
10000000
,
00100000
00000000
00100000
10000000
,
01000000
00000000
01000000
00100000
,
00010000
00000000
00010000
00001000
,
00001100
00000000
00000110
00000000
,
00000011
00000000
00000000
00000000
,
00001001
00000000
00000000
00000000
,
00000011
00000000
00000101
00000000
,
00000001
00000010
00000100
00001000
,
00001010
00000000
00000110
00000000
,
00000100
00000010
00000100
00001000
,
00010100
00000000
00011000
00000000
,
00001000
00100000
00010000
01000000
,
10100000
00000000
10010000
00000000
,
10000000
01000000
00100000
00010000
,
01100000
00000000
00110000
00000000
,
00001000
00010000
00001000
00010000
,
00001100
00000000
00000110
00000000
,
00001000
00010000
00001000
00010000
,
01100000
00000000
11000000
00000000
,
00010000
00001000
00010000
00001000
,
00001100
00000000
00000110
00000000
,
00000100
00000100
00000110
00001001
;

//---------------dance-double - ----------------
#NOTEDATA:;
#CHARTNAME:;
#STEPSTYPE:dance-double;
#DESCRIPTION:;
#CHARTSTYLE:;
#DIFFICULTY:Medium;
#METER:12;
#RADARVALUES:0.565956,0.639038,0.611479,0.000000,0.004306,460.000000,389.000000,71.000000,0.000000,0.000000,0.000000,0.000000,0.000000,0.000000,0.565956,0.639038,0.611479,0.000000,0.004306,460.000000,389.000000,71.000000,0.000000,0.000000,0.000000,0.000000,0.000000,0.000000;
#CREDIT:;
#NOTES:
00000000
00000000
00000000
00000000
,
00000000
00000000
00000000
00000000
,
01000000
00100000
00000000
00000000
10000000
00010000
00000000
00000000
,
10000000
01000000
00100000
00010000
,
01000000
00100000
00000000
00000000
01000000
00010000
00000000
00000000
,
00100000
00010000
00100000
00001000
,
00010000
00001000
00000000
00000000
00010000
00001000
00000000
00000000
,
00000100
00000010
00000100
00000001
,
00000010
00000100
00000000
00000000
00000010
00000100
00000000
00000000
,
00001000
00010000
00001000
00010000
,
10000000
00100000
01000000
00010000
,
00110000
00011000
00001100
00000110
,
00000001
00000100
00000010
00001000
,
00001100
00011000
00110000
11000000
,
10000000
00100000
01000000
00010000
,
00110000
00011000
00001100
00000110
,
00000001
00000100
00000010
00001000
,
00001100
00011000
00110000
00011000
,
00001000
00000000
00100000
00000000
00010000
00100000
01000000
00000000
,
10000000
00000000
01000000
00000000
10000000
01000000
00100000
00000000
,
00010000
00000000
00001000
00000000
00000100
00001000
00000010
00000000
,
00000100
00000000
00000001
00000000
00000100
00000001
00000100
00000000
,
00000010
00000000
00001000
00000000
00000100
00001000
00000100
00000000
,
00001000
00000000
00010000
00000000
00100000
00010000
00100000
00000000
,
01000000
00000000
10000000
00000000
00100000
10000000
00100000
00000000
,
00010000
00001000
00010000
00000000
00000100
00001000
00000100
00000000
,
00000011
00000000
00000100
00000000
00001000
00000010
00001000
00000000
,
00000100
00000010
00000100
00001000
00000100
00000000
00010000
00000000
,
00100000
00000000
01000000
00000000
00010000
00100000
01000000
00000000
,
10000000
00100000
01000000
00100000
10000000
00000000
01000000
00000000
,
00100000
00000000
00001000
00000000
00010000
00001000
00100000
00000000
,
00010000
00100000
00001000
00010000
00001000
00000000
00010000
00000000
,
00000100
00000010
00000100
00000000
00001000
00000001
00000100
00000000
,
00000010
00001000
00010000
00010000
,
10010000
00000000
01000000
00000000
,
01000000
00000000
01000000
00000000
,
00100000
00000000
00100000
00000000
,
00010000
00000000
00010000
00000000
,
00000010
00000000
00000010
00000000
,
00001000
00000000
00001000
00000000
,
00010000
00000000
00000000
00000000
10000000
00000000
00100000
00010000
,
00001000
00000000
00000000
00000000
,
01100000
00100000
00100000
00100000
,
00100000
00000000
00100000
00000000
00100000
00000000
00100000
00100000
,
10000000
10000000
10000000
10000000
,
10000000
00000000
10000000
00000000
10000000
00000000
10000000
10000000
,
00010000
00010000
00100000
00100000
,
00001000
00001000
00000100
00000100
,
00000001
00000010
00000100
00000000
00001000
00010000
01000000
00100000
,
10000000
00000000
10000000
00000000
,
10000000
10000000
00100000
00100000
,
00010000
00001000
00010000
00000000
00001000
00010000
00001000
00000000
,
00000100
00000100
00000010
00000010
,
00001000
00010000
00001000
00000000
00010000
00001000
00010000
00000000
,
10000000
00100000
00010000
00001000
,
00000100
00000001
00000010
00000100
,
00010000
00100000
01000000
00100000
,
00010000
00000100
00000010
00000100
,
00001001
00000000
00000100
00000000
,
00000011
00000100
00001010
00001100
,
00001010
00000000
00000100
00000000
00000010
00000000
00000100
00010000
,
00000100
00000000
00010000
00001000
00010000
00000000
00100000
00000000
,
10100000
00000000
01000000
00000000
01100000
00000000
10000000
00100000
,
01000000
00000000
00010000
00100000
00000000
00000000
00011000
00000000
,
00000100
00000000
00001000
00010000
00000000
00000000
00011000
00000000
,
00000100
00000000
00000010
00000001
00000000
00000000
00000100
00000000
,
00000010
00000000
00000000
00000100
00000000
00000000
00000010
00000000
00000100
00000000
00000000
00000000
00001001
00000000
00000000
00000000
,
00000010
00000100
00000010
00000000
00001000
00000100
00001000
00000000
,
00010000
00001000
00010000
00000000
01000000
00010000
01000000
00000000
,
00100000
00000000
10000000
01000000
00100000
00000000
01010000
00000000
,
11000000
00100000
00010000
00001000
,
00010100
00000000
00010000
00001000
00000000
00000000
00000100
00000000
,
00011000
00000000
00010000
00100000
00000000
00000000
00010000
00000000
,
00011000
00000000
00000100
00000010
00000000
00000000
00001000
00000000
,
00010100
00101000
00110000
00101000
,
00010100
00000000
00000000
00000000
,
00001000
00010000
00100000
01000000
00100000
10000000
00100000
00000000
,
10000000
01000000
00000000
00000000
00100000
00010000
00000000
00000000
,
00001100
00000011
00001100
00000011
,
00000001
00000010
00000000
00000000
00000100
00001000
00000000
00000000
,
00110000
11000000
00110000
11000000
,
10000000
00100000
00000000
00000000
01000000
00010000
00000000
00000000
,
00011000
00001100
00000110
00000011
,
00000001
00000010
00000000
00000000
00000100
00001000
00000000
00000000
,
00011000
00110000
01100000
11000000
,
10000000
00100000
01000000
00000000
00010000
00100000
00001000
00000000
,
00011000
00010100
00011000
00010100
,
00000010
00000100
00001000
00000000
00000100
00001000
00010000
00000000
,
00110000
01100000
11000000
10100000
,
01000000
00100000
00010000
00000000
00100000
00010000
00001000
00000000
,
00010100
00001100
00000011
00000110
,
00000001
00000010
00000000
00000000
00001000
00010000
00000000
00000000
,
00110000
00011000
00001100
00011000
;

//---------------dance-double - ----------------
#NOTEDATA:;
#CHARTNAME:;
#STEPSTYPE:dance-double;
#DESCRIPTION:;
#CHARTSTYLE:;
#DIFFICULTY:Hard;
#METER:14;
#RADARVALUES:0.727130,0.718918,0.835400,0.111961,0.021531,591.000000,494.000000,97.000000,13.000000,0.000000,0.000000,0.000000,0.000000,0.000000,0.727130,0.718918,0.835400,0.111961,0.021531,591.000000,494.000000,97.000000,13.000000,0.000000,0.000000,0.000000,0.000000,0.000000;
#CREDIT:;
#NOTES:
// measure 0
00000000
00000000
00000000
00000000
,  // measure 1
00000000
00000000
00000000
00000000
,  // measure 2
10000000
10000000
00000000
00000000
00010000
00010000
00000000
00000000
,  // measure 3
11000000
01100000
00110000
00011000
,  // measure 4
00010000
00010000
00000000
00000000
00001000
00001000
00000000
00000000
,  // measure 5
00011000
00001100
00000110
00000011
,  // measure 6
00000001
00000001
00000000
00000000
00000100
00000100
00000000
00000000
,  // measure 7
00000011
00000110
00001100
00011000
,  // measure 8
00001000
00001000
00000000
00000000
00010000
00010000
00000000
00000000
,  // measure 9
00011000
00110000
01100000
11000000
,  // measure 10
10000000
10000000
00100000
00000000
00010000
00010000
01000000
00000000
,  // measure 11
11000000
00110000
00101000
00010100
,  // measure 12
00001000
00001000
00000010
00000000
00000001
00000001
00000100
00000000
,  // measure 13
00000011
00000110
00010100
00011000
,  // measure 14
00100000
00100000
01000000
00000000
10000000
10000000
00010000
00000000
,  // measure 15
10100000
01010000
00101000
00010100
,  // measure 16
00001000
00001000
00000001
00000000
00000010
00000010
00000100
00000000
,  // measure 17
00001100
00101000
01010000
00011000
,  // measure 18
00001000
00010000
00001000
00010000
00100000
10000000
01000000
00000000
,  // measure 19
10000000
01000000
10000000
01000000
00100000
00010000
00001000
00000000
,  // measure 20
00000100
00010000
00000100
00010000
00000010
00000100
00000001
00000000
,  // measure 21
00000010
00000100
00000010
00000100
00001000
00010000
00100000
00000000
,  // measure 22
00010000
01000000
00100000
00000000
00010000
00001000
00010000
00000000
,  // measure 23
00100000
10000000
01000000
00100000
00010000
00001000
00000100
00000000
,  // measure 24
00010000
00001000
00010000
00000000
00000100
00001000
00010000
00000000
,  // measure 25
00001000
00010000
00001000
00000100
00001000
00000100
00001000
00000010
,  // measure 26
00000100
00000001
00000100
00000001
00000010
00000100
00000010
00000100
,  // measure 27
00001000
00010000
00100000
00010000
10000000
00100000
10000000
00000000
,  // measure 28
01000000
10000000
01000000
10000000
00100000
10000000
00100000
01000000
,  // measure 29
00010000
00100000
00001000
00010000
00000100
00000010
00000100
00000000
,  // measure 30
00001000
00000001
00001000
00000001
00000100
00000010
00000100
00000010
,  // measure 31
00001000
00000100
00000010
00000100
00001000
00010000
00100000
00000000
,  // measure 32
00001000
00010000
00001000
00010000
00100000
01000000
00100000
01000000
,  // measure 33
00010000
00100000
00001000
00010000
00100000
01000000
01000000
00000000
,  // measure 34
01100000
00000000
00000000
10000000
01000000
10000000
01000000
10000000
,  // measure 35
00100000
01000000
00100000
01000000
00100000
00000000
00000000
00000000
,  // measure 36
00010000
00000000
00001000
00000000
00010000
00000000
00001000
00000000
00100000
00000000
00000000
00100000
00000000
00000000
00100000
00000000
,  // measure 37
00010000
00000000
00000000
00001000
00000100
00000000
00010100
00000000
,  // measure 38
00000100
00000000
00000010
00000001
00000100
00000010
00000100
00000010
,  // measure 39
00000001
00000010
00001000
00000100
00001000
00000000
00000000
00000000
,  // measure 40
00010000
00001000
00010000
00001000
00000010
00001000
00010000
10000000
,  // measure 41
01000000
00000000
00000000
00000000
,  // measure 42
11000000
01000000
01000000
01000000
,  // measure 43
01000000
00000000
01000000
00000000
01000000
00000000
01000000
01000000
,  // measure 44
00010000
00010000
00010000
00010000
,  // measure 45
00010000
00000000
00010000
00000000
00010000
00000000
00010000
00010000
,  // measure 46
00000100
00000000
00000000
00000000
00000010
00000000
00000001
00000000
00000100
00000000
00000000
00000100
00000000
00000000
00000100
00000000
,  // measure 47
00000010
00000001
00000010
00001000
00010000
00000000
00100000
00000000
,  // measure 48
10000000
00000000
00100000
00000000
00010000
00000000
00001000
00000000
00000100
00000000
00000001
00000000
00000010
00000000
00000100
00001000
,  // measure 49
00010000
00000000
00011000
00000000
,  // measure 50
10000000
00100000
10000000
00100000
01000000
00010000
01000000
00010000
,  // measure 51
00100000
00001000
00100000
00001000
00010000
00000100
00010000
00000100
,  // measure 52
00000010
00000001
00000010
00000001
00000100
00000010
00000100
00000010
,  // measure 53
00001000
00000100
00001000
00000100
00010000
00001000
00010000
00001000
,  // measure 54
10000000
00100000
01000000
00010000
00100000
00001000
00010000
00000100
,  // measure 55
00001000
00000010
00000100
00000001
00000010
00000001
00000010
00000001
,  // measure 56
00000100
00000010
00001000
00000100
00010000
00001000
00100000
00010000
,  // measure 57
00001000
00000100
00010000
00001000
00010000
00001000
00100000
00010000
,  // measure 58
10010000
00000000
00000000
00000000
01000000
00000000
00100000
01000000
00100000
00000000
00000000
00000000
10010000
00000000
00000000
00000000
,  // measure 59
20100000
31000000
00120000
01030000
,  // measure 60
00012000
00000000
00010000
00000000
00013000
00000000
00000100
00000010
,  // measure 61
00000001
00000000
00000100
00000010
00000100
00000000
00001001
00000000
,  // measure 62
00000210
00001300
00021000
00130000
,  // measure 63
11000000
00000000
01000000
00100000
00010000
00000000
00011000
00000000
,  // measure 64
00011000
00000000
00001000
00000100
00000010
00000000
00000011
00000000
,  // measure 65
00000011
00000000
00000001
00000100
00001000
00000000
00011000
00000000
,  // measure 66
00010000
00000000
00000000
01000000
00000000
00000000
00010000
00000000
00001000
00000000
00000000
00000000
00000100
00000000
00000000
00000000
,  // measure 67
00000012
00000103
00002010
00003100
,  // measure 68
00000012
00000000
00000100
00000000
00000103
00000000
00001000
00000100
,  // measure 69
00000010
00000000
00001000
00010000
00100000
00000000
10010000
00000000
,  // measure 70
01200000
10300000
02100000
03010000
,  // measure 71
10010000
00000000
10000000
01000000
00010000
00000000
00011000
00000000
,  // measure 72
00011000
00000000
00000001
00000100
00001000
00000000
00011000
00000000
,  // measure 73
00011000
00000000
10000000
01000000
00010000
00000000
00011000
00000000
,  // measure 74
00021000
00000010
00030200
00000000
,  // measure 75
00000020
00000000
00000000
00000000
,  // measure 76
00000330
00000000
00000000
00000000
,  // measure 77
00000001
00000001
00000100
00000000
00000010
00000010
00001000
00000000
,  // measure 78
00000110
00001100
00011000
00110000
,  // measure 79
10000000
10000000
01000000
00000000
00100000
00100000
00010000
00000000
,  // measure 80
01100000
00110000
00011000
00001100
,  // measure 81
00000010
00000001
00000100
00000000
00000010
00001000
00000100
00000000
,  // measure 82
00000110
00001100
00011000
00110000
,  // measure 83
10000000
00100000
01000000
00000000
00010000
00100000
01000000
00000000
,  // measure 84
01100000
00110000
00011000
00001100
,  // measure 85
00000001
00000100
00001000
00000000
00010000
00100000
10000000
00000000
,  // measure 86
11000000
00110000
00001100
00000011
,  // measure 87
00000001
00000010
00001000
00000000
00010000
01000000
10000000
00000000
,  // measure 88
11000000
00110000
00001100
00000011
,  // measure 89
00000001
00000100
00001000
00000000
00010000
00100000
10000000
00000000
,  // measure 90
10100000
01010000
00001010
00000101
,  // measure 91
00000001
00000110
00000000
00000000
00001000
00110000
00000000
00000000
,  // measure 92
10010000
00011000
00001001
00011000
;
