#TITLE:シャムシールの舞;
#SUBTITLE:;
#ARTIST:Zektbach;
#TITLETRANSLIT:Shamshir Dance;
#SUBTITLETRANSLIT:;
#ARTISTTRANSLIT:Zektbach;
#GENRE:;
#CREDIT:;
#BANNER:Shamshir Dance-bn.png;
#BACKGROUND:;
#LYRICSPATH:;
#CDTITLE:cdtitle.png;
#MUSIC:Shamshir Dance.mp3;
#OFFSET:1.719242;
#SAMPLESTART:33.578999;
#SAMPLELENGTH:15.000000;
#LASTBEATHINT:1.159185;
#SELECTABLE:YES;
#DISPLAYBPM:100.000000:155.000000;
#BPMS:0.000000=100.000000
,28.000000=155.000000
,154.000000=153.330002
,160.000000=156.250000
,162.000000=154.330002
,164.000000=155.550003
,172.000000=155.330002
,188.000000=154.000000
,196.000000=155.660004
,208.000000=154.330002
,212.000000=155.470001
,216.000000=155.000000
,244.000000=137.000000
,260.000000=132.000000
;
#STOPS:
;
#BGCHANGES:28.000=Shamshir Dance.avi=1.000=0=0=0=StretchNoLoop====,
99999=-nosongbg-=1.000=0=0=0 // don't automatically add -songbackground-
;
#KEYSOUNDS:;
#ATTACKS:;

//---------------dance-single - ----------------
#NOTES:
     dance-single:
     :
     Beginner:
     1:
     0.080913,0.169918,0.074964,0.024988,0.000000,68.000000,59.000000,9.000000,3.000000,0.000000,0.000000,0.080913,0.169918,0.074964,0.024988,0.000000,68.000000,59.000000,9.000000,3.000000,0.000000,0.000000:
  // measure 0
0000
0000
0000
0000
,  // measure 1
0000
0000
0000
0000
,  // measure 2
0000
0000
0000
0000
,  // measure 3
0000
0000
0000
0000
,  // measure 4
0000
0000
0000
0000
,  // measure 5
0000
0000
0000
0000
,  // measure 6
0000
0000
0000
0000
,  // measure 7
1000
0000
0000
0000
,  // measure 8
1000
0000
0000
0000
,  // measure 9
0001
0000
0000
0000
,  // measure 10
0001
0000
0000
0000
,  // measure 11
0100
0000
0000
0000
,  // measure 12
1000
0000
0000
0000
,  // measure 13
0010
0000
0000
0000
,  // measure 14
0001
0000
0000
0000
,  // measure 15
0001
0000
0000
0000
,  // measure 16
0100
0000
0000
0000
,  // measure 17
0010
0000
0000
0000
,  // measure 18
1000
0000
0000
0000
,  // measure 19
0100
0000
0000
0000
,  // measure 20
0100
0000
0000
0000
,  // measure 21
0010
0000
0000
0000
,  // measure 22
0010
0000
0000
0000
,  // measure 23
0001
0000
0000
0000
,  // measure 24
0001
0000
0000
0000
,  // measure 25
1000
0000
0000
0000
,  // measure 26
1000
0000
0000
0000
,  // measure 27
0001
0000
0000
0000
,  // measure 28
1000
0000
0000
0000
,  // measure 29
0001
0000
0000
0000
,  // measure 30
1000
0000
0000
0000
,  // measure 31
1001
0000
0000
0000
,  // measure 32
0010
0000
0000
0000
,  // measure 33
1000
0000
0000
0000
,  // measure 34
0001
0000
0000
0000
,  // measure 35
1000
0000
0000
0000
,  // measure 36
0001
0000
0000
0000
,  // measure 37
0100
0000
0000
0000
,  // measure 38
0010
0000
0000
0000
,  // measure 39
1001
0000
0000
0000
,  // measure 40
0000
0000
0000
0000
,  // measure 41
1001
0000
0000
0000
,  // measure 42
0000
0000
0000
0000
,  // measure 43
0100
0000
0100
0000
,  // measure 44
0100
0000
0000
0000
,  // measure 45
0010
0000
0010
0000
,  // measure 46
0010
0000
0000
0000
,  // measure 47
1001
0000
0000
0000
,  // measure 48
0000
0000
0000
0000
,  // measure 49
1000
0000
1000
0000
,  // measure 50
0001
0000
0000
0000
,  // measure 51
0100
0000
0000
0000
,  // measure 52
0010
0000
0000
0000
,  // measure 53
1001
0000
0000
0000
,  // measure 54
1000
0000
0000
0000
,  // measure 55
0010
0000
0000
0000
,  // measure 56
0100
0000
0000
0000
,  // measure 57
1001
0000
0000
0000
,  // measure 58
1001
0000
0000
0000
,  // measure 59
0110
0000
0000
0000
,  // measure 60
0110
0000
0000
0000
,  // measure 61
2000
0000
0000
3000
,  // measure 62
0001
0000
0000
0000
,  // measure 63
0001
0000
0000
0000
,  // measure 64
2000
0000
0000
0000
,  // measure 65
3000
0000
0000
0000
,  // measure 66
0020
0000
0000
0000
,  // measure 67
0000
0000
0000
0000
,  // measure 68
0030
0000
0000
0000
;

//---------------dance-single - ----------------
#NOTES:
     dance-single:
     :
     Easy:
     6:
     0.267728,0.311516,0.191574,0.074964,0.000000,225.000000,202.000000,23.000000,9.000000,0.000000,0.000000,0.267728,0.311516,0.191574,0.074964,0.000000,225.000000,202.000000,23.000000,9.000000,0.000000,0.000000:
0000
0000
0000
0000
,
0000
0000
0000
0000
,
0000
0000
0000
0000
,
0000
0000
0000
0000
,
0000
0000
0000
0000
,
0000
0000
0000
0000
,
0000
0000
0000
0000
,
1001
1000
1000
0000
,
0001
0010
0100
0000
,
1001
0001
0001
0000
,
1000
0100
0010
0000
,
1001
1000
0010
0100
,
0001
0000
0100
0100
,
0010
1000
0100
0001
,
0010
0010
1000
1000
,
1001
0001
0010
0100
,
1000
0000
0001
0100
,
0010
1000
0100
0010
,
0001
1000
1001
1001
,
0001
0100
0001
0100
,
0020
0000
1000
1030
,
1000
0100
0010
0001
,
1000
0100
0010
0001
,
1001
0001
0100
0010
,
2000
0000
0001
3001
,
0010
0100
1000
0001
,
0100
0010
0110
1001
,
0001
0000
0010
0010
,
0100
0000
1000
1000
,
0001
0000
0100
0100
,
0010
1010
1000
1001
,
0001
0100
0001
0010
,
0100
1000
0020
0000
,
1030
0001
0100
0010
,
1000
0001
0020
0000
,
0031
0100
0001
0010
,
0100
1000
0002
0000
,
1003
0100
1000
0010
,
0100
0000
0001
0001
,
1001
0000
0000
0000
,
1000
1000
0010
0010
,
1010
0000
0000
0000
,
0001
0001
0100
0100
,
1000
0010
0001
0100
,
1000
0010
0001
0000
,
0001
0010
1000
0100
,
0001
0010
1000
0100
,
1001
0000
0000
0000
,
0001
0000
0000
0000
,
1000
1010
0010
0110
,
0100
0001
0010
0010
,
0100
1000
0010
0010
,
1000
0001
0010
0001
,
1000
1100
0001
0011
,
0001
0001
1000
0010
,
0100
0100
0001
1000
,
0100
0010
0100
1000
,
0001
1010
1000
1001
,
0001
0000
0010
0010
,
0100
1100
0010
0011
,
0001
0000
1000
1000
,
0020
0000
0230
0000
,
0301
1000
0010
0000
,
1000
0001
0010
0000
,
1001
0000
0001
1000
,
0010
0100
0010
2000
,
0002
0000
0000
0000
,
0000
0000
0000
0000
,
3003
0000
0000
0000
;

//---------------dance-single - ----------------
#NOTES:
     dance-single:
     :
     Medium:
     10:
     0.389098,0.453114,0.349831,0.049976,0.000000,327.000000,285.000000,42.000000,6.000000,0.000000,0.000000,0.389098,0.453114,0.349831,0.049976,0.000000,327.000000,285.000000,42.000000,6.000000,0.000000,0.000000:
0000
0000
0000
0000
,
0000
0000
0000
0000
,
0000
0000
0000
0000
,
0000
0000
0000
0000
,
0000
0000
0000
0000
,
0000
0000
0000
0000
,
0000
0000
0000
0000
,
1001
0000
1000
0000
0010
1000
0000
0000
,
0001
0000
0010
0000
0001
1000
0000
0000
,
1001
0000
0010
0000
0001
0100
0000
0000
,
0010
0000
1000
0000
0001
1000
0000
0000
,
1001
0000
1000
0100
0010
0001
0010
0100
,
1000
0000
0000
0000
0001
0010
0001
0000
,
1000
0010
1000
0000
0001
0010
0001
0000
,
1000
0010
0110
1001
,
0001
0000
0010
0100
1000
0100
0010
0001
,
0010
0000
0100
0000
1000
0010
1000
0000
,
0001
0010
0001
0000
1000
0100
1000
0000
,
0001
1000
1001
1001
,
0001
0000
0010
0100
1000
0001
0100
0010
,
0100
0000
0001
0000
1000
0100
1000
0000
,
0001
0010
0001
0000
1000
0100
1000
0000
,
0010
0100
0110
1001
,
0001
0000
0010
0100
1000
0010
0100
0001
,
0010
0000
0100
0000
1000
0010
1000
0000
,
0001
0100
0001
0000
0010
0001
0010
0000
,
0100
1000
1010
1001
,
0001
0010
0001
0000
0100
0000
0010
0000
,
1000
0100
1000
0000
0010
0000
0100
0000
,
0010
1000
0001
0000
0010
0000
0100
0000
,
1100
0110
1001
1001
,
0001
0000
0010
0100
1000
0000
0001
0100
,
0010
0000
0010
1000
0100
0000
0110
0000
,
1000
0001
1000
0000
0010
0100
0001
0000
,
0101
1001
0001
0001
,
1000
0000
0100
0010
0001
0000
0010
0100
,
1000
0000
0010
0100
0001
0000
1000
0000
,
0001
0100
0001
0000
1000
0100
1000
0000
,
0020
0000
0100
0100
,
0130
0001
0010
0100
,
1000
0001
0010
0100
,
1001
1000
0010
0100
,
0001
1000
0010
0100
,
0101
0001
0101
0100
,
0101
0000
0001
0000
0100
0001
0100
0000
,
1100
1000
1100
0100
,
1100
0000
1000
0000
0100
1000
0100
0000
,
1010
0000
0010
0010
,
0100
0000
0100
0100
,
0101
1001
1100
1001
,
1000
0100
0010
0001
0010
0000
0010
0000
,
0010
0001
1000
0010
0100
0000
0100
0000
,
0001
1000
0001
0000
1000
0001
1000
0000
,
1100
0110
0011
1001
,
0001
1000
0100
1000
0001
0000
1000
0000
,
0001
0100
0001
0010
0001
0000
1000
0000
,
0001
0100
0010
0000
1000
0100
0010
0000
,
0001
0011
0110
1100
,
1001
0000
0000
1000
0010
1000
0000
0001
,
0100
0101
0011
1100
,
0011
0000
0000
0001
1000
0100
0000
0010
,
0002
0000
2003
0000
,
3010
1000
0100
0001
,
0010
1000
0100
0001
,
0020
0000
0000
0000
1030
0010
1000
0010
,
0100
0001
0010
0002
,
2000
0000
0000
0000
,
0000
0000
0000
0000
,
3003
0000
0000
0000
;

//---------------dance-single - ----------------
#NOTES:
     dance-single:
     :
     Hard:
     12:
     0.547355,0.736311,0.399807,0.133269,0.212397,460.000000,412.000000,48.000000,16.000000,0.000000,0.000000,0.547355,0.736311,0.399807,0.133269,0.212397,460.000000,412.000000,48.000000,16.000000,0.000000,0.000000:
0000
0000
0000
0000
,
0000
0000
0000
0000
,
0000
0000
2000
0000
,
3002
0000
0023
0000
,
0032
0000
2003
0000
,
3020
0000
2030
0000
,
3002
0000
2000
3003
,
1001
0000
1000
0000
0010
1000
0000
0000
,
0001
0010
0100
1000
0000
0001
0100
0000
,
1010
0000
0100
0000
0001
0010
0000
0000
,
0001
0010
0100
1000
0000
0001
0100
0000
,
1010
0000
1000
0100
0010
0001
0010
0100
,
1000
0000
0010
0000
0100
0001
0100
0000
,
0010
1000
0100
0001
0100
1000
0010
0100
,
0010
0100
0001
0010
0100
1000
0001
0000
,
1001
0000
1000
0100
0010
0001
0010
0100
,
1000
0000
0010
0000
1000
0001
1000
0000
,
0001
0010
0100
1000
0010
0100
0001
0100
,
1000
0100
0001
0010
0011
0000
1001
0000
,
1010
0000
0000
0000
1000
0100
0010
0001
0010
0000
0100
0000
1000
0000
0010
0000
,
0100
0000
0000
0000
0001
0000
0100
0010
0100
0000
0010
0000
1000
0000
0000
0000
,
0001
0000
0000
0010
0100
0000
0010
0000
0100
0000
1000
0000
0010
0000
0100
0000
,
0001
0100
1000
0100
0001
1000
1001
0000
,
1010
0000
0000
0000
1000
0100
0010
0100
0010
0000
0100
0000
0010
0000
0001
0000
,
1000
0000
0000
0000
0010
0000
0100
0001
0100
0000
0010
0000
1000
0000
0000
0000
,
0001
0000
0000
0010
0100
0000
0010
0000
0001
0000
0100
0000
1000
0000
0100
0000
,
0001
0010
0100
1000
1010
0000
0101
0000
,
1000
0000
0100
1000
0100
0000
0010
0000
0100
0000
1000
0000
0010
0000
0100
0000
,
0001
0000
0100
0010
0100
0000
0001
0000
0100
0000
0010
0000
1000
0000
0100
0000
,
0010
0000
0001
0010
0001
0000
0010
0000
0100
0000
0010
0000
0100
0000
1000
0000
,
1010
1100
0101
0011
,
1001
0000
0001
0010
0100
0000
0100
1000
,
0010
0000
0000
0100
0010
0000
0100
0000
0001
0000
0010
0000
0100
0000
0000
0000
,
1001
0000
1010
0000
1000
0100
0010
0000
,
0001
0010
0100
0000
1001
0000
0110
0000
,
1001
0000
0001
0010
0100
0000
0100
1000
,
0010
0000
0100
0001
0100
0000
0010
0000
0100
0000
1000
0000
0001
0000
0000
0000
,
0101
1001
0110
1001
,
1000
0100
0010
0000
0100
1000
0010
0000
,
0101
0010
0001
0100
,
1000
1000
0100
0000
0001
0001
0010
0000
,
0110
1000
0010
0001
,
0010
0010
0100
0000
0001
0001
0010
0000
,
0001
0000
0010
0100
0010
0000
0001
0000
0010
0000
0100
0010
0001
0000
0010
0000
,
0100
0000
0010
0001
0010
0000
0100
0000
0010
0000
0001
0000
0010
0000
0000
0000
,
0100
0000
1000
0100
0010
0000
0100
0000
1000
0000
0100
0010
0100
0000
1000
0000
,
0100
0000
0010
0100
1000
0000
0100
0000
0010
0000
0100
0000
1000
0000
0010
0100
,
0010
0000
0000
0000
0000
0000
0100
0001
0100
0000
0001
0000
0010
0000
0100
0000
,
1000
0000
0001
0100
1000
0000
0100
0000
,
0101
0011
1001
1100
,
1000
0100
1000
0100
1000
0000
0010
0000
0100
0000
0000
0000
0101
0000
0000
0000
,
0001
0010
0001
0010
0001
0000
0010
0000
0100
0000
0000
0000
1100
0000
0000
0000
,
1000
0100
1000
0010
0001
0010
1000
0100
,
0110
0011
1100
0101
,
0001
0010
0001
0010
0001
0000
0010
0000
0100
0000
0000
0000
1100
0000
0000
0000
,
1000
0010
1000
0010
1000
0000
0001
0000
0100
0000
0000
0000
0101
0000
0000
0000
,
0001
0100
1000
0100
0001
1000
0100
0010
,
0100
1100
0110
1100
,
0101
0000
0000
0000
0010
0000
0001
0010
0001
0000
0010
0000
0100
1000
0001
1000
,
0010
0110
0101
0110
,
1100
0000
0000
0000
1000
0000
0010
0100
0010
0000
0100
0000
0001
1000
0010
1000
,
0200
0000
2300
0000
,
3001
0100
1000
0100
0001
0010
0100
0010
0001
1000
0010
0001
,
0010
0100
1000
0100
0001
0010
0100
1000
0010
0100
0001
0010
,
0110
0000
0001
0000
1000
0100
0010
0100
,
2000
3002
0203
0302
,
2000
0000
0000
0000
,
0000
0000
0000
0000
,
3003
0000
0000
0000
;

//---------------dance-double - ----------------
#NOTES:
     dance-double:
     :
     Easy:
     6:
     0.248689,0.311516,0.141598,0.066634,0.000000,209.000000,192.000000,17.000000,8.000000,0.000000,0.000000,0.248689,0.311516,0.141598,0.066634,0.000000,209.000000,192.000000,17.000000,8.000000,0.000000,0.000000:
00000000
00000000
00000000
00000000
,
00000000
00000000
00000000
00000000
,
00000000
00000000
00000000
00000000
,
00000000
00000000
00000000
00000000
,
00000000
00000000
00000000
00000000
,
00000000
00000000
00000000
00000000
,
00000000
00000000
00000000
00000000
,
00110000
10000000
10000000
00000000
,
00010000
00100000
01000000
00000000
,
00110000
00010000
00010000
00000000
,
00001000
00000100
00001000
00000000
,
00001001
00000000
00000001
00001000
,
00000100
00000000
00001000
00001000
,
00000100
00010000
00001000
00010000
,
00001000
01000000
00100000
10000000
,
10010000
00000000
10000000
01000000
,
00100000
00000000
00010000
01000000
,
00010000
00100000
00010000
01000000
,
00001000
00010000
00010100
00010100
,
00000100
00000010
00000100
00000010
,
00000002
00000000
00001000
00001003
,
00000001
00001000
00000100
00001000
,
00010000
00001000
00010000
01000000
,
01100000
00000000
00100000
10000000
,
02000000
00000000
00100000
03100000
,
00010000
00010000
00100000
00010000
,
00001000
00010000
00010100
00000000
,
00000100
00000010
00000100
00000000
,
00001000
00010000
00001000
00000000
,
00010000
01000000
00010000
00000000
,
11000000
00000000
00110000
00000000
,
00100000
00010000
01000000
00010000
,
00100000
01000000
10000000
00000000
,
00100000
00010000
00100000
00010000
,
00001000
00010000
00000100
00000100
,
00000100
00001000
00000001
00001000
,
00010000
00001000
00000100
00000000
,
00001000
00000010
00001000
00010000
,
02000000
00000000
00000000
03100000
,
10000000
00000000
00000000
00000000
,
10000000
00000000
10000000
00000000
,
00010000
00000000
00000000
00000000
,
00001000
00000000
00001000
00000000
,
00000001
00000001
00000100
00000100
,
00001000
00001000
00010000
01000000
,
10000000
10000000
01000000
01000000
,
00010000
00010000
00000100
00001000
,
00000001
00000000
00000001
00000000
,
00001000
00000000
00001000
00000000
,
00010100
00001000
00100000
00000000
,
00010000
00010000
00100000
01000000
,
10000000
10000000
00010000
00100000
,
00001000
00010000
00000100
00000010
,
00000011
00000000
00011000
00000000
,
00001000
01000000
00100000
00100000
,
10000000
01000000
00010000
00010000
,
00100000
00010000
00000100
00001000
,
00000001
00000011
00001000
00001100
,
00000010
00000000
00000001
00001000
,
00000100
00010100
00010000
00011000
,
00100000
00000000
00010000
10000000
,
02000000
00000000
03200000
00000000
,
00310000
00001000
00000001
00000000
,
00000001
00001000
00000100
00000000
,
00200000
00000000
00310000
10000000
,
00010000
00001000
00000001
00020000
,
00002000
00000000
00000000
00000000
,
00000000
00000000
00000000
00000000
,
00033000
00000000
00000000
00000000
;

//---------------dance-double - ----------------
#NOTES:
     dance-double:
     :
     Medium:
     10:
     0.358160,0.396475,0.283196,0.108281,0.000000,301.000000,267.000000,34.000000,13.000000,0.000000,0.000000,0.358160,0.396475,0.283196,0.108281,0.000000,301.000000,267.000000,34.000000,13.000000,0.000000,0.000000:
00000000
00000000
00000000
00000000
,
00000000
00000000
00000000
00000000
,
00000000
00000000
00000000
00000000
,
00000000
00000000
00000000
00000000
,
00000000
00000000
00000000
00000000
,
00000000
00000000
00000000
00000000
,
00000000
00000000
00000000
00000000
,
10010000
00000000
00010000
00000000
01000000
00100000
00000000
00000000
,
10000000
01000000
00100000
00010000
,
01010000
00000000
00100000
00000000
00010000
00001000
00000000
00000000
,
00000001
00001000
00000001
00000010
,
00000110
00000000
00001000
00000100
00001000
00000010
00001000
00000100
,
00001000
00000000
00010000
10000000
,
00100000
00010000
00100000
10000000
,
00010000
00000000
00001000
00000000
00000100
00001000
00000100
00000000
,
00001001
00000000
00001000
00000100
00000010
00000100
00001000
00000100
,
00000010
00000000
00000001
00001000
,
00000100
00010000
00000100
00000000
00100000
00000000
00010000
00000000
,
10000000
00100000
01100000
01100000
,
01000000
00000000
00010000
00100000
01000000
10000000
00100000
10000000
,
00100000
00000000
01000000
00000000
00010000
00100000
00010000
00000000
,
00100000
00001000
00010000
00000100
,
00001000
00000000
00000010
00000000
00000100
00000001
00000100
00000000
,
00000001
00000000
00000010
00000100
00001000
00000100
00000010
00000100
,
00001000
00000000
00000100
00000000
00001000
00010000
00001000
00000000
,
00010000
10000000
01000000
00100000
,
00010000
10000000
10010000
10010000
,
00010000
00100000
00010000
00000000
10000000
00000000
00100000
00000000
,
01000000
00010000
00100000
00000000
00010000
00000000
00001000
00000000
,
00000001
00001000
00000100
00000000
00000010
00000000
00000001
00000000
,
00000100
00000110
00000010
00000110
,
00001000
00000000
00000100
00001000
00000100
00000000
00010000
00000000
,
00001000
00010000
00001000
00000000
00100000
00000000
01100000
00000000
,
00010000
01000000
00010000
00000000
10000000
01000000
10000000
00000000
,
00100000
01000000
01010000
01010000
,
01010000
00000000
00010000
00100000
00010000
00000000
00001000
00000000
,
00000001
00001000
00000100
00000000
00000010
00000000
00000001
00000000
,
00001000
00000010
00001000
00000000
00000100
00000010
00000100
00000000
,
00001001
00000000
00000000
00000001
,
00001000
00000000
00001000
00000000
,
00010000
00010000
10000000
10000000
,
10010000
00000000
00010000
00000000
,
00001000
00001000
00000001
00000001
,
00001001
00001000
00011000
00010000
,
01010000
01000000
01100000
10000000
,
01100000
01000000
00110000
00010000
,
00001100
00001000
00001001
00000010
,
00000200
00000000
00002300
00000000
,
00023000
00000000
20030000
00000000
,
30100000
10100000
10000000
10010000
,
00010000
00100000
01000000
10000000
00100000
00000000
00100000
00000000
,
01000000
00010000
00100000
00001000
00010000
00000000
00010000
00000000
,
00000001
00001000
00000001
00000000
00000010
00000100
00000010
00000000
,
00000011
00001000
00011000
01000000
,
00100000
01000000
00100000
10000000
01000000
00000000
00100000
00000000
,
00010000
01000000
00010000
01000000
00010000
00000000
00001000
00000000
,
00000100
00001000
00000010
00000000
00000100
00000001
00000010
00000000
,
00000001
00001100
00001000
00110000
,
02100000
00000000
10000000
10000000
,
13000000
10100000
00010000
00110000
,
00002100
00000000
00000001
00000001
,
00003020
00000000
00000230
00000000
,
00000301
00000000
00001000
00000000
00000100
00001000
00010000
01000000
,
00100000
00000000
10000000
00000000
00100000
01000000
00010000
00100000
,
00001000
00000000
00010000
00000000
00000001
00001000
00000001
00001000
,
00000200
00000320
00002030
00023000
,
00002000
00000000
00000000
00000000
,
00000000
00000000
00000000
00000000
,
00033000
00000000
00000000
00000000
;

//---------------dance-double - ----------------
#NOTES:
     dance-double:
     :
     Hard:
     13:
     0.516417,0.707991,0.308184,0.149928,0.158257,434.000000,397.000000,37.000000,18.000000,0.000000,0.000000,0.516417,0.707991,0.308184,0.149928,0.158257,434.000000,397.000000,37.000000,18.000000,0.000000,0.000000:
00000000
00000000
00000000
00000000
,
00000000
00000000
00000000
00000000
,
00000000
00000000
20000000
00000000
,
30200000
00000000
00320000
00000000
,
00030200
00000000
00002300
00000000
,
00023000
00000000
20030000
00000000
,
30200000
00000000
02000000
03300000
,
10010000
00000000
00100000
00000000
00010000
01000000
00000000
00000000
,
00100000
10000000
01000000
00100000
00000000
00010000
01000000
00000000
,
00011000
00000000
00000100
00000000
00001000
00000001
00000000
00000000
,
00000010
00000100
00001000
00000010
00000000
00000100
00000001
00000000
,
00001001
00000000
00000001
00000100
00001000
00010000
00100000
10000000
,
01000000
00000000
10000000
00000000
00100000
10000000
01000000
00000000
,
10000000
00100000
00010000
00100000
10000000
01000000
00100000
00010000
,
00001000
00000100
00000001
00000100
00001000
00000010
00000100
00000000
,
00000011
00000000
00000001
00000100
00001000
00010000
00100000
10000000
,
01000000
00000000
10000000
00000000
00010000
01000000
00100000
00000000
,
10000000
01000000
00010000
01000000
10000000
00100000
00010000
00001000
,
00000100
00000001
00000010
00000100
00000010
00000000
00000110
00000000
,
00001001
00000000
00000000
00000000
00000010
00001000
00000100
00001000
00000010
00000000
00001000
00000000
00000100
00000000
00000010
00000000
,
00000100
00000000
00001000
00000000
00000100
00010000
00001000
00000000
,
00010000
00100000
10000000
00100000
00010000
00001000
00000100
00000001
,
00000100
00001000
00010000
00100000
10000000
01000000
00100000
00000000
,
10010000
00000000
00000000
00000000
10000000
01000000
00100000
01000000
10000000
00000000
00100000
00000000
01000000
00000000
00010000
00000000
,
10000000
00000000
00100000
00000000
00010000
00001000
01000000
00000000
,
00010000
01000000
10000000
01000000
00010000
00001000
00000100
00000001
,
00000100
00001000
00010000
00100000
10000000
00000000
00110000
00000000
,
10000000
00000000
01000000
00100000
00010000
00000000
00001000
00000000
00000100
00000000
00000001
00000000
00000100
00000000
00001000
00000000
,
00010000
00000000
00100000
10000000
00100000
00000000
00010000
00000000
00001000
00000000
00000100
00000000
00000001
00000000
00000100
00000000
,
00001000
00000000
00010000
00100000
10000000
00000000
00100000
00000000
00010000
00000000
00001000
00000000
00000010
00000000
00000001
00000000
,
00000110
00011000
01100000
00011000
,
00000110
00000000
00000001
00000100
00001000
00000000
00010000
00100000
,
10000000
01000000
00010000
01000000
10000000
00000000
00100000
00000000
,
00010000
00001000
00000100
00000000
00001000
00010000
00100000
00000000
,
00011000
00001100
00011000
01010000
,
10100000
00000000
00100000
00010000
00001000
00000000
00010000
00000100
,
00000010
00000100
00010000
00001000
00010000
00000000
00110000
00000000
,
01000000
00100000
10000000
00000000
01000000
00100000
00010000
00000000
,
00011000
00000000
00000000
00010000
,
00011000
00000100
00010000
00000100
,
00100000
00100000
00010000
00000000
00000100
00000100
00001000
00000000
,
00110000
00001000
00000100
00001000
,
01000000
01000000
00010000
00000000
00000010
00000010
00001000
00000000
,
00010000
01000000
00010000
00100000
00010000
00001000
00010000
01000000
,
00010000
00001000
00010000
00100000
00010000
00001000
00010000
00000000
,
00001000
00000100
00001000
00000010
00001000
00010000
00001000
00000100
,
00001000
00000000
00010000
00000000
00001000
00000000
00000010
00000000
00001000
00000000
00010000
00000000
00001000
00000000
00000100
00000001
,
00000020
00000000
00000000
00000000
00000130
00001000
00010000
01000000
,
00200000
00000000
00310000
00001000
00000200
00000000
00001300
00000000
,
00011000
00110000
00011000
00001100
,
00000001
00000010
00000100
00001000
00000010
00000000
00001000
00000000
00000010
00000000
00000000
00000000
00001000
00000000
00000000
00000000
,
00000100
00001000
00010000
00100000
00001000
00000000
00100000
00000000
00001000
00000000
00000000
00000000
00100000
00000000
00000000
00000000
,
00010000
10000000
00100000
00010000
00001000
00000100
00000001
00001000
,
00010000
10010000
00011000
00001001
,
00000001
00000100
00001000
00000100
00000001
00000000
00000010
00000000
00000100
00000000
00000000
00000000
00001000
00000000
00000000
00000000
,
00010000
01000000
10000000
01000000
00010000
00000000
00100000
00000000
01000000
00000000
00000000
00000000
10000000
00000000
00000000
00000000
,
00100000
00010000
00001000
00000010
00001000
00010000
01000000
00010000
,
00001000
00000100
00001100
00000000
00000011
00000000
00001100
00000000
,
00110000
00000000
00000000
00000000
01000000
00000000
10000000
00100000
10000000
00000000
01000000
00000000
00100000
00001000
00100000
00001000
,
00100000
00011000
00001100
00011000
,
00110000
00000000
00000000
00000000
01000000
00000000
10000000
00100000
10000000
00000000
01000000
00000000
00100000
00010000
00001000
00000100
,
00002000
00000000
00003020
00000000
,
00001030
00010000
00100000
01000000
10000000
01000000
00100000
00010000
00001000
00000100
00000010
00000001
,
00001000
00000010
00000001
00000100
00010000
00001000
01000000
00100000
00010000
10000000
01000000
00010000
,
00002000
00000000
00003020
00000000
00000130
00001000
00010000
01000000
,
00010000
00001000
00100000
00010000
,
00002000
00000000
00000000
00000000
,
00020000
00000000
00000000
00000000
,
00033000
00000000
00000000
00000000
;
