#TITLE:リリーゼと炎龍レーヴァテイン;
#SUBTITLE:;
#ARTIST:黒猫ダンジョン;
#TITLETRANSLIT:Lilieze to enryuu Laevateinn;
#SUBTITLETRANSLIT:;
#ARTISTTRANSLIT:;
#GENRE:;
#CREDIT:;
#BANNER:Lilieze to enryuu Laevateinn-bn.png;
#BACKGROUND:Lilieze to enryuu Laevateinn-bg.jpg;
#LYRICSPATH:;
#CDTITLE:;
#MUSIC:Lilieze to enryuu Laevateinn.mp3;
#OFFSET:0.961000;
#SAMPLESTART:81.226997;
#SAMPLELENGTH:15.000000;
#SELECTABLE:YES;
#BPMS:0.000000=200.000000
;
#STOPS:
;
#BGCHANGES:2.000=Lilieze to enryuu Laevateinn.avi=1.000=1=0=0=StretchNoLoop==CrossFade==,
99999=-nosongbg-=1.000=0=0=0 // don't automatically add -songbackground-
;
#KEYSOUNDS:;
#ATTACKS:;

//---------------dance-single - ----------------
#NOTES:
     dance-single:
     :
     Beginner:
     3:
     0.139819,0.204865,0.046167,0.018467,0.000000,106.000000,101.000000,5.000000,2.000000,0.000000,0.000000,0.139819,0.204865,0.046167,0.018467,0.000000,106.000000,101.000000,5.000000,2.000000,0.000000,0.000000:
0000
0000
0000
0000
,
0000
0000
0000
0000
,
1000
0000
0000
0000
,
1000
0000
0000
0000
,
1000
0000
0000
0000
,
1000
0000
0000
0000
,
0001
0000
0000
0000
,
1000
0000
0000
0000
,
0001
0000
0000
0000
,
0100
0000
0000
0000
,
0100
0000
0000
0000
,
0010
0000
0000
0000
,
0010
0000
0000
0000
,
1000
0000
0000
0000
,
1000
0000
0000
0000
,
0001
0000
0000
0000
,
0001
0000
0001
0000
,
0001
0000
0000
0000
,
1000
0000
0000
0000
,
0010
0000
0000
0000
,
0100
0000
0000
0000
,
0010
0000
0000
0000
,
1000
0000
0000
0000
,
0001
0000
0000
0000
,
1000
0000
0000
0000
,
0001
0000
0000
0000
,
0001
0000
0000
0000
,
0001
0000
0000
0000
,
0001
0000
0001
0000
,
0000
0000
0000
1000
,
0000
0000
1000
0000
,
0000
0000
0000
0010
,
0000
0000
0010
0000
,
0000
0000
0000
1000
,
0000
0000
0001
0000
,
0000
0000
0000
0100
,
0000
0000
0010
0000
,
0000
0000
1000
0000
,
0000
0000
1000
0000
,
0000
0000
0001
0000
,
1000
0000
0001
0000
,
0000
0000
0100
0000
,
0000
0000
0100
0000
,
0000
0000
0010
0000
,
0100
0000
0010
0000
,
0000
0000
1001
0000
,
0000
0000
0000
0000
,
1000
0000
1001
0000
,
0000
0000
0000
0000
,
0001
0000
0101
0000
,
0000
0000
0000
0000
,
0100
0000
0110
0000
,
0000
0000
0000
0000
,
0010
0000
2000
0000
,
0000
0000
3000
0000
,
0000
0000
0001
0000
,
0001
0000
0001
0000
,
0001
0000
0000
0000
,
0100
0000
0000
0000
,
0010
0000
1000
0000
,
1000
0000
1000
0000
,
1000
0000
0010
0000
,
0000
0000
0100
0000
,
0000
0000
0000
0000
,
0001
0000
0000
0000
,
1000
0000
0000
0000
,
0001
0000
0000
0000
,
1000
0000
0000
0000
,
1000
0000
0010
0000
,
1000
0000
0010
0000
,
0000
0000
0010
0000
,
0000
0000
0010
0000
,
0000
0000
1000
0000
,
0001
0000
1000
0000
,
0000
0000
0010
0000
,
0000
0000
0110
0000
,
0000
0000
1000
0000
,
0001
0000
1000
0000
,
0001
0000
0100
0000
,
0000
0000
0100
0000
,
0000
0000
0010
0000
,
1000
0000
0010
0000
,
1000
0000
0001
0000
,
0000
0001
0000
0000
,
0001
0000
1000
0000
,
0000
1000
0000
0000
,
1000
0000
0020
0000
,
0000
0000
0000
0000
,
0000
0000
0000
0130
;

//---------------dance-single - ----------------
#NOTES:
     dance-single:
     :
     Easy:
     8:
     0.371972,0.451338,0.212367,0.110800,0.000000,282.000000,259.000000,23.000000,12.000000,0.000000,0.000000,0.371972,0.451338,0.212367,0.110800,0.000000,282.000000,259.000000,23.000000,12.000000,0.000000,0.000000:
0000
0000
0000
0000
,
0000
0000
0000
0000
,
1000
0000
1000
0000
,
0010
0000
0010
0000
,
1000
0000
1000
0000
,
0001
0100
0000
0100
,
0010
0000
0010
1000
,
0000
1000
0001
0000
,
0001
0100
0010
1000
,
1001
0000
0010
0000
,
1000
0000
0010
0000
,
0100
0000
0001
0000
,
0100
0000
0001
0000
,
0010
0000
0100
0000
,
1000
0000
0010
0000
,
0010
0000
0100
0000
,
0001
0000
0010
0000
,
0001
1000
0100
0000
,
1000
0000
1000
0000
,
1000
0001
0010
0000
,
0100
0000
0010
0000
,
0001
0100
0010
0000
,
0100
0010
0100
0000
,
0001
1000
0001
0000
,
0010
0100
0010
0000
,
0001
0000
0001
0000
,
0010
0010
0100
0000
,
1000
0000
1000
0000
,
0010
0000
0010
0000
0100
0000
0001
1000
,
0000
0000
0010
1010
,
0000
1000
0000
0000
0001
0000
0000
0100
,
0000
0100
0000
0101
,
0000
0010
0000
0000
0100
0000
0000
1000
,
0000
0001
0100
0101
,
0000
0001
0000
0000
1000
0000
0000
0001
,
0000
1000
0000
0010
,
0000
0010
0000
0000
0100
0000
0000
0100
,
0000
1001
0001
0010
,
0001
0000
0001
1000
,
0100
0000
0100
0010
,
0001
1000
0010
0010
,
0010
0000
1000
0100
,
0001
0000
0001
0100
,
1000
0000
1000
0010
,
0100
0001
0010
0010
,
0010
0000
0000
0000
0101
0000
0000
0001
,
0000
0000
0101
0000
0000
0100
0000
0000
,
0010
0000
0010
0000
1010
0000
0000
1000
,
0000
0000
1010
0000
0000
0010
0000
0000
,
0110
0000
1000
0000
1001
0000
0000
0001
,
0000
0000
0101
0000
0000
0100
0000
0000
,
0110
0000
1000
0000
1001
0000
0000
0001
,
0000
0000
0101
0000
0000
1000
0000
0000
,
1001
0010
0120
0000
,
0100
0000
1000
0000
,
0130
0001
0010
0010
,
1000
1000
0100
0001
,
1000
0000
0010
1000
,
0001
0000
1000
0001
,
0010
0000
0001
0001
,
1000
1000
0100
0001
,
0100
1000
0010
0000
,
1001
0000
0001
0001
,
0001
0100
0101
0000
,
0001
1000
0100
0010
,
1001
0000
0010
0100
,
1001
0000
0001
0001
,
1000
1000
0020
0100
,
0130
1000
0001
0010
,
0001
0010
0100
1000
,
0010
0000
1000
0000
0200
0000
0000
0320
,
0000
0032
0000
0000
,
1003
0000
0000
0000
0020
0000
0000
2030
,
0000
0000
3010
0100
,
0001
0000
1000
0000
1100
0000
0000
0101
,
0000
0000
0001
0000
0000
0010
0000
0000
,
0010
0001
1000
0100
,
1000
0100
0010
0001
,
0100
0000
0010
0000
2000
0000
0000
3020
,
0000
0230
0000
0000
,
0301
0000
0000
0000
2000
0000
0000
3002
,
0000
0000
0103
0010
,
1000
0000
0100
0000
0010
0010
0000
0001
,
0001
0000
1000
1000
0000
0001
0001
0000
,
1000
1000
0000
0000
0010
0010
0000
0100
,
0100
0000
0010
0010
0000
0100
0100
0000
,
0001
0001
0000
0000
1000
0000
0000
1000
,
0000
0000
1000
0000
0000
1000
0000
0000
,
1000
0000
0000
1000
0000
0000
0001
1000
;

//---------------dance-single - ----------------
#NOTES:
     dance-single:
     :
     Medium:
     12:
     0.630506,0.656492,0.590935,0.101567,0.009233,478.000000,414.000000,64.000000,11.000000,0.000000,0.000000,0.630506,0.656492,0.590935,0.101567,0.009233,478.000000,414.000000,64.000000,11.000000,0.000000,0.000000:
0000
0000
0000
0000
,
0000
0000
0000
0000
,
1000
0100
1000
0010
,
1000
0100
1000
0010
,
0100
0001
0010
0100
,
0000
1000
0100
0000
0010
0000
0001
0000
,
1000
0100
1000
0001
,
0010
0001
0100
1000
,
0100
0001
0010
1000
,
0012
0000
0103
0000
,
2100
0000
3010
0000
,
0012
0000
0103
0000
,
1200
0000
0310
0000
,
2010
0000
3100
0000
,
0201
0000
0310
0000
,
0012
0000
0103
0000
,
2100
0000
0010
0010
,
3001
0000
0010
0000
0100
1000
0100
0000
,
0010
0010
1001
0010
,
0100
0000
0100
0000
0001
0010
0001
0000
,
1000
1000
0101
0010
,
1000
0000
1000
0000
0001
0010
0001
0000
,
0010
0000
0100
0000
1000
0100
1000
0000
,
0010
0100
0001
0000
0010
0000
0010
0000
,
1000
0100
0001
1000
,
0010
1000
0010
0000
0100
0001
0100
0000
,
0100
1000
0010
0100
,
0001
0010
0001
0000
1000
0100
1000
0000
,
0001
0010
0100
0000
1000
0010
0100
0001
,
1000
0000
0001
0101
,
1000
0100
0000
0001
0100
0000
1000
0100
,
0000
0010
0001
0000
1010
0000
1000
0000
,
0100
1000
0000
0100
0001
0000
0010
1000
,
0000
0010
0001
0000
1001
0000
1000
0000
,
0010
0100
0000
0001
0010
0000
1000
0010
,
0000
0001
0100
0000
0110
0000
0001
0000
,
1000
0001
0000
0010
1000
0000
0010
0001
,
0000
0100
0010
1000
0001
0000
0011
0000
,
1000
0000
0100
0010
0001
0000
1001
0000
,
0001
0100
0001
1000
0100
0000
0100
1000
,
0010
1000
0100
0010
0001
0001
0100
0010
,
0100
0011
1200
0310
,
0102
0013
1100
0101
,
1010
0000
0001
0010
0100
0000
0010
0001
,
0100
0100
0010
0000
1000
0001
0010
0100
,
1000
0001
1000
0000
1010
0000
0000
0101
,
0000
0000
1010
0000
0000
1001
0000
0000
,
0001
0000
0010
0000
0011
0000
0000
1100
,
0000
0000
0011
0000
0000
1001
0000
0000
,
1100
0000
0100
0000
1001
0000
0000
0011
,
0000
0000
1100
0000
0000
1010
0000
0000
,
1000
0000
0001
0000
0011
0000
0000
1100
,
0000
0000
0101
0000
0000
0011
0000
0000
,
0001
0001
1000
0000
0010
0100
0010
0000
,
1000
0100
0001
0000
0100
1000
0010
0000
,
0010
0010
0100
0000
0001
0010
0001
1000
,
0100
1000
0100
0000
1000
0010
1000
0010
,
0100
0001
0010
0000
0001
0010
1000
0000
,
0010
0001
1000
0000
0010
0100
1000
0000
,
0100
0001
0010
0000
0001
1000
0001
1000
,
0100
0010
0100
1000
0010
0100
0001
0000
,
0100
0010
1000
0000
0011
0000
0100
0000
,
1100
0000
1010
0010
,
1001
0000
0001
0000
0100
0000
1010
0000
0000
0001
0000
0000
,
0011
0000
1100
0110
,
1001
0001
0011
0110
,
1001
1000
1010
1001
,
0011
0000
0001
0000
1000
0000
0010
0100
,
1000
0100
0001
0000
0010
0100
0010
0100
,
0010
0001
1000
0000
0001
0000
0010
0000
,
1100
0000
0001
0000
0100
0010
0100
0010
,
0100
1000
0100
0000
0011
0000
1000
0000
,
0001
1000
0010
0000
1000
0100
0001
0100
,
1000
0010
0100
0000
1000
0100
0010
1000
,
0001
0010
0100
0000
0011
0000
0100
0001
,
1000
0000
1000
0010
0000
1000
0010
0000
,
1000
0001
0100
0001
0010
0100
0010
0100
,
0010
1000
0010
0000
0001
0100
0001
0100
,
0010
1000
0100
0000
0101
0000
0010
0100
,
0000
0010
0001
0000
1000
0100
1000
0010
,
1000
0100
0010
0000
0011
0000
0100
1000
,
0000
1000
0001
0000
0100
0010
1000
0100
,
0010
0001
0100
0000
0001
0001
0000
0010
,
0010
0000
1000
1000
0000
0100
0100
0000
,
0001
1001
0000
0000
0001
0001
0000
0010
,
0010
0000
1000
1000
0000
0100
0100
0000
,
0010
1001
0000
0000
1200
0000
0000
0001
,
0000
0000
1000
0000
0000
0001
0000
0000
,
1000
0000
0000
0301
0000
0000
1001
1001
;

//---------------dance-single - ----------------
#NOTES:
     dance-single:
     :
     Hard:
     16:
     0.945759,1.107829,0.812535,0.083100,0.466284,717.000000,629.000000,88.000000,9.000000,0.000000,0.000000,0.945759,1.107829,0.812535,0.083100,0.466284,717.000000,629.000000,88.000000,9.000000,0.000000,0.000000:
0000
0000
0000
0000
,
0000
0000
0000
0000
,
1000
0010
1000
0100
0010
0001
0100
0001
,
0010
0100
1000
0010
1000
0100
0010
0001
,
0100
0001
0010
0100
1000
0010
1000
0001
,
1000
0010
0010
0100
0001
0010
0100
0100
,
0010
0001
0100
1000
0100
0001
0010
0010
,
0100
1000
1000
0001
0100
0010
1000
0100
,
0010
0001
0100
0010
1000
0001
1000
0100
,
1010
0000
0000
0001
0000
0100
0010
0000
0000
1000
0000
0000
,
0110
0000
0000
0001
0000
0100
0010
0000
0000
1000
0000
0000
,
1100
0000
0000
0001
0000
0100
0010
0000
0000
1000
0000
0000
,
0011
0000
0000
0100
0000
1000
0100
0000
0000
0010
0000
0000
,
1100
0000
0000
0001
0000
0100
0001
0000
0000
0100
0000
0000
,
0011
0000
0000
0001
0000
0010
0001
0000
0000
0010
0000
0000
,
1100
0000
0000
0010
0000
0100
0001
0000
0000
0010
0000
0000
,
0011
0000
0000
0000
0000
0000
0001
0010
0100
1000
0100
0010
,
0001
0000
0000
0100
0000
0000
0010
1000
0100
0010
0000
0000
,
0001
0100
0010
1000
0010
1000
0001
0010
0001
0010
0000
0000
,
1001
0000
0000
0001
0000
0000
0001
0010
0100
1000
0000
0000
,
1000
0100
0010
0001
0100
0010
1000
0100
0010
0001
0000
0000
,
1001
0000
0000
0010
0000
0000
1000
0100
1000
0100
0000
0000
,
0100
0010
1000
0001
0100
1000
0100
0010
0001
0010
0100
0000
,
0100
1000
0010
0100
0001
0010
0001
0010
0001
1000
0100
1000
,
0010
1000
0010
1000
0100
0010
0001
0100
0010
1000
0010
0100
,
0001
0010
0100
0010
0001
0100
1000
0100
,
0001
0010
1000
0010
0001
0100
0010
1000
,
0100
0100
0001
0100
1000
1000
0010
0010
,
0100
0001
0010
0100
1000
0001
1010
2002
,
0000
3003
0000
0000
0001
0000
1001
0000
,
1000
1100
0000
0010
1001
0000
0010
0011
,
0000
0001
0100
0010
1000
0000
1010
0000
,
1000
1100
0000
1000
1001
0000
1000
1010
,
0000
0000
0001
0000
0010
0001
0100
0001
1000
0000
0010
0000
0110
0000
0000
0000
,
0100
0101
0000
0010
0011
0000
0001
1001
,
0000
1000
0100
0010
0001
0001
0101
0000
,
0010
1010
0000
1000
0110
0000
0001
0110
,
0000
0000
0100
0000
0001
0010
0100
0010
2000
0000
0000
0000
3020
0000
0000
0000
,
0032
0000
0013
0100
2000
0000
0010
0000
,
3100
0010
0100
0010
0001
0000
0001
0010
,
0100
1000
0100
1000
0100
0000
0010
0000
0001
0000
0100
0000
1000
0000
0100
0000
,
0001
0010
0100
1000
0120
0000
0031
0000
,
0210
1300
0120
0031
,
0011
0001
0010
0100
1000
0000
0001
0010
,
1000
0010
1000
0010
0100
0000
0001
0000
0010
0000
1000
0000
0010
0000
0001
0000
,
0100
0010
1000
0100
0110
0000
0001
0101
,
0000
1000
1100
0000
0001
0101
0000
1000
,
0100
0010
0001
1000
1010
0000
0001
0011
,
0000
1000
1100
0000
0001
0101
0000
0010
,
1000
0100
0010
0001
1000
0000
0100
0000
0110
0000
1000
0000
0000
0000
0110
0000
,
0001
0000
0101
1000
0000
1100
0001
0000
,
0010
0100
1000
0001
1010
0100
0000
0101
,
0010
0000
1100
0010
0000
0101
0010
0000
,
0010
0000
0100
0000
0010
0001
1000
0001
1000
0000
0010
0000
0010
1000
0100
0000
,
0010
0000
0001
0000
0010
0000
0100
0000
1000
0001
1000
0000
0010
0000
0100
0000
,
0001
0000
0010
0000
0100
0000
1000
0000
0010
1000
0010
1000
0100
0000
0010
0000
,
0001
0010
0001
0010
0001
0000
1000
0000
0100
1000
0100
0000
0010
0001
1000
0000
,
0010
1000
0100
0010
0001
0010
0100
0010
0001
0000
1000
0000
0010
0000
0100
1000
,
0100
0000
0010
0000
0100
0001
0010
0000
0001
0010
0001
0000
1000
0000
0100
0000
,
0100
0000
0010
0000
0001
0000
0100
0000
0010
0100
0010
1000
0010
0000
1000
0000
,
0100
0000
0010
0000
0001
0000
0100
0000
0010
0100
0010
0000
1000
0100
1000
0000
,
0001
0010
0100
1000
0001
1000
0010
1000
0001
0000
0000
0000
0101
0000
0000
0000
,
1100
0010
0001
1000
,
1010
0000
1100
0000
0011
0000
1001
0000
0000
0100
0000
0000
,
1001
0000
0000
0001
0000
0010
0100
0000
0000
1000
0000
0000
,
1010
0000
0000
1000
0000
0100
0010
0000
0000
0001
0000
0000
,
0101
0000
0000
0100
0000
0100
0010
0000
0000
1001
0000
0000
,
0010
0000
0010
0101
0000
0000
0100
0000
0100
1001
0000
0000
,
0010
0000
1000
0000
0100
0000
0010
0000
0001
0000
0100
0000
0010
0000
0000
1000
0000
0000
0010
0000
0000
1000
0000
0000
,
0100
1000
0100
1000
0001
0010
1000
0010
,
0001
0100
0010
1000
0100
1000
0100
0001
,
0100
0001
0100
0010
0001
1000
0010
0000
,
1000
0001
0010
0000
0001
0100
0001
0100
,
1000
0100
1000
0100
0001
0010
0100
0000
,
1000
0010
0100
0000
0101
1000
0001
0011
,
0000
1000
1100
0000
0001
0010
0100
1000
,
0001
0000
0001
1000
0010
0100
0010
0100
0001
0000
0010
0000
0001
0000
0010
0000
,
1000
0010
1000
0010
0001
1000
0010
0100
,
0001
0010
1000
0010
0001
1000
0001
1000
,
0100
1000
0010
0100
0001
0010
0100
1000
,
0010
0100
0001
0000
0011
0000
0001
1001
,
0000
1000
0100
0000
0001
0100
1000
0010
,
0100
0001
0010
0000
0011
0011
0000
1100
,
1100
0000
0101
0101
0000
0011
0011
0000
,
1001
1001
0000
0000
1010
1010
0000
1100
,
1100
0000
0101
0101
0000
0011
0011
0000
,
1001
1001
0000
0000
0110
1000
0010
0010
,
0100
0010
0010
0100
0001
0001
1000
0010
,
0010
0001
1000
1000
0100
0010
1001
0110
;

//---------------dance-double - ----------------
#NOTES:
     dance-double:
     :
     Easy:
     9:
     0.433968,0.492369,0.415501,0.120034,0.000000,329.000000,284.000000,45.000000,13.000000,0.000000,0.000000,0.433968,0.492369,0.415501,0.120034,0.000000,329.000000,284.000000,45.000000,13.000000,0.000000,0.000000:
00000000
00000000
00000000
00000000
,
00000000
00000000
00000000
00000000
,
00100000
00010000
00100000
00010000
,
01000000
00000000
01000000
00000000
,
00100000
00010000
00001000
00010000
,
00000000
00010000
00000010
00000100
,
00000001
00000010
00001000
00010000
,
00000100
00001000
00010000
00100000
,
00010000
01000000
00100000
10000000
,
10010000
00000000
01010000
00000000
,
11000000
00000000
00110000
00000000
,
00101000
00000000
00010100
00000000
,
00000011
00000000
00001001
00000000
,
00001100
00000000
00011000
00000000
,
00110000
00000000
10010000
00000000
,
11000000
00000000
01010000
00000000
,
00002000
00000000
00013000
00100000
,
10000000
00000000
10000000
00100000
,
00010000
00001000
00010000
00000000
,
00000100
00000000
00000100
00000010
,
00001000
00010000
00001000
00000000
,
00100000
00000000
00100000
00001000
,
00010000
00000000
00010000
01000000
,
10000000
00100000
10000000
01000000
,
00010000
00001000
00010000
00000000
,
00000100
00001000
00000010
00001000
,
00000100
00000010
00000001
00000010
,
00001000
00010000
00000100
00010000
,
00001000
00000000
00100000
00000000
01000000
00000000
10000000
00010000
,
00000000
00000000
01000000
01100000
,
00000000
00010000
00000000
00000000
00101000
00000000
00000000
00010000
,
00000000
00100000
00000000
10010000
,
00000000
00100000
00000000
00000000
00011000
00000000
00000000
00000100
,
00000000
00000010
00000001
00001001
,
00000000
00001000
00000000
00000000
00010100
00000000
00000000
00010000
,
00000000
00100000
00000000
10010000
,
00000000
00100000
00000000
00000000
01100000
00000000
00000000
10000000
,
00000000
00010000
01000000
10000000
,
01000000
00010000
00001000
00010000
,
01000000
00100000
10000000
00000000
,
10000000
01000000
00100000
00001000
,
00010000
00000010
00000200
00000000
,
00010300
00000000
00000001
00000010
,
00001000
00010000
00100000
00100000
,
00010000
00000100
00000010
00001000
,
00010000
00000000
00000100
00000000
00010100
00000000
00000000
00101000
,
00000000
00000000
00110000
00000000
00000000
11000000
00000000
00000000
,
10000000
00000000
00100000
00000000
10100000
00000000
00000000
01010000
,
00000000
00000000
00011000
00000000
00000000
00010100
00000000
00000000
,
00000100
00000000
00000010
00000000
00000011
00000000
00000000
00000110
,
00000000
00000000
00001100
00000000
00000000
00011000
00000000
00000000
,
00100000
00000000
01000000
00000000
10100000
00000000
00000000
01010000
,
00000000
00000000
00101000
00000000
00000000
00010100
00000000
00000000
,
00000010
00000010
00001001
00000001
,
00000001
00000000
00000100
00001000
,
00010000
00100000
10000000
10000000
,
00010000
00010000
00100000
01000000
,
10000000
00010000
10000000
00000000
00100000
00000000
00100000
00000000
,
01000000
01000000
00100000
00010000
,
00000100
00000010
00000001
00001000
,
00000001
00000010
00001000
00010000
,
01000000
10000000
10010000
00000000
,
01100000
00000000
00100000
00100000
,
01010000
00000000
00011000
00000000
,
00000100
00000010
00000011
00000100
,
00001000
00000000
00001000
00010000
,
10000000
00000000
10000000
00100000
,
00010000
00000000
00001000
00000100
,
00000010
00001000
00000001
00000000
00001000
00000000
00000100
00000000
,
00001000
00000100
00001000
00010000
,
01000000
00000000
00100000
00000000
20000000
00000000
00000000
30200000
,
00000000
02300000
00000000
00000000
,
03010000
00000000
00000000
00000000
20000000
00000000
00000000
32000000
,
00000000
00000000
03100000
00010000
,
01000000
00000000
00100000
00000000
00010000
00000000
00000000
00000100
,
00000000
00000000
00000010
00000000
00000000
00001001
00000000
00000000
,
00000001
00000000
00000010
00000001
00000010
00000000
00000100
00000000
,
00000010
00000100
00001000
00010000
,
01000000
00000000
00100000
00000000
20000000
00000000
00000000
30200000
,
00000000
02300000
00000000
00000000
,
03100000
00000000
00000000
00000000
00002000
00000000
00000000
00023000
,
00000000
00000000
00031000
00010000
,
00000100
00000000
00000010
00000000
00000001
00000001
00000000
00000010
,
00000010
00000000
00001000
00001000
00000000
00010000
00010000
00000000
,
00000100
00000100
00000000
00000000
00100000
00100000
00000000
00010000
,
00010000
00000000
01000000
01000000
00000000
00100000
00100000
00000000
,
10000000
10000000
00000000
00000000
00020000
00000000
00000000
01000000
,
00000000
00000000
00100000
00000000
00000000
01000000
00000000
00000000
,
00100000
00000000
00000000
01030000
00000000
00000000
00001000
00010000
;

//---------------dance-double - ----------------
#NOTES:
     dance-double:
     :
     Medium:
     13:
     0.688544,0.738553,0.498601,0.156967,0.018467,522.000000,468.000000,54.000000,17.000000,0.000000,0.000000,0.688544,0.738553,0.498601,0.156967,0.018467,522.000000,468.000000,54.000000,17.000000,0.000000,0.000000:
  // measure 0
00000000
00000000
00000000
00000000
,  // measure 1
00000000
00000000
00000000
00000000
,  // measure 2
00100000
00010000
00100000
00000000
01000000
10000000
01000000
00000000
,  // measure 3
00100000
00010000
00100000
00000000
00001000
00010000
00001000
00000000
,  // measure 4
00100000
00010000
00100000
00000000
00000100
00010000
00000100
00000000
,  // measure 5
00010000
00001000
00010000
00000000
00000100
00000010
00000000
00000010
,  // measure 6
00000100
00000000
00001000
00010000
00000000
00010000
00100000
00000000
,  // measure 7
00100000
01000000
00000000
01000000
10000000
00000000
10000000
00100000
,  // measure 8
00000000
00100000
01000000
00000000
01000000
00010000
00100000
00010000
,  // measure 9
00100000
01000000
11000000
00100000
,  // measure 10
00010000
00001000
00011000
01000000
,  // measure 11
00100000
00010000
00011000
00001000
,  // measure 12
00000100
00000001
00000011
00000010
,  // measure 13
00001000
00010000
00011000
00010000
,  // measure 14
01000000
00010000
00011000
00001000
,  // measure 15
00000100
00000001
00000101
00000100
,  // measure 16
00002000
00000000
00000000
00000000
00013000
00100000
01000000
00000000
,  // measure 17
00010000
00000000
10000000
00000000
00010000
10000000
01000000
00000000
,  // measure 18
00100000
00010000
01000000
00100000
00010000
00001000
00010000
00000000
,  // measure 19
00000100
00000000
00000010
00000000
00000001
00000010
00000100
00000000
,  // measure 20
00000010
00001000
00010000
00100000
01000000
00010000
00100000
00000000
,  // measure 21
01000000
10000000
01000000
00000000
01000000
00010000
01000000
00000000
,  // measure 22
00100000
10000000
00100000
00000000
00100000
00010000
00100000
00000000
,  // measure 23
00001000
00010000
00000100
00000000
00001000
00000100
00010000
00000000
,  // measure 24
00001000
00010000
00000100
00000010
00000001
00000100
00000010
00000000
,  // measure 25
00001000
00000000
00001000
00010000
00000000
00010000
10000000
00000000
,  // measure 26
10000000
00100000
10000000
01000000
00100000
01000000
00100000
00000000
,  // measure 27
00001000
00010000
00000000
00010000
00000010
00000000
00000010
00000100
,  // measure 28
00000000
00000001
00001000
00000000
00000100
00010000
00001000
00100000
,  // measure 29
00000000
00000000
00010000
01010000
,  // measure 30
10000000
01000000
00000000
00100000
00010000
00000000
01000000
10000000
,  // measure 31
00000000
01000000
00010000
00000000
00011000
00000000
00000100
00000000
,  // measure 32
00000010
00000001
00000000
00000010
00001000
00000000
00000010
00000100
,  // measure 33
00000000
00001000
00000001
00010000
00000100
00000000
00101000
00000000
,  // measure 34
00100000
01000000
00000000
00100000
00010000
00000000
01000000
10000000
,  // measure 35
00000000
01000000
00100000
00000000
00011000
00000000
00000100
00000000
,  // measure 36
00000010
00000100
00000000
00010000
00001000
00000000
00010000
00001000
,  // measure 37
00100000
00010000
00100000
01000000
10020000
00000000
00100000
00000000
,  // measure 38
01030000
00000000
00100000
00010000
00002000
00000000
01003000
00000000
,  // measure 39
00010000
00001000
00000100
00010000
00000100
00000000
00000100
00001000
,  // measure 40
00010000
01000000
00100000
00000000
01000000
00000000
10000000
00000000
01000000
00000000
00010000
00000000
00100000
00000000
01000000
00000000
,  // measure 41
10000000
00100000
00010000
00001000
00010000
00000000
00011000
00000000
,  // measure 42
00001100
00000010
00000001
00000110
,  // measure 43
00001000
00000100
00010000
00000100
00010000
00000000
00000100
00001000
,  // measure 44
00010000
10000000
00100000
00000000
00010000
00000000
00100000
00000000
01000000
00000000
00010000
00000000
10000000
00000000
00100000
00000000
,  // measure 45
01000000
00100000
00010000
00001000
00011000
00000000
00000000
00001100
,  // measure 46
00000000
00000000
00000011
00000000
00000000
00001100
00000000
00000000
,  // measure 47
00010000
00000000
00100000
00000000
10100000
00000000
00000000
01010000
,  // measure 48
00000000
00000000
00011000
00000000
00000000
00001100
00000000
00000000
,  // measure 49
00000001
00000010
00000001
00000000
00001001
00000000
00000000
00011000
,  // measure 50
00000000
00000000
00101000
00000000
00000000
01010000
00000000
00000000
,  // measure 51
10000000
00000000
00010000
00000000
00011000
00000000
00000000
00001100
,  // measure 52
00000000
00000000
00000101
00000000
00000000
00001100
00000000
00000000
,  // measure 53
00010000
00001000
00010000
00100000
02000000
00000000
03010000
00000000
,  // measure 54
00100000
10000000
02000000
00000000
03100000
00000000
00010000
10000000
,  // measure 55
00100000
10000000
00100000
00000000
01000000
00010000
01000000
00010000
,  // measure 56
00100000
00001000
00010000
00000100
00000010
00000100
00010000
00001000
,  // measure 57
00100000
00010000
00100000
01000000
10000000
00000000
10000000
01000000
,  // measure 58
00000000
00100000
00010000
00000000
01000000
01000000
00100000
00000000
,  // measure 59
01000000
00010000
00100000
00000000
01000000
10000000
00100000
00010000
,  // measure 60
00001000
00010000
00000100
00001000
00000100
00000010
00000100
00010000
,  // measure 61
00001000
00100000
01000000
00100000
00010000
00000000
10010000
00000000
,  // measure 62
01100000
00010000
00100000
00001000
,  // measure 63
00010000
00000000
00000100
00000000
00000001
00000000
00001001
00000000
00000000
00000100
00000000
00000000
,  // measure 64
00000010
00001000
00011000
00110000
,  // measure 65
11000000
01000000
11000000
01010000
,  // measure 66
00011000
00001000
00011000
01100000
,  // measure 67
10010000
01000000
00100000
00000000
00100000
00000000
00100000
00010000
,  // measure 68
00001000
00010000
00100000
00000000
01000000
10000000
01000000
10000000
,  // measure 69
00100000
10000000
00100000
00000000
10000000
01000000
00100000
00000000
,  // measure 70
00010000
01000000
00100000
00000000
00010000
00000100
00010000
00001000
,  // measure 71
00010000
00000100
00010000
00000000
00000010
00000100
00000001
00000000
,  // measure 72
00000010
00000100
00001000
00000000
00000100
00010000
00001000
00010000
,  // measure 73
00000100
00010000
00001000
00000000
00101000
00000000
10010000
00000000
,  // measure 74
01000000
00000000
00100000
00000000
00010000
00000000
01000000
00010000
,  // measure 75
00000000
10000000
01000000
00100000
00000000
00010000
01000000
00000000
,  // measure 76
00100000
01000000
00100000
01000000
00010000
00100000
00010000
00100000
,  // measure 77
01000000
10000000
01000000
10000000
00200000
00000000
02300000
00000000
,  // measure 78
03020000
00000000
00032000
00000000
00003010
00010000
00000010
00010000
,  // measure 79
00001000
00010000
00001000
00010000
00200000
00000000
20300000
00000000
,  // measure 80
32000000
00000000
03200000
00000000
00301000
00100000
00010000
00100000
,  // measure 81
01000000
00100000
00010000
00100000
00002000
00000000
00003200
00000000
,  // measure 82
00000320
00000000
00001030
00000000
00001000
00001000
00000000
00000101
,  // measure 83
00000101
00000000
00000010
00000010
00000000
00001100
00001100
00000000
,  // measure 84
00010000
00010000
00000000
00000000
01000000
01000000
00000000
10010000
,  // measure 85
10010000
00000000
10000000
10000000
00000000
01100000
01100000
00000000
,  // measure 86
00010000
00010000
00000000
00000000
02100000
00000000
00000000
00100000
,  // measure 87
00000000
00000000
00001000
00000000
00000000
00100000
00000000
00000000
,  // measure 88
00001000
00000000
00000000
03100000
00000000
00000000
00001000
00010000
;

//---------------dance-double - ----------------
#NOTES:
     dance-double:
     :
     Hard:
     16:
     0.931250,1.066799,0.692502,0.055400,0.484751,706.000000,631.000000,75.000000,6.000000,0.000000,0.000000,0.931250,1.066799,0.692502,0.055400,0.484751,706.000000,631.000000,75.000000,6.000000,0.000000,0.000000:
  // measure 0
00000000
00000000
00000000
00000000
,  // measure 1
00000000
00000000
00000000
00000000
,  // measure 2
00100000
00010000
00100000
00010000
10000000
01000000
10000000
01000000
,  // measure 3
00100000
00010000
00100000
00010000
00001000
00000100
00001000
00000100
,  // measure 4
00000010
00000001
00000010
00000001
00001000
00000100
00001000
00000100
,  // measure 5
00001000
00010000
00100000
01000000
01000000
10000000
00100000
00100000
,  // measure 6
00010000
00001000
00010000
00000100
00000010
00000010
00000100
00010000
,  // measure 7
00010000
00100000
10000000
01000000
00100000
00100000
00001000
00010000
,  // measure 8
00100000
01000000
00010000
00100000
00001000
00010000
00000100
00010000
,  // measure 9
00001010
00000000
00000000
00000001
00000000
00001000
00000100
00000000
00000000
00010000
00000000
00000000
,  // measure 10
01100000
00000000
00000000
01000000
00000000
00010000
00001000
00000000
00000000
00000100
00000000
00000000
,  // measure 11
00000011
00000000
00000000
00000010
00000000
00000100
00001000
00000000
00000000
00010000
00000000
00000000
,  // measure 12
10100000
00000000
00000000
10000000
00000000
01000000
00100000
00000000
00000000
00001000
00000000
00000000
,  // measure 13
00001001
00000000
00000000
00000010
00000000
00000100
00000010
00000000
00000000
00001000
00000000
00000000
,  // measure 14
01100000
00000000
00000000
10000000
00000000
01000000
00100000
00000000
00000000
00001000
00000000
00000000
,  // measure 15
00000011
00000000
00000000
00000001
00000000
00001000
00000100
00000000
00000000
00010000
00000000
00000000
,  // measure 16
11000000
00000000
00000000
00000000
00000000
00000000
01000000
00100000
00010000
01000000
00100000
10000000
,  // measure 17
01000000
00000000
00000000
00100000
00000000
00000000
00010000
01000000
00010000
01000000
00000000
00000000
,  // measure 18
00001000
00010000
00000100
00001000
00000010
00000100
00000001
00000010
00000100
00001000
00000000
00000000
,  // measure 19
00010000
00000000
00000000
00100000
00000000
00000000
01000000
10000000
00100000
01000000
00000000
00000000
,  // measure 20
00010000
10000000
01000000
00100000
00010000
01000000
00001000
00010000
00000100
00000010
00000000
00000000
,  // measure 21
00000001
00000010
00000100
00000010
00000000
00000000
00000100
00001000
00010000
00100000
00000000
00000000
,  // measure 22
01000000
00100000
00010000
01000000
00000000
00000000
00010000
00100000
01000000
00100000
00000000
00000000
,  // measure 23
00001000
00010000
00000100
00001000
00000010
00000100
00000001
00000010
00000100
00001000
00000000
00000000
,  // measure 24
00000100
00010000
01000000
00100000
10000000
00100000
00010000
00001000
00000100
00001000
00000010
00000100
,  // measure 25
00000001
00000010
00000001
00000010
00001000
00010000
00100000
10000000
,  // measure 26
01000000
10000000
01000000
10000000
00100000
00010000
00001000
00000100
,  // measure 27
00000001
00000010
00001000
00010000
00100000
10000000
01000000
00100000
,  // measure 28
00001000
00010000
00001000
00010000
00000100
00000010
00000110
00001001
,  // measure 29
00000000
00000000
00001000
00000001
00001000
00000000
00000000
00000000
00000001
00000000
00001000
00000000
00001001
00000000
00000000
00000000
,  // measure 30
00000100
00010100
00000000
00100000
00110000
00000000
01000000
01100000
,  // measure 31
00000000
10000000
01000000
00100000
00010000
00000000
00011000
00000000
,  // measure 32
00000100
00010100
00000000
00001000
00001010
00000000
00000001
00000011
,  // measure 33
00000000
00000000
00000100
00000000
00001000
00000100
00001000
00000000
00010000
00000000
00001000
00000000
00011000
00000000
00000000
00000000
,  // measure 34
01000000
01100000
00000000
00010000
10010000
00000000
01000000
01100000
,  // measure 35
00000000
00010000
00100000
00010000
00001000
00000100
00011000
00000000
,  // measure 36
00000100
00001100
00000000
00000010
00000011
00000000
00000001
00000010
,  // measure 37
00000100
00000000
00010000
00000000
00001000
00010000
00001000
00010000
00002000
00000000
00000000
00000000
00100000
00000000
00000000
00000000
,  // measure 38
00003100
00000000
01000000
00100000
20000000
00000000
01000000
00000000
,  // measure 39
30010000
00100000
00001000
00010000
00001000
00000000
00010000
00000100
,  // measure 40
00001000
00000100
00001000
00000100
00001000
00000000
00000001
00000000
00000010
00000000
00001000
00000000
00010000
00000000
00100000
00000000
,  // measure 41
10000000
01000000
00100000
00010000
02010000
00000000
03001000
00000000
,  // measure 42
00010200
00010300
02100000
03010000
,  // measure 43
00001000
00000010
00000100
00000010
00000100
00000000
00000001
00000010
,  // measure 44
00001000
00010000
00001000
00010000
00001000
00000000
00010000
00000000
00100000
00000000
10000000
00000000
01000000
00000000
00100000
00000000
,  // measure 45
00010000
01000000
00001000
00010000
00011000
00000000
00000010
00001010
,  // measure 46
00000000
00001000
00001100
00000000
00000100
00010100
00000000
00010000
,  // measure 47
00011000
00001000
00100000
01000000
11000000
00000000
10000000
10010000
,  // measure 48
00000000
00001000
01001000
00000000
00010000
00010100
00000000
00000001
,  // measure 49
00001000
00000010
00000100
00000001
00000010
00000000
00001000
00000000
00011000
00000000
00000000
00000000
00010000
00000000
01100000
00000000
,  // measure 50
00000000
10000000
01100000
00000000
00010000
00101000
00000000
00010000
,  // measure 51
00000100
00001000
00000001
00000010
00001100
00000000
00001000
00110000
,  // measure 52
00000000
00100000
11000000
00000000
10000000
00110000
00000000
10000000
,  // measure 53
01000000
00000000
00100000
00000000
00010000
01000000
00100000
10000000
00100000
00000000
01000000
00000000
00010000
00000000
00001000
00000000
,  // measure 54
00000100
00000000
00010000
00000000
00001000
00010000
00000100
00000000
00010000
00000000
00000010
00000000
00000100
00000000
00000001
00000000
,  // measure 55
00000010
00000000
00000100
00000000
00010000
00000000
00001000
00000000
00010000
00001000
00010000
00000000
00001000
00100000
00001000
00000000
,  // measure 56
00100000
01000000
00100000
00000000
01000000
10000000
01000000
00000000
10000000
00100000
10000000
00010000
00100000
00000000
01000000
00000000
,  // measure 57
00100000
00000000
00010000
00100000
00001000
00100000
00001000
00010000
00000100
00000000
00010000
00000000
00000010
00000000
00000100
00000001
,  // measure 58
00000010
00000000
00000100
00000000
00001000
00000010
00000100
00000000
00000010
00000100
00000010
00000000
00001000
00000000
00010000
00000000
,  // measure 59
00001000
00000000
00000100
00000000
00001000
00000000
00010000
00000000
10000000
01000000
10000000
01000000
10000000
00010000
00100000
00000000
,  // measure 60
01000000
00000000
00100000
00000000
00010000
00000000
00100000
00000000
00001000
00010000
00000100
00000000
00010000
00000100
00001000
00000000
,  // measure 61
00000010
00000000
00000000
00001000
00000000
00000000
00000100
00000000
00000000
00000010
00000000
00000000
00000001
00000000
00000000
00000010
00000000
00000000
00000100
00000000
00000000
00000010
00000000
00000000
00000001
00000000
00000000
00000000
00000000
00000000
00000000
00000000
00000000
00000000
00000000
00000000
00000010
00000000
00000000
00000000
00000100
00000000
00000000
00000000
00001000
00000000
00000000
00000000
,  // measure 62
00010000
11000000
00100000
10000000
,  // measure 63
01100000
00000000
00110000
00000000
00011000
00000000
00010100
00000000
00000000
00000010
00000000
00000000
,  // measure 64
00001000
00000001
00000010
00000100
00000000
00000000
00001000
00000000
00000000
00000100
00000000
00000000
,  // measure 65
00011000
00000000
00000000
00100000
00000000
00100000
01000000
00000000
00000000
00010000
00000000
00000000
,  // measure 66
00011000
00000000
00000000
00000100
00000000
00000010
00000100
00000000
00000000
00010000
00000000
00000000
,  // measure 67
00001000
00100000
01000000
10000000
00100000
01000000
00100000
00000000
00000000
01000000
00100000
00010000
,  // measure 68
00001000
00000000
00000100
00000000
00000010
00000000
00001000
00000000
00000001
00000000
00000100
00000000
00000010
00000000
00000000
00000100
00000000
00000000
00000010
00000000
00000000
00001000
00000000
00000000
,  // measure 69
00000100
00001000
00010000
00001000
00000100
00000010
00001000
00010000
,  // measure 70
00100000
10000000
01000000
00100000
00010000
00001000
00010000
01000000
,  // measure 71
00010000
00001000
00010000
00100000
00001000
00010000
00000100
00001000
,  // measure 72
00000010
00000100
00000001
00000000
00000001
00000010
00000001
00000010
,  // measure 73
00001000
00000010
00001000
00010000
00100000
10000000
01000000
00100000
,  // measure 74
00010000
00000000
00001000
00000000
00000100
00000000
00010000
00000000
00001000
00000000
00010000
00001000
00100000
00000000
00010000
10000000
,  // measure 75
00100000
00100000
01000000
10000000
00000000
10000000
01000000
00000000
,  // measure 76
01000000
00000000
00100000
00000000
10000000
00010000
01000000
00001000
00100000
00000000
00001000
00000000
00100000
00000000
00010000
00000000
,  // measure 77
00100000
01000000
00100000
00010000
00001000
00000100
00010000
00100000
,  // measure 78
00010000
00001000
00010000
00000100
00000010
00000001
00000010
00001000
,  // measure 79
00000010
00000100
00010000
00001000
00010000
00001000
00100000
01000000
,  // measure 80
00100000
00001000
00010000
00000000
00100000
10000000
00100000
10000000
,  // measure 81
01000000
00100000
00010000
00001000
00000100
00010000
00100000
00010000
,  // measure 82
00001000
00000100
00000010
00000000
00001001
00001001
00000000
00000110
,  // measure 83
00000110
00000000
00011000
00011000
00000000
01100000
01100000
00000000
,  // measure 84
10010000
10010000
00000000
00000000
01100000
01100000
00000000
00011000
,  // measure 85
00011000
00000000
00001100
00001100
00000000
00000011
00000011
00000000
,  // measure 86
00001001
00001001
00000000
00000000
00021000
00000000
00000000
00000100
,  // measure 87
00000000
00000000
01000000
00000000
00000000
00000010
00000000
00000000
,  // measure 88
00100000
00000000
00000000
00031000
00000000
00000000
00011000
00011000
;
