#TITLE:龍と少女とデコヒーレンス;
#SUBTITLE:;
#ARTIST:黒猫ダンジョン;
#TITLETRANSLIT:Ryuu to shoujo to decoherence;
#SUBTITLETRANSLIT:;
#ARTISTTRANSLIT:;
#GENRE:;
#CREDIT:;
#BANNER:;
#BACKGROUND:;
#LYRICSPATH:;
#CDTITLE:;
#MUSIC:Ryuu to shoujo to decoherence.mp3;
#OFFSET:1.316000;
#SAMPLESTART:93.169006;
#SAMPLELENGTH:15.000000;
#LASTBEATHINT:0.744477;
#SELECTABLE:YES;
#BPMS:0.000000=165.000000
;
#STOPS:
;
#BGCHANGES:0.000=Ryuu to shoujo to decoherence.avi=1.000=1=0=0=StretchNoLoop==CrossFade==,
99999=-nosongbg-=1.000=0=0=0 // don't automatically add -songbackground-
;
#KEYSOUNDS:;
#ATTACKS:;

//---------------dance-single - ----------------
#NOTES:
     dance-single:
     :
     Hard:
     15:
     0.660426,1.110733,0.202762,0.081105,0.697503,570.000000,545.000000,25.000000,10.000000,0.000000,0.000000,0.660426,1.110733,0.202762,0.081105,0.697503,570.000000,545.000000,25.000000,10.000000,0.000000,0.000000:
0000
0000
0000
0000
,
0000
0000
0000
0000
,
0000
0000
0000
0000
,
0000
0000
0000
0000
,
0000
0000
0000
0000
,
1000
0010
1000
0000
0100
0010
0001
0000
,
0100
0001
0100
0000
0001
0010
0100
0000
,
1000
1000
0001
0000
0100
0100
0001
0000
,
0010
0010
0001
0000
0001
0001
0100
0000
,
1001
0000
0100
0100
,
0000
0000
0010
0010
,
0000
0000
1000
1000
,
0000
0000
0001
0001
,
1010
0000
1000
1000
,
0101
0000
0001
0001
,
0011
1000
1010
0100
,
0001
0000
0100
0000
0001
0000
1000
0000
0001
1000
0001
1000
0001
0000
0000
0000
,
0010
0001
0011
0000
1000
0100
0100
0000
,
0010
0001
0101
0000
0100
1000
0100
0000
,
0001
0010
1001
0000
1000
0100
1000
0000
,
0010
0100
0101
0000
0001
0010
0100
1000
,
0001
0100
0110
0000
1000
0001
1000
0000
,
0001
0010
0011
0000
0100
0010
0001
0000
,
0100
0010
1010
0000
1000
0100
0010
0000
,
0001
1000
1001
0000
0100
1000
0100
0001
,
0010
0000
0100
0000
1000
0000
0001
0100
0000
0000
0010
0000
0100
0000
1000
0000
,
0100
0000
0001
0000
0010
0000
0001
0010
0000
0000
0100
0000
1000
0000
0001
0000
,
0100
0000
0010
0000
1000
0000
0010
1000
0000
0000
0100
0000
0010
0000
0001
0000
,
0100
0000
0010
0000
0100
0000
0001
1000
0000
0000
0001
0000
0010
0000
0100
0000
,
1000
0000
0100
0000
1000
0000
0001
0100
0010
0000
0100
0000
1000
0000
0000
0000
,
0100
0000
0001
0000
0010
0000
1000
0010
0001
0000
0100
0000
0010
0000
0000
0000
,
1000
0000
0100
0000
0010
0000
0001
1000
0001
0000
0010
0000
0001
0000
0000
0000
,
0100
0000
0010
0000
1000
0000
0001
1000
0001
0000
0010
0000
0100
0000
1000
0000
,
1002
0000
0000
0000
,
0000
0000
0000
0000
,
0203
0000
0000
0000
,
0000
0000
0000
0000
,
0320
0000
0000
0000
,
0000
0000
0000
0000
,
2030
0000
0000
0000
,
0000
0000
0000
3000
,
0101
0000
0001
1000
0000
0000
0010
1000
0000
0000
0100
0010
0000
0000
0001
0100
,
0000
0000
1000
0100
0000
0000
0001
0010
0000
0000
1000
0100
0000
0000
0001
0100
,
0000
0000
1000
0010
0000
0000
0100
0001
0000
0000
0010
0001
0000
0000
0010
0100
,
0000
0000
1000
0100
0000
0000
1000
0001
0000
0000
0100
0010
0100
0000
0010
0000
,
0100
0000
0001
1000
0000
0000
0001
0010
0000
0000
0100
1000
0000
0000
0100
0001
,
0000
0000
1000
0100
0000
0000
0100
0001
0000
0000
0010
0001
0000
0000
1000
0100
,
0000
0000
0001
0010
0000
0000
0010
1000
0000
0000
1000
0100
0000
0000
0100
0001
,
0000
0000
0001
0010
0000
0000
0010
1000
0000
0000
1000
0100
0000
0000
0100
0000
,
0001
0010
0100
0010
0001
0010
0100
1000
0010
1000
0010
1000
,
0100
0010
0001
0100
0010
1000
0010
0100
0001
0010
0100
1000
,
0001
0100
0010
1000
0100
0010
0001
0100
0001
0010
0100
1000
,
0001
0100
0010
1000
0010
1000
0100
0010
0001
0100
0010
1000
,
0000
1000
0001
0010
0100
1000
0001
0100
0010
1000
0100
0010
,
0001
0100
0010
0001
0010
0100
0001
0010
0100
0010
0001
0100
,
0000
0100
0001
0010
0100
1000
0010
0100
0010
1000
0100
0010
,
0001
0100
0010
1000
0001
0010
1000
0010
0001
0100
0010
1000
,
0002
0000
0000
0000
,
0003
0000
0000
0100
,
2002
0000
0000
0000
,
3003
0000
0000
0010
,
2002
0000
0000
0000
,
3003
0000
0000
1000
,
1010
0010
1000
0100
0010
0001
0100
1000
,
0100
0001
0010
1000
0010
0001
0100
0010
,
1001
0000
0000
0000
0001
0000
0100
0001
0010
0100
0010
0001
1000
0010
1000
0010
,
1000
0100
0010
0001
0100
0010
1001
0000
,
0011
0000
0100
0000
1000
0000
0001
1000
0010
0100
0001
1000
0010
1000
0100
1000
,
0001
0010
0100
0010
0001
0100
0110
0000
,
1010
0000
0010
0000
0100
0000
0001
0010
0001
0010
0100
0010
0001
0010
1000
0010
,
0001
0010
0001
0100
0010
1000
1100
0000
,
0101
0000
0100
0000
0001
0000
1000
0010
0100
0001
0010
0100
0010
0001
0010
1000
,
0010
0000
0001
0000
0100
0000
0010
0000
1000
0100
0010
0001
0100
0010
1000
0001
,
1000
0000
0010
0000
0100
0000
0001
1000
0010
0100
0010
0100
0010
1000
0010
1000
,
0001
0000
0010
0100
1000
0000
0100
0010
0001
0000
1000
0100
0010
0000
0001
0010
,
0100
0000
0100
0000
0001
0000
0100
1000
0001
0100
0010
0100
0001
1000
0100
1000
,
0001
0000
0010
1000
0010
0000
0100
0001
0100
0000
0010
1000
0010
0001
0100
0001
,
0100
0000
0010
0000
1000
0000
0100
0010
0001
0010
0100
1000
0001
1000
0010
1000
,
0001
0000
1000
0100
1000
0000
0001
0100
0010
0000
0100
0001
0010
0000
0100
0010
,
0001
0010
0100
1000
0100
1000
0100
1000
0001
1000
0010
0100
0010
0100
0010
1000
,
0100
0010
0001
0100
0010
0100
0001
0010
0100
0010
0001
0100
0010
1000
0100
0010
,
0002
0000
0000
0000
,
0000
0000
0000
0000
,
0003
0000
0000
0000
;

//---------------dance-single - ----------------
#NOTES:
     dance-single:
     :
     Medium:
     10:
     0.361496,0.572196,0.267646,0.081105,0.000000,312.000000,279.000000,33.000000,10.000000,0.000000,0.000000,0.361496,0.572196,0.267646,0.081105,0.000000,312.000000,279.000000,33.000000,10.000000,0.000000,0.000000:
0000
0000
0000
0000
,
0000
0000
0000
0000
,
0000
0000
0000
0000
,
0000
0000
0000
0000
,
0000
0000
0000
0000
,
1000
0100
0010
0001
,
0100
0010
0100
0100
,
0001
0010
0100
1000
,
0000
0100
0100
0110
,
1001
0000
0000
0000
,
0001
0000
0000
0000
,
1000
0000
0000
0000
,
0001
0000
0100
0000
,
1001
0000
0000
0000
,
0110
0000
0000
0000
,
1100
0000
0011
0000
,
0001
0000
0001
0000
0100
0010
0100
0000
,
0001
0101
0000
1100
,
1000
1010
0000
0110
,
0001
1100
0000
1100
,
0010
0101
0001
1000
,
0010
1010
0000
1100
,
0001
0101
0000
1001
,
0010
0011
0000
1100
,
0010
0101
0000
0011
,
0100
1000
0010
0100
,
0001
0100
1000
0100
,
0001
0010
0100
1000
,
0100
0001
0100
1000
,
0010
0100
0010
0000
1000
0000
0001
0000
,
0010
1000
0010
0001
,
0100
0010
0100
0000
0001
0000
0010
0000
,
1000
0001
0100
1000
,
1002
0000
0000
0000
,
0000
0000
0000
0000
,
0203
0000
0000
0000
,
0000
0000
0000
0000
,
0320
0000
0000
0000
,
0000
0000
0000
0000
,
2030
0000
0000
0000
,
0000
0000
0000
3000
,
1001
0000
0000
0001
0000
0001
0000
1000
,
0000
0001
0000
0010
0000
0100
1000
0100
,
0000
0010
0000
0100
0000
1000
0000
0100
,
0000
0001
0000
0100
0000
0010
0010
0001
,
0000
1000
0000
0010
0000
1000
0000
0100
,
0000
1000
0000
0010
0000
0100
0100
1000
,
0000
0010
0000
0001
0000
0010
0000
0100
,
0000
0010
0000
0001
0000
0100
0100
1000
,
0100
0001
0010
0100
,
1000
0010
0100
0001
,
0100
0010
1000
0100
,
0010
0000
0001
0000
1000
0001
1000
0010
,
0100
0001
0010
0100
,
1000
0010
0001
0100
,
0010
1000
0100
1000
,
0001
0000
0100
0000
0001
1000
0010
0100
,
0002
0000
0000
0000
,
0003
0000
0000
0000
,
2002
0000
0000
0000
,
3003
0000
0000
0000
,
2020
0000
0000
0000
,
3030
0000
0000
0000
,
0101
0001
0010
0100
,
1000
0001
1000
0010
0100
0000
0001
0000
,
0011
0000
0010
0000
0001
0010
0100
1000
,
0010
1000
0100
1100
,
0101
0000
0010
0001
0010
0100
1000
0010
,
1000
0100
1000
0101
,
0011
0000
0001
0100
0001
0010
0100
1000
,
0010
0100
0010
0110
,
0101
0001
0010
0000
0100
1000
0010
0000
,
1000
0100
0010
0001
0100
0001
1000
0100
,
1000
0000
0001
0000
0010
0001
0010
0100
,
0010
1000
0000
0010
0001
0100
1000
0000
,
0100
0001
1000
0000
0010
1000
0100
1000
,
0010
0001
0000
0010
1000
0100
0010
0001
,
0100
0000
0010
0100
0001
0010
0100
1000
,
0001
0010
0000
0100
0001
0100
1000
0000
,
0010
0100
0001
0010
1000
0010
0001
1000
,
0001
0010
1000
0010
0001
0100
1000
0100
,
0002
0000
0000
0000
,
0000
0000
0000
0000
,
0003
0000
0000
0000
;

//---------------dance-single - ----------------
#NOTES:
     dance-single:
     :
     Easy:
     6:
     0.185383,0.336586,0.129768,0.081105,0.000000,160.000000,144.000000,16.000000,10.000000,0.000000,0.000000,0.185383,0.336586,0.129768,0.081105,0.000000,160.000000,144.000000,16.000000,10.000000,0.000000,0.000000:
0000
0000
0000
0000
,
0000
0000
0000
0000
,
0000
0000
0000
0000
,
0000
0000
0000
0000
,
0000
0000
0000
0000
,
1000
0000
1000
0000
,
0001
0000
0001
0000
,
0010
0000
0010
0000
,
0100
0000
0100
0000
,
1001
0000
0000
0000
,
0000
0000
0000
0000
,
0100
0000
0000
0000
,
0010
0000
0000
0000
,
1001
0000
0000
0000
,
1001
0000
0000
0000
,
0110
0000
1001
0000
,
0001
1000
0001
0000
,
1000
0100
0000
0100
,
0000
0010
0000
0100
,
0000
1000
0000
0010
,
0000
0100
0000
0001
,
1000
0001
0000
0100
,
0000
0010
0000
1000
,
0000
0001
0000
1000
,
0000
0010
0000
0100
,
0001
0001
1000
0000
,
0100
0100
0010
0000
,
0001
0100
1000
0000
,
1000
0100
0001
0000
,
0010
0010
0100
0000
,
0001
0001
0100
0000
,
0010
0001
0100
0000
,
0100
0001
0010
0000
,
1002
0000
0000
0000
,
0000
0000
0000
0000
,
0203
0000
0000
0000
,
0000
0000
0000
0000
,
0320
0000
0000
0000
,
0000
0000
0000
0000
,
2030
0000
0000
0000
,
0000
0000
0000
3000
,
1002
0000
0000
0000
,
0000
0000
0000
0000
,
0023
0000
0000
0000
,
0000
0000
0000
0000
,
0230
0000
0000
0000
,
0000
0000
0000
0000
,
2300
0000
0000
0000
,
0000
0000
0000
3000
,
0001
0000
0000
0001
,
0000
0000
1000
0000
,
0000
0010
0000
0000
,
1000
0000
0000
0001
,
1000
0000
0000
0000
,
0001
0000
0000
0000
,
0100
0000
0000
0000
,
0010
0000
0100
0000
,
1001
0000
0000
0000
,
0000
0000
0000
0000
,
0110
0000
0000
0000
,
0000
0000
0000
0000
,
1010
0000
0000
0000
,
0000
0000
0000
0000
,
0001
1000
0001
0100
,
1000
0100
0001
0000
,
1001
0000
1000
1000
,
0010
0000
1000
0001
,
0101
0000
0001
0001
,
0010
0000
0100
1000
,
1010
0000
0100
0100
,
0010
0000
0100
0010
,
1001
0000
0001
0010
,
0100
1000
0100
0010
,
1001
0000
0001
0001
,
0100
1000
0100
0001
,
0010
0000
0001
0100
,
0001
0010
1000
0010
,
0001
0000
1000
0010
,
0100
1000
0100
0001
,
1000
0100
0001
0100
,
1000
0010
0100
0001
,
2002
0000
0000
0000
,
0000
0000
0000
0000
,
3003
0000
0000
0000
;

//---------------dance-single - ----------------
#NOTES:
     dance-single:
     :
     Beginner:
     2:
     0.093850,0.201951,0.040552,0.089215,0.000000,81.000000,76.000000,5.000000,11.000000,0.000000,0.000000,0.093850,0.201951,0.040552,0.089215,0.000000,81.000000,76.000000,5.000000,11.000000,0.000000,0.000000:
0000
0000
0000
0000
,
0000
0000
0000
0000
,
0000
0000
0000
0000
,
0000
0000
0000
0000
,
0000
0000
0000
0000
,
0001
0000
0000
0000
,
0001
0000
0000
0000
,
1000
0000
0000
0000
,
1000
0000
0000
0000
,
0100
0000
0000
0000
,
0000
0000
0000
0000
,
0100
0000
0000
0000
,
0000
0000
0000
0000
,
0010
0000
0000
0000
,
0010
0000
0000
0000
,
0010
0000
0010
0000
,
0010
0000
0000
0000
,
0001
0000
0000
0000
,
1000
0000
0000
0000
,
0010
0000
0000
0000
,
1000
0000
0000
0000
,
0010
0000
0000
0000
,
0100
0000
0000
0000
,
0010
0000
0000
0000
,
1000
0000
0000
0000
,
0001
0000
0000
0000
,
0001
0000
0000
0000
,
1000
0000
0000
0000
,
1000
0000
0000
0000
,
0010
0000
0000
0000
,
0010
0000
0000
0000
,
0100
0000
0000
0000
,
0010
0000
0000
0000
,
1002
0000
0000
0000
,
0000
0000
0000
0000
,
0203
0000
0000
0000
,
0000
0000
0000
0000
,
0320
0000
0000
0000
,
0000
0000
0000
0000
,
2030
0000
0000
0000
,
0000
0000
0000
0000
,
3002
0000
0000
0000
,
0000
0000
0000
0000
,
0023
0000
0000
0000
,
0000
0000
0000
0000
,
0032
0000
0000
0000
,
0000
0000
0000
0000
,
2003
0000
0000
0000
,
0000
0000
0000
0000
,
3010
0000
0000
0000
,
0000
0000
0000
0000
,
0000
0000
0000
0000
,
0000
0000
0000
0000
,
0100
0000
0000
0000
,
0000
0000
0000
0000
,
0010
0000
0000
0000
,
0100
0000
0000
0000
,
1001
0000
0000
0000
,
0000
0000
0000
0000
,
0110
0000
0000
0000
,
0000
0000
0000
0000
,
1100
0000
0000
0000
,
0000
0000
0000
0000
,
0002
0000
0000
0000
,
0000
0000
0000
0000
,
1003
0000
1000
0000
,
0010
0000
0000
0100
,
0100
0000
0001
0000
,
0001
0000
0000
1000
,
1000
0000
0010
0000
,
0010
0000
0000
0100
,
0100
0000
0010
0000
,
1000
0000
0001
0000
,
0010
0000
0100
0000
,
1000
0000
1000
0000
,
0010
0000
0100
0000
,
0001
0000
0001
0000
,
1000
0000
0010
0000
,
0100
0000
0100
0000
,
0001
0000
0010
0000
,
0100
0000
1000
0000
,
2002
0000
0000
0000
,
0000
0000
0000
0000
,
3003
0000
0000
0000
;

//---------------dance-double - ----------------
#NOTES:
     dance-double:
     :
     Easy:
     6:
     0.194652,0.336586,0.162210,0.129768,0.000000,168.000000,148.000000,20.000000,16.000000,0.000000,0.000000,0.194652,0.336586,0.162210,0.129768,0.000000,168.000000,148.000000,20.000000,16.000000,0.000000,0.000000:
00000000
00000000
00000000
00000000
,
00000000
00000000
00000000
00000000
,
00000000
00000000
00000000
00000000
,
00000000
00000000
00000000
00000000
,
00000000
00000000
00000000
00000000
,
00001000
00000000
00100000
00000000
,
01000000
00000000
10000000
00000000
,
10000000
00000000
00100000
00000000
,
01000000
00000000
00001000
00000000
,
00011000
00000000
00000000
00000000
,
00000000
00000000
00000000
00000000
,
00010000
00000000
00000000
00000000
,
00000000
00000000
00000000
00000000
,
00010100
00000000
00000000
00000000
,
00110000
00000000
00000000
00000000
,
00010100
00000000
00001100
00000000
,
00000010
00000001
00001000
00000000
,
00000001
00001000
00000000
00001000
,
00000000
00001000
00000000
00000100
,
00010000
01000000
00000000
01000000
,
00000000
01000000
00000000
01000000
,
00010000
00001000
00000000
00001000
,
00000000
00001000
00000000
00001000
,
00100000
01000000
00000000
01000000
,
00000000
01000000
00000000
10000000
,
00100000
01000000
00010000
00000000
,
00100000
00010000
00001000
00000000
,
00000010
00001000
00000100
00000000
,
00010000
00001000
00010000
00000000
,
00100000
10000000
00010000
00000000
,
01000000
00100000
01000000
00000000
,
00100000
00010000
00001000
00000000
,
00010000
00000100
00000010
00000000
,
00001002
00000000
00000000
00000000
,
00000000
00000000
00000000
00000000
,
00000023
00000000
00000000
00000000
,
00000000
00000000
00000000
00000000
,
00000230
00000000
00000000
00000000
,
00000000
00000000
00000000
00000000
,
00002300
00000000
00000000
00000000
,
00000000
00000000
00000000
00000000
,
00023000
00000000
00000000
00000000
,
00000000
00000000
00000000
00000000
,
02030000
00000000
00000000
00000000
,
00000000
00000000
00000000
00000000
,
03002000
00000000
00000000
00000000
,
00000000
00000000
00000000
00000000
,
00003020
00000000
00000000
00000000
,
00000000
00000000
00000000
00000030
,
00001001
00000000
00000000
00000000
,
00000001
00000000
00000001
00000000
,
00001000
00000000
00000100
00000000
,
00010000
00000000
00010000
00000000
,
01000000
00000000
00100000
00000000
,
00001000
00000000
00000000
00000000
00001000
00000000
00000000
00010000
,
00001000
00000000
00001000
00000000
,
00010000
00000000
01000000
00000000
,
20020000
00000000
00000000
00000000
,
30030000
00000000
00000000
00000000
,
02200000
00000000
00000000
00000000
,
03300000
00000000
00000000
00000000
,
02020000
00000000
00000000
00000000
,
03030000
00000000
00000000
00000000
,
00011000
00001000
00010000
00000000
,
00001000
00100000
01000000
10000000
,
10010000
00000000
00100000
00010000
,
00001000
00000000
00100000
01000000
,
11000000
00000000
10000000
00010000
,
00100000
00000000
00010000
00001000
,
00001100
00000000
00000001
00000100
,
00001000
00000000
00010000
00000100
,
00000110
00000000
00000001
00001000
,
00000100
00010000
00001000
00100000
,
01100000
00000000
00010000
01000000
,
10000000
10000000
11000000
01000000
,
00010000
00000000
00001000
00000100
,
00000001
00000001
00000001
00000011
,
00001000
00000000
00001000
00010000
,
01000000
10000000
00100000
00010000
,
01010000
00000000
00100000
00100000
,
00001000
00000000
00010000
00000100
,
00022000
00000000
00000000
00000000
,
00000000
00000000
00000000
00000000
,
00033000
00000000
00000000
00000000
;

//---------------dance-double - ----------------
#NOTES:
     dance-double:
     :
     Medium:
     10:
     0.364972,0.572196,0.283867,0.097326,0.000000,315.000000,280.000000,35.000000,12.000000,0.000000,0.000000,0.364972,0.572196,0.283867,0.097326,0.000000,315.000000,280.000000,35.000000,12.000000,0.000000,0.000000:
  // measure 0
00000000
00000000
00000000
00000000
,  // measure 1
00000000
00000000
00000000
00000000
,  // measure 2
00000000
00000000
00000000
00000000
,  // measure 3
00000000
00000000
00000000
00000000
,  // measure 4
00000000
00000000
00000000
00000000
,  // measure 5
00010000
00001000
00010000
00100000
,  // measure 6
01000000
00000000
01000000
00010000
,  // measure 7
00001000
00000100
00001000
00000001
,  // measure 8
00000010
00000000
00000010
00000100
,  // measure 9
00011000
00000000
00000000
00000000
,  // measure 10
00001000
00000000
00000000
00000000
,  // measure 11
00010000
00000000
00000000
00000000
,  // measure 12
00010000
00000000
00000000
00000000
,  // measure 13
00101000
00000000
00000000
00000000
,  // measure 14
00010100
00000000
00000000
00000000
,  // measure 15
00101000
00000000
00010100
00000000
,  // measure 16
00001000
00000000
00000010
00000000
00000100
00000001
00000100
00000000
,  // measure 17
00000010
00001100
00000000
00011000
,  // measure 18
00100000
01100000
00000000
11000000
,  // measure 19
00100000
00110000
00000000
00011000
,  // measure 20
00000100
00000110
00000000
00000011
,  // measure 21
00001000
00001010
00000000
00001100
,  // measure 22
00010000
00101000
00000000
00110000
,  // measure 23
10000000
11000000
00000000
11000000
,  // measure 24
00010000
01001000
00000000
00011000
,  // measure 25
00000100
00000000
00000010
00000000
00000001
00000010
00000100
00000000
,  // measure 26
00001000
00000000
00010000
00000000
01000000
00100000
01000000
00000000
,  // measure 27
00100000
00000000
10000000
00000000
00010000
00100000
00010000
00000000
,  // measure 28
00001000
00000000
00000100
00000000
00000010
00000001
00001000
00000000
,  // measure 29
00000100
00000000
00010000
00000000
00100000
01000000
00100000
00000000
,  // measure 30
00010000
00000000
00001000
00000000
00000100
00000010
00000100
00000000
,  // measure 31
00000001
00000000
00000010
00000000
00001000
00010000
00001000
00000000
,  // measure 32
01000000
00000000
00100000
00000000
00010000
00001000
00010000
00000000
,  // measure 33
00012000
00000000
00000000
00000000
,  // measure 34
00000000
00000000
00000000
00000000
,  // measure 35
00203000
00000000
00000000
00000000
,  // measure 36
00000000
00000000
00000000
00000000
,  // measure 37
00320000
00000000
00000000
00000000
,  // measure 38
00000000
00000000
00000000
00000000
,  // measure 39
20030000
00000000
00000000
00000000
,  // measure 40
00000000
00000000
00000000
30000000
,  // measure 41
10010000
00000000
00000000
00010000
00000000
00010000
00000000
00001000
,  // measure 42
00000000
00010000
00000000
01000000
00000000
00100000
00000000
00010000
,  // measure 43
00000000
00000100
00000000
00000100
00000000
00000010
00000000
00000010
,  // measure 44
00000000
00001000
00000000
00010000
00000000
00000100
00000000
00010000
,  // measure 45
00000000
01000000
00000000
10000000
00000000
00010000
00000000
10000000
,  // measure 46
00000000
01000000
00000000
00010000
00000000
00001000
00000000
00010000
,  // measure 47
00000000
00000100
00000000
00000001
00000000
00000100
00000000
00001000
,  // measure 48
00000000
00000100
00000000
00010000
00000000
00001000
00001000
00100000
,  // measure 49
01000000
10000000
00100000
00010000
,  // measure 50
00000100
00000010
00001000
00010000
,  // measure 51
01000000
00010000
00001000
00000100
,  // measure 52
00000001
00000000
00000010
00000000
00001000
00000000
00010000
00001000
,  // measure 53
00000000
01000000
00100000
00010000
,  // measure 54
00100000
10000000
01000000
00100000
,  // measure 55
00001000
00000010
00000100
00000010
,  // measure 56
00000001
00000000
00001000
00000000
00000010
00000100
00000001
00000000
,  // measure 57
00002002
00000000
00000000
00000000
,  // measure 58
00003003
00000000
00000000
00000000
,  // measure 59
00002200
00000000
00000000
00000000
,  // measure 60
00003300
00000000
00000000
00000000
,  // measure 61
00022000
00000000
00000000
00000000
,  // measure 62
00033000
00000000
00000000
00000000
,  // measure 63
00001000
00010000
00001000
00010000
00100000
01000000
00100000
00000000
,  // measure 64
10000000
01000000
00100000
10010000
,  // measure 65
01100000
00000000
00010000
00100000
01000000
10000000
00100000
01000000
,  // measure 66
00010000
00100000
00010000
00101000
,  // measure 67
00001100
00000000
00000100
00000010
00000001
00000010
00000100
00001000
,  // measure 68
00010000
00100000
00010000
00101000
,  // measure 69
01100000
00000000
00010000
10000000
00100000
01000000
00010000
00100000
,  // measure 70
10000000
00100000
00001000
00010100
,  // measure 71
00101000
00000000
00010000
00001000
00000100
00001000
00000010
00000100
,  // measure 72
00000001
00000010
00001000
00000010
00000100
00001000
00000010
00010000
,  // measure 73
00001000
00000000
00100000
00000000
01000000
10000000
00100000
01000000
,  // measure 74
00010000
01000000
00000000
01000000
10000000
01000000
00010000
00000000
,  // measure 75
00100000
00001000
00010000
00000100
00000010
00000001
00001000
00000010
,  // measure 76
00000001
00000010
00000000
00000010
00000100
00000001
00000010
00001000
,  // measure 77
00010000
00001000
00010000
00100000
01000000
00010000
00100000
01000000
,  // measure 78
00100000
00001000
00000000
00001000
00010000
00001000
00010000
00100000
,  // measure 79
01000000
00000000
01000000
00100000
10000000
01000000
00100000
00001000
,  // measure 80
00010000
00000000
00010000
00000001
00000010
00001000
00010000
00000100
,  // measure 81
00022000
00000000
00000000
00000000
,  // measure 82
00000000
00000000
00000000
00000000
,  // measure 83
00033000
00000000
00000000
00000000
;

//---------------dance-double - ----------------
#NOTES:
     dance-double:
     :
     Hard:
     15:
     0.651157,1.110733,0.275757,0.081105,0.734000,562.000000,528.000000,34.000000,10.000000,0.000000,0.000000,0.651157,1.110733,0.275757,0.081105,0.734000,562.000000,528.000000,34.000000,10.000000,0.000000,0.000000:
  // measure 0
00000000
00000000
00000000
00000000
,  // measure 1
00000000
00000000
00000000
00000000
,  // measure 2
00000000
00000000
00000000
00000000
,  // measure 3
00000000
00000000
00000000
00000000
,  // measure 4
00000000
00000000
00000000
00000000
,  // measure 5
00011000
00000000
00010000
00000000
00100000
10000000
01000000
00000000
,  // measure 6
00100000
00000000
00010000
00000000
01000000
00100000
01000000
00000000
,  // measure 7
00010000
00000000
00000100
00000000
00000010
00000100
00000001
00000000
,  // measure 8
00000010
00000000
00000100
00000000
00000010
00000100
00010000
00000000
,  // measure 9
00011000
00000000
00001000
00001000
,  // measure 10
00000000
00000000
00010000
00010000
,  // measure 11
00000000
00000000
00000100
00000100
,  // measure 12
00000000
00000000
00000010
00000010
,  // measure 13
00001001
00000000
00010000
00010000
,  // measure 14
00011000
00000000
10000000
10000000
,  // measure 15
10010000
00000000
11000000
00000000
,  // measure 16
00110000
00000000
00100000
00000000
00001000
00000000
00010000
00000000
00000100
00001000
00000100
00000010
00000001
00000000
00000000
00000000
,  // measure 17
00001000
00000000
00001001
00000000
00000000
00000010
00001010
00000000
,  // measure 18
00010000
00000000
00101000
00000000
00000000
00010000
00110000
00000000
,  // measure 19
10000000
00000000
11000000
00000000
00000000
00010000
01001000
00000000
,  // measure 20
00010000
00000000
00010100
00000000
00000000
00000010
00000110
00000000
,  // measure 21
00010000
00000000
00011000
00000000
00000000
00010000
01100000
00000000
,  // measure 22
10000000
00000000
00110000
00000000
00000000
00100000
00011000
00000000
,  // measure 23
00000100
00000000
00000011
00000000
00000000
00000001
00000011
00000000
,  // measure 24
00001000
00000000
00001100
00000000
00000000
00000100
00001100
00000000
,  // measure 25
00001000
00000000
00010000
00000000
00100000
00000000
01000000
10000000
00000000
00000000
00100000
00000000
00010000
00000000
00001000
00000000
,  // measure 26
00010000
00000000
00000100
00000000
00000010
00000000
00000001
00000010
00000000
00000000
00001000
00000000
00000010
00000000
00000001
00000000
,  // measure 27
00000100
00000000
00001000
00000000
00010000
00000000
00000100
00010000
00000000
00000000
00001000
00000000
00010000
00000000
01000000
00000000
,  // measure 28
10000000
00000000
00010000
00000000
00100000
00000000
00010000
00100000
00000000
00000000
00001000
00000000
00010000
00000000
00000010
00000000
,  // measure 29
00000100
00000000
00000001
00000000
00000010
00000000
00000100
00001000
00000010
00000000
00000100
00000000
00001000
00000000
00000000
00000000
,  // measure 30
00010000
00000000
00100000
00000000
01000000
00000000
00010000
00100000
10000000
00000000
00100000
00000000
00010000
00000000
00000000
00000000
,  // measure 31
01000000
00000000
00100000
00000000
10000000
00000000
00010000
00100000
01000000
00000000
00100000
00000000
00001000
00000000
00010000
00000000
,  // measure 32
00000100
00000000
00000010
00000000
00001000
00000000
00010000
00100000
00010000
00000000
00001000
00000000
00010000
00000000
00000100
00000000
,  // measure 33
00001200
00000000
00000000
00000000
,  // measure 34
00000000
00000000
00000000
00000000
,  // measure 35
00020300
00000000
00000000
00000000
,  // measure 36
00000000
00000000
00000000
00000000
,  // measure 37
00230000
00000000
00000000
00000000
,  // measure 38
00000000
00000000
00000000
00000000
,  // measure 39
20300000
00000000
00000000
00000000
,  // measure 40
00000000
00000000
00000000
30000000
,  // measure 41
10010000
00000000
00000000
00000000
00000000
00000000
00010000
01000000
00000000
00000000
00001000
00100000
00000000
00000000
00000100
00010000
,  // measure 42
00000000
00000000
00001000
00010000
00000000
00000000
00000100
00000010
00000000
00000000
00000001
00000010
00000000
00000000
00000100
00000010
,  // measure 43
00000000
00000000
00001000
00010000
00000000
00000000
00100000
01000000
00000000
00000000
00010000
00100000
00000000
00000000
10000000
01000000
,  // measure 44
00000000
00000000
00010000
01000000
00000000
00000000
10000000
00100000
00000000
00000000
00010000
00000000
00001000
00000000
00010000
00000000
,  // measure 45
00000100
00000000
00001000
00000001
00000000
00000000
00000010
00000100
00000000
00000000
00001000
00000100
00000000
00000000
00010000
00001000
,  // measure 46
00000000
00000000
00100000
01000000
00000000
00000000
10000000
00100000
00000000
00000000
01000000
00010000
00000000
00000000
00100000
00001000
,  // measure 47
00000000
00000000
00010000
00000100
00000000
00000000
00000100
00000010
00000000
00000000
00000010
00001000
00000000
00000000
00001000
00010000
,  // measure 48
00000000
00000000
00010000
01000000
00000000
00000000
01000000
10000000
00000000
00000000
10000000
00010000
00000000
00000000
00010000
00100000
,  // measure 49
01000000
10000000
00100000
01000000
00010000
00100000
01000000
00100000
00010000
00100000
00001000
00010000
,  // measure 50
00000100
00000010
00000100
00000010
00000001
00000010
00000100
00001000
00010000
00100000
01000000
00100000
,  // measure 51
00010000
01000000
00100000
01000000
00010000
00100000
01000000
00100000
00010000
01000000
00001000
00010000
,  // measure 52
00000100
00001000
00000010
00000100
00000001
00000010
00000100
00001000
00000010
00000100
00000010
00000100
,  // measure 53
00000000
00000010
00001000
00000100
00000010
00000100
00001000
00010000
00100000
01000000
00100000
00010000
,  // measure 54
00100000
00001000
00010000
00001000
00010000
00000100
00010000
00001000
00100000
00010000
00100000
01000000
,  // measure 55
00000000
10000000
01000000
10000000
01000000
10000000
00100000
01000000
00010000
00100000
00010000
00100000
,  // measure 56
00001000
00010000
00000100
00001000
00000010
00001000
00000001
00000010
00000100
00001000
00010000
00100000
,  // measure 57
02000000
00000000
00000000
00000000
,  // measure 58
03000000
00000000
00000000
00100000
,  // measure 59
00022000
00000000
00000000
00000000
,  // measure 60
00033000
00000000
00000000
00000100
,  // measure 61
00002020
00000000
00000000
00000000
,  // measure 62
00003030
00000000
00000000
00000001
,  // measure 63
00001001
00000001
00000010
00001000
00010000
00000100
00010000
00001000
,  // measure 64
00100000
00000000
00010000
00000000
00100000
00000000
01000000
00000000
10000000
00010000
01000000
00100000
10000000
01000000
00100000
00010000
,  // measure 65
00100000
00000000
00000000
00000000
00100000
00000000
00010000
10000000
00100000
01000000
00010000
00100000
01000000
00100000
00010000
00100000
,  // measure 66
00001000
00010000
00000100
00000010
00000001
00001000
00001100
00000000
,  // measure 67
00000101
00000000
00000001
00000000
00000010
00000000
00000100
00001000
00000010
00000100
00001000
00010000
00001000
00100000
00001000
00010000
,  // measure 68
00000100
00001000
00010000
00100000
01000000
10000000
10010000
00000000
,  // measure 69
01100000
00000000
00100000
00000000
01000000
00000000
00010000
00100000
01000000
00100000
00010000
00100000
00001000
00010000
00000100
00001000
,  // measure 70
00000010
00000100
00000001
00000010
00000100
00001000
00001100
00000000
,  // measure 71
00000101
00000000
00000000
00000000
00000001
00000000
00000010
00000100
00001000
00000010
00000100
00001000
00010000
00001000
00010000
00001000
,  // measure 72
01000000
00000000
00010000
10000000
00100000
10000000
01000000
00100000
00010000
00100000
10000000
00100000
00010000
00100000
00001000
00010000
,  // measure 73
00000100
00000000
00000000
00000000
00001000
00000000
00000010
00000100
00000001
00000010
00000100
00001000
00000001
00000100
00000010
00000100
,  // measure 74
00000001
00000000
00000010
00001000
00010000
00000000
00100000
10000000
01000000
00000000
00100000
00010000
00100000
00001000
00010000
00000100
,  // measure 75
00001000
00000000
00000010
00000000
00000100
00000000
00000001
00000010
00000100
00000010
00000001
00001000
00000010
00000100
00000001
00000100
,  // measure 76
00000010
00000000
00001000
00010000
00100000
00000000
01000000
10000000
00100000
00000000
00010000
00001000
00010000
00000100
00001000
00000010
,  // measure 77
00000100
00000000
00000001
00000000
00000010
00000100
00001000
00000001
00000100
00000010
00001000
00000100
00000010
00001000
00010000
00001000
,  // measure 78
00010000
00000000
00100000
00010000
00100000
00000000
01000000
10000000
01000000
00000000
00100000
00010000
00100000
10000000
00010000
01000000
,  // measure 79
00100000
01000000
00100000
01000000
00010000
00100000
00010000
00100000
00001000
00010000
00001000
00010000
00000100
00001000
00000100
00001000
,  // measure 80
00000010
00000100
00000001
00000010
00000100
00001000
00000010
00000100
00001000
00010000
00001000
00100000
00010000
00100000
01000000
10000000
,  // measure 81
00200000
00000000
00000000
00000000
,  // measure 82
00000000
00000000
00000000
00000000
,  // measure 83
00300000
00000000
00000000
00000000
;
