#TITLE:王位継承;
#SUBTITLE:;
#ARTIST:しらいし;
#TITLETRANSLIT:Ouikeisyou;
#SUBTITLETRANSLIT:;
#ARTISTTRANSLIT:shiraishi;
#GENRE:;
#CREDIT:;
#BANNER:;
#BACKGROUND:Ouikeisyou-bg.png;
#LYRICSPATH:;
#CDTITLE:;
#MUSIC:Ouikeisyou.mp3;
#OFFSET:1.304999;
#SAMPLESTART:88.088814;
#SAMPLELENGTH:15.000000;
#LASTBEATHINT:0.699455;
#SELECTABLE:YES;
#BPMS:0.000000=153.000000
;
#STOPS:
;
#BGCHANGES:;
#KEYSOUNDS:;
#ATTACKS:;

//---------------dance-single - ----------------
#NOTES:
     dance-single:
     :
     Beginner:
     2:
     0.164013,0.250748,0.014087,0.154957,0.000000,163.000000,161.000000,2.000000,22.000000,0.000000,0.000000,0.164013,0.250748,0.014087,0.154957,0.000000,163.000000,161.000000,2.000000,22.000000,0.000000,0.000000:
0000
0000
0000
0000
,
1000
0000
1000
0000
,
0001
0000
0001
0000
,
1000
0000
1000
0000
,
0001
0000
1000
0000
,
0010
0000
0010
0000
,
0100
0000
0100
0000
,
0010
0000
0010
0000
,
0200
0000
0000
0000
,
0301
0000
0001
0000
,
1000
0000
1000
0000
,
0010
0000
0100
0000
,
0010
0000
1000
0000
,
0001
0000
0001
0000
,
0100
0000
0100
0000
,
0001
0000
1000
0000
,
0001
0000
0001
0000
,
1000
0000
0001
0000
,
0100
0000
0001
0000
,
1000
0000
0001
0000
,
0010
0000
0001
0000
,
1000
0000
0001
0000
,
1000
0000
0100
0000
,
1000
0000
0010
0000
,
0200
0000
0000
0000
,
0310
0000
1000
0000
,
0010
0000
1000
0000
,
0001
0000
1000
0000
,
0100
0000
1000
0000
,
0010
0000
0100
0000
,
0001
0000
0100
0000
,
0010
0000
1000
0000
,
0002
0000
0000
0000
,
0103
0000
0000
0000
,
0100
0000
0010
0000
,
0010
0000
0000
0000
,
1000
0000
0001
0000
,
0001
0000
0000
0000
,
1000
0000
0010
0000
,
0010
0000
0000
0000
,
2000
0000
0000
0000
,
3001
0000
0001
0000
,
0100
0000
0010
0000
,
1000
0000
0010
0000
,
0100
0000
0100
0000
,
0001
0000
1000
0000
,
0010
0000
1000
0000
,
0001
0000
0001
0000
,
0100
0000
0010
0000
,
1000
0000
0001
0000
,
1000
0000
0001
0000
,
0100
0000
0010
0000
,
1000
0000
0010
0000
,
1000
0000
0100
0000
,
1000
0000
0001
0000
,
0010
0000
0100
0000
,
0010
0000
0001
0000
,
2000
0000
3000
0000
,
0002
0000
0003
0000
,
0200
0300
0020
0030
,
1000
0000
0002
0003
,
0200
0000
0300
0000
,
0020
0000
0030
0000
,
2000
3000
0002
0003
,
0100
0000
0020
0030
,
0200
0000
0300
0000
,
0002
0000
0003
0000
,
2000
3000
0002
0003
,
1000
0000
0020
0030
,
0200
0000
0300
0000
,
0020
0000
0030
0000
,
1001
0000
1001
0000
,
0001
0001
0001
0000
,
0100
0000
0010
0000
,
1000
0000
0001
0000
,
0010
0000
0100
0000
,
0010
0000
0001
0000
,
1000
0000
0001
0000
,
0100
0000
0001
0000
,
1000
0000
1000
0000
,
0020
0000
0000
0000
,
1030
0000
0100
0000
,
0010
0000
0001
0000
,
0001
0000
0010
0000
,
0100
0000
1000
0000
,
0001
0000
0001
0000
,
1000
0000
1000
0000
,
0001
0000
0001
0000
,
1000
0000
0010
0000
,
0100
0000
0000
0000
;

//---------------dance-single - ----------------
#NOTES:
     dance-single:
     :
     Easy:
     8:
     0.319976,0.406894,0.070435,0.267653,0.000000,318.000000,308.000000,10.000000,38.000000,0.000000,0.000000,0.319976,0.406894,0.070435,0.267653,0.000000,318.000000,308.000000,10.000000,38.000000,0.000000,0.000000:
0000
0000
0000
0000
,
1000
0000
1000
0000
,
0001
0001
0001
0000
,
0010
0000
0010
0000
,
0001
1000
0001
0000
,
0100
0000
0100
0000
,
0010
0010
0010
0000
,
1000
0000
1000
0000
,
2002
0000
0003
0000
,
3010
0100
0001
0100
,
0010
1000
0010
0100
,
0001
0010
0100
1000
,
0010
0100
0001
0100
,
0010
1000
0100
0010
,
0100
1000
0010
0100
,
0001
0010
0100
1000
,
0001
0001
1000
1000
,
0010
1000
0100
0010
,
0001
1000
0100
1000
,
0001
0010
0100
1000
,
0010
0100
0001
0100
,
0001
1000
0100
0010
,
0001
1000
0100
1000
,
0001
0100
0010
1000
,
0001
0010
0100
1000
,
0001
0100
0001
0010
,
0100
1000
0100
0010
,
0001
1000
0100
0010
,
0001
0100
0010
1000
,
0010
0100
0001
1000
,
0001
0010
0100
1000
,
0001
0100
0010
1000
,
0001
0010
0100
1000
,
0020
0000
2030
0000
,
3200
0000
0320
0000
,
0032
0000
2003
0000
,
3020
0000
0230
0000
,
0302
0000
0023
0000
,
0230
0000
2300
0000
,
3020
0000
0230
0000
,
0302
0000
0000
0000
,
1003
0100
1000
0100
,
0010
0001
0100
0010
,
1000
0001
1000
0010
,
0100
0001
0010
0100
,
1000
0010
1000
0100
,
0010
0001
1000
0001
,
0100
0010
1000
0100
,
0010
0001
0100
0010
,
1000
0001
1000
0001
,
0100
0010
0100
0010
,
1000
0100
1000
0100
,
0010
0001
0010
0001
,
0100
0010
1000
0010
,
0100
0001
0100
0010
,
1000
0100
1000
0001
,
0010
0100
1000
0001
,
0200
0000
0310
1000
,
0002
0000
0013
0100
,
2000
3010
0002
0103
,
0010
1000
2002
3003
,
0002
0000
0103
0010
,
2000
0000
3100
0010
,
0002
0103
2000
3010
,
0100
0001
2002
3003
,
0200
0000
0301
1000
,
0200
0000
1300
0001
,
0020
0130
2000
3100
,
0010
0000
0001
0000
0202
0000
0303
1000
,
0002
0000
0103
0010
,
2000
0000
0000
0000
3010
0000
0100
0001
,
1000
0000
1001
0000
,
0110
0000
1000
0001
1000
0000
0000
0000
,
0001
0010
0100
1000
,
0001
0100
0010
1000
,
0100
0010
0001
0010
,
0100
1000
0001
0100
,
0010
1000
0001
0010
,
0001
0100
0010
1000
,
1001
1001
0101
0101
,
0020
0000
0000
0000
,
1030
0001
0100
1000
,
0100
0001
0100
0001
,
0010
0100
1000
0100
,
0001
0100
1000
0100
,
0010
0001
1000
0001
,
0010
0100
1000
0100
,
0010
0001
1000
0100
,
0010
0000
0100
0000
1000
0000
0010
0100
;

//---------------dance-single - ----------------
#NOTES:
     dance-single:
     :
     Medium:
     12:
     0.548386,0.595109,0.697306,0.147913,0.045783,545.000000,446.000000,99.000000,21.000000,0.000000,0.000000,0.548386,0.595109,0.697306,0.147913,0.045783,545.000000,446.000000,99.000000,21.000000,0.000000,0.000000:
0000
0000
0000
0000
,
1000
1000
0001
0001
,
0100
0000
0000
0100
0010
0100
0020
0000
0000
2030
0000
0000
,
3001
0000
0010
0000
0001
0000
0010
0100
,
2000
3020
0230
0000
,
0301
1000
0001
1000
,
0100
0000
0000
1000
0001
0100
0020
0000
0000
2030
0000
0000
,
3100
0010
0001
0100
,
0020
0000
0000
0000
,
1030
1010
1000
1010
,
0001
0101
0001
0101
,
0010
1100
0010
0101
,
0010
1001
0100
1001
,
0010
0011
0010
0011
,
0100
1100
0100
1100
,
0010
1001
0100
1001
,
0110
0101
1001
0011
,
0100
1010
0100
1010
,
0100
0011
0100
0011
,
0100
1001
0010
1001
,
0100
1010
0100
0011
,
0100
1001
0010
1001
,
0100
1001
0010
1100
,
0010
1001
0100
0011
,
1100
0101
1001
0110
,
0001
1100
0010
0101
,
0001
1001
1000
1100
,
0010
0101
1000
1001
,
0001
0110
1000
0110
,
0001
0011
1000
1100
,
0001
1001
0100
0110
,
0001
1100
0010
0101
,
1001
1100
0101
1010
,
0001
0010
0100
1000
,
0001
0000
0000
0000
0000
0000
1000
0000
0001
0000
1000
0000
0001
0000
0000
0000
0000
0000
0010
0000
0000
1000
0000
0000
,
0010
0001
0100
0010
,
1000
0100
0020
0000
,
0031
1000
0100
1000
,
0001
0000
0000
0000
0000
0000
0100
0000
0010
0000
0100
0000
0010
0000
0000
0000
0000
0000
1000
0000
0000
0001
0000
0000
,
0010
0100
0010
0100
,
2000
0000
0000
0001
0002
0000
3003
0000
,
1000
1001
0010
0101
,
0010
0000
0000
0000
0000
0000
0001
0000
1000
0000
0100
0000
1000
0000
0000
0000
0000
0000
0001
0000
0000
0100
0000
0000
,
0010
0110
0001
1100
,
0010
1001
0100
0110
,
0001
0011
1000
1100
,
0010
0000
0000
0000
0000
0000
1000
0000
0001
0000
0100
0000
0010
0000
0000
0000
0000
0000
0001
0000
0000
1000
0000
0000
,
0100
1100
0010
0101
,
1000
0010
1000
0010
0100
0001
0010
0100
,
1000
0101
1000
0101
,
0001
1100
0001
1100
,
0010
0101
0010
1100
,
0001
0101
1000
1100
,
0010
0110
1000
1001
,
0001
0011
1000
1010
,
0100
0101
0001
0011
,
1010
0101
1010
0101
,
0001
0010
0001
0010
0001
0000
1000
0000
,
0010
0100
0010
0100
0010
0000
1000
0000
,
0001
0010
0001
0000
1000
0100
1000
0000
,
0101
0000
1001
0000
1000
0001
0100
0000
,
0010
1000
0010
1000
0010
0000
0100
0000
,
0001
0010
0001
0010
0001
0000
1000
0000
,
0100
0010
0100
0000
1000
0010
1000
0000
,
0011
0000
0101
0000
1000
0001
0100
0000
,
0002
0000
0000
0000
1003
0010
1000
0100
,
0020
0000
0000
0000
0031
1000
0001
0100
,
0020
0000
1030
0001
0200
0000
0301
1000
,
0010
0000
0101
0000
1002
0000
0000
1003
,
2001
0000
0000
0000
3010
1000
0100
0010
,
0002
0000
0000
0000
0013
0100
1000
0010
,
0210
0000
0310
1000
1200
0000
0310
0001
,
1001
0000
1100
0001
0101
0000
0000
0000
,
0001
0010
0100
1000
0001
0010
0100
1000
,
0010
0100
0001
1000
0010
0100
0001
1000
,
0100
0010
0001
1000
0010
0100
0001
0010
,
0100
1000
0100
0010
0100
1000
0010
0100
,
0001
0010
0001
1000
0100
0010
0100
1000
,
0010
0100
0001
1000
0100
0010
0001
0100
,
0110
0101
1001
1100
,
0012
0100
0010
0100
,
1003
0010
0100
0001
0010
0100
1000
0100
,
0001
0100
1000
0010
0100
0001
0100
0001
,
0010
0100
1000
0001
0100
0010
0100
0010
,
1000
0100
0010
0001
1000
0100
0010
0001
,
0100
0010
0100
0001
0100
0010
0100
0001
,
1000
0100
0010
0100
1000
0100
0010
0001
,
0100
0010
1000
0001
0010
0100
1000
0010
,
0100
0000
0001
0000
0010
0000
0100
0000
1000
0000
0100
0000
0010
0000
0001
1000
;

//---------------dance-single - ----------------
#NOTES:
     dance-single:
     :
     Hard:
     17:
     1.018288,1.064932,0.274696,0.331044,1.655221,1012.000000,973.000000,39.000000,47.000000,0.000000,0.000000,1.018288,1.064932,0.274696,0.331044,1.655221,1012.000000,973.000000,39.000000,47.000000,0.000000,0.000000:
0000
0000
0000
0000
,
2000
3002
2003
3002
,
0023
0000
0000
0000
0000
0000
0130
0000
1000
0000
0010
0000
0200
0000
0000
0000
0000
0000
0301
0000
0000
0010
0000
0000
,
0200
0000
2300
0000
3020
0000
0130
0010
,
2000
3002
0023
0000
,
0032
2003
3200
0320
,
0032
0000
0000
0000
0000
0000
1003
0000
0010
0000
1000
0000
0020
0000
0000
0000
0000
0000
0130
0000
0000
0001
0000
0000
,
0020
0230
2300
3002
,
0203
0000
0000
0000
,
0310
1000
0100
0010
0001
0100
0010
1000
0001
0010
0100
1000
,
0010
0100
0001
0010
0100
1000
0010
0100
0010
1000
0100
0010
,
0001
0100
0001
0010
0100
1000
0100
0010
0100
1000
0010
0100
,
0001
0010
0001
1000
0010
0100
0001
0010
0100
1000
0100
0010
,
0001
1000
0010
0100
0001
1000
0100
0010
0001
1000
0100
1000
,
0010
0100
0001
0010
0001
1000
0100
1000
0010
0100
0001
0010
,
0001
1000
0100
0010
0100
1000
0010
0100
0001
1000
0100
0010
,
0011
0000
1100
0000
1001
0000
0110
0010
,
1000
0100
0010
0001
0100
0010
0100
0001
0010
0100
1000
0010
,
0100
0001
1000
0100
0010
0001
1000
0010
0100
0001
1000
0100
,
0010
0001
0100
0001
0010
0100
1000
0100
0010
0100
1000
0010
,
0100
0001
0010
0100
1000
0010
0100
0001
1000
0001
0010
0001
,
1000
0100
0010
0100
1000
0010
0100
0001
1000
0010
0100
0001
,
0010
0100
1000
0001
1000
0100
1000
0010
0100
0001
1000
0100
,
0010
0100
1000
0010
0100
0001
0010
0001
0010
0100
1000
0010
,
0101
0000
1001
0000
0011
0000
1100
1000
,
0010
0100
0001
0100
0001
0010
0100
1000
0010
0100
0010
1000
,
0100
0010
0001
0100
0010
1000
0001
0010
0100
1000
0010
0100
,
0001
0010
0001
1000
0100
0010
0100
1000
0010
0100
0001
1000
,
0100
0010
0001
0100
0001
0010
0100
1000
0100
0010
0100
1000
,
0010
0100
0001
1000
0010
0100
0001
0010
0100
1000
0100
0010
,
0100
1000
0001
0100
0010
1000
0001
0010
0100
1000
0010
0100
,
0001
0010
0001
0010
0100
1000
0010
0100
0010
1000
0100
0010
,
0011
0101
1010
1100
0011
1010
0101
0110
,
1002
2003
3002
2003
,
3200
0000
0000
0000
0000
0000
0310
0000
0001
0000
0100
0000
0020
0000
0000
0000
0000
0000
1030
0000
0000
0100
0000
0000
,
0020
0000
0032
0000
0203
0000
0310
0100
,
0002
2003
3200
0000
,
2300
3002
0023
0230
,
2300
0000
0000
0000
0000
0000
3001
0000
0100
0000
0001
0000
0200
0000
0000
0000
0000
0000
0310
0000
0000
1000
0000
0000
,
0200
0320
0032
2003
,
3020
0000
0000
0130
0102
0000
0000
0000
,
1003
0010
0100
0001
1000
0010
1000
0100
0010
0001
1000
0010
0100
0001
0010
0100
,
1000
0010
0100
0001
1000
0001
0100
0010
0100
0001
1000
0100
0010
0100
1000
0010
,
0100
0010
1000
0100
0010
0001
1000
0010
0100
0001
0010
0100
0010
0001
0100
0010
,
1000
0100
0010
0001
1000
0001
0010
0100
1000
0010
0100
0010
1000
0010
1000
0100
,
0010
0001
0100
0010
0100
0001
0010
0001
1000
0100
0010
0100
1000
0010
0100
0001
,
0100
0010
1000
0100
0010
0001
1000
0001
0010
0001
1000
0100
1000
0010
0100
0001
,
0100
0010
1000
0100
0010
0001
0100
0001
0010
0100
1000
0010
0100
0001
1000
0100
,
0010
0001
1000
0001
0010
0001
1000
0100
1000
0010
0100
0001
1000
0001
0100
0010
,
1000
0100
0010
0001
1000
0010
0100
0001
1000
0100
0010
0001
,
0100
1000
0100
0001
0010
0100
1000
0100
0010
0001
0010
0001
,
1000
0010
0100
0001
0010
0100
1000
0010
0100
0001
0010
0100
,
1000
0010
0100
0010
1000
0100
0010
0001
0100
0001
0010
0100
,
1000
0010
0100
0001
0010
0100
1000
0010
0100
0001
1000
0100
,
0010
0001
0100
0001
0010
0001
1000
0100
1000
0010
0100
0001
,
0010
0100
1000
0100
0010
0001
1000
0010
0100
0001
0010
0100
,
1100
0101
1001
0110
,
0001
1000
0001
1000
0001
1000
0001
1000
0001
0000
0010
0000
0100
0000
1000
0000
,
0010
0100
0010
0100
0010
0100
0010
0100
0010
0000
1000
0000
0100
0000
0010
0000
,
0001
1000
0001
1000
0001
0000
0010
0000
0100
1000
0100
1000
0100
0000
0010
0000
,
0101
0000
0000
0000
1100
0000
0000
0000
0001
1000
0001
1000
0001
0000
0000
0000
,
1000
0010
1000
0010
1000
0010
1000
0010
1000
0000
0100
0000
0010
0000
0001
0000
,
0100
0010
0100
0010
0100
0010
0100
0010
0100
0000
0001
0000
0010
0000
0100
0000
,
1000
0001
1000
0001
1000
0000
0010
0000
0100
0001
0100
0001
0100
0000
0010
0000
,
1100
0000
0000
0000
0011
0000
0000
0000
1000
0001
0100
0001
0010
0000
1001
0000
,
1000
0010
1000
0010
1000
0010
1000
0010
1000
0000
0100
0000
0010
0000
0001
0000
,
0100
0010
0100
0010
0100
0010
0100
0010
0100
0000
0001
0000
0010
0000
0100
0000
,
1000
0001
1000
0001
1000
0000
0010
0000
0100
0001
0100
0001
0100
0000
0010
0000
,
1100
0000
0000
0000
0101
0000
0000
0000
0001
0100
0010
1000
0100
0000
1001
0000
,
0010
1000
0010
1000
0010
1000
0010
1000
0010
0000
1000
0000
0100
0000
0010
0000
,
0001
0100
0001
0100
0001
0100
0001
0100
0001
0000
0010
0000
0100
0000
1010
0000
,
0001
0100
0001
0100
0001
0000
1000
0000
0100
0010
0100
0010
0100
0000
1000
0000
,
1001
0000
0110
1001
1001
0000
0000
0000
,
0001
0100
0010
1000
0100
0010
0001
0100
0010
1000
0001
0010
0100
1000
0010
0100
,
0001
0010
0001
0010
0100
1000
0010
0100
0001
0100
0001
0010
0100
1000
0010
0100
,
0001
1000
0010
0100
0010
1000
0010
1000
0100
0010
0001
0100
0010
0100
0001
0010
,
0100
1000
0010
0100
0001
1000
0100
0010
0001
0010
0001
0100
0001
0100
0010
0100
,
0010
1000
0100
0010
0001
1000
0010
0100
0001
0010
0100
1000
0010
0100
0001
0010
,
0100
1000
0100
0010
0100
1000
0010
0100
0001
0010
0100
0010
0001
0100
0010
1000
,
1100
0101
1001
0110
,
1000
0001
1000
0001
1000
0001
1000
0001
1000
0001
1000
0001
1000
1000
0001
0001
,
0100
0010
1000
0100
0010
0001
0100
0010
0100
0010
1000
0100
0010
0001
0100
0010
,
1000
0100
1000
0100
1000
0001
1000
0010
0100
0001
0010
1000
0010
0001
0100
0010
,
1000
0100
1000
0010
1000
0100
1000
0010
0100
0001
0010
0100
1000
0010
0100
0001
,
0010
0100
1000
0100
0010
0100
1000
0010
0100
0001
0010
0100
0010
0001
1000
0001
,
1000
0010
0100
0001
0100
0001
0010
0100
1000
0010
1000
0010
1000
0100
0010
0001
,
1000
0010
0100
0001
0100
0001
0010
0100
0010
0100
1000
0100
0010
0001
0100
0010
,
1000
0010
0100
0001
1000
0100
0010
0001
1000
0010
0100
0001
0010
0100
1000
0010
,
0100
0001
0010
1000
0010
0100
1000
0010
0001
0010
1000
0100
0010
0001
0100
0100
;

//---------------dance-double - ----------------
#NOTES:
     dance-double:
     :
     Easy:
     8:
     0.311926,0.344295,0.049304,0.267653,0.000000,310.000000,303.000000,7.000000,38.000000,0.000000,0.000000,0.311926,0.344295,0.049304,0.267653,0.000000,310.000000,303.000000,7.000000,38.000000,0.000000,0.000000:
00000000
00000000
00000000
00000000
,
00000001
00000000
00001000
00000000
,
00000100
00000010
00000100
00000000
,
00010000
00000000
00001000
00000000
,
00010000
00100000
10000000
00000000
,
00010000
00000000
10000000
00000000
,
00100000
01000000
00100000
00000000
,
01000000
00000000
00001000
00000000
,
00022000
00000000
00000000
00033000
,
00001000
00010000
00001000
00010000
,
00100000
10000000
01000000
00100000
,
00001000
00010000
00000100
00010000
,
00001000
00000100
00000001
00000010
,
00000100
00010000
00000100
00001000
,
00010000
00100000
00010000
01000000
,
00001000
00010000
00100000
10000000
,
00010000
00010000
00100000
00100000
,
00010000
00001000
00000100
00000010
,
00000001
00000100
00000010
00001000
,
00000100
00010000
00100000
10000000
,
01000000
00100000
00010000
00100000
,
00010000
00001000
00000100
00000010
,
00000001
00000100
00001000
00010000
,
00001000
00100000
00010000
01000000
,
00100000
00100000
10000000
10000000
,
01000000
00100000
00010000
00001000
,
00000010
00000100
00001000
00100000
,
01000000
10000000
01000000
00100000
,
00001000
00010000
00000100
00000010
,
00000001
00000100
00000001
00000010
,
00000100
00010000
00001000
00000100
,
00000010
00001000
00000100
00010000
,
00100000
00100000
10000000
10000000
,
00020000
00000000
02030000
00000000
,
03002000
00000000
00023000
00000000
,
00030200
00000000
00000320
00000000
,
00002030
00000000
00023000
00000000
,
00032000
00000000
00203000
00000000
,
02300000
00000000
23000000
00000000
,
30200000
00000000
00320000
00000000
,
00032000
00000000
00000000
00000000
,
00013000
00100000
10000000
00100000
,
00010000
00001000
00010000
00000100
,
00000010
00000001
00000100
00001000
,
00010000
00001000
00100000
01000000
,
10000000
00100000
01000000
00010000
,
00100000
00001000
00010000
00001000
,
00000100
00000001
00001000
00000001
,
00000010
00000100
00010000
00001000
,
00100000
01000000
00100000
00001000
,
00010000
00001000
00000100
00000001
,
00000010
00000100
00001000
00010000
,
10000000
00100000
10000000
00010000
,
01000000
00010000
00001000
00000100
,
00000100
00001000
00010000
01000000
,
10000000
01000000
00010000
10000000
,
00100000
00100000
01000000
01000000
,
00020000
00000000
00130000
00001000
,
00000200
00000000
00001300
00010000
,
02000000
03000000
20000000
30000000
,
00100000
01000000
20020000
30030000
,
00002000
00000000
00013000
00000100
,
00000020
00000000
00000130
00010000
,
00200000
00300000
02000000
03000000
,
00010000
10000000
02020000
03030000
,
00002000
00000000
00013000
00000100
,
00000020
00000000
00000031
00000100
,
00000020
00000030
00000200
00000300
,
00001000
00000000
00010000
00000000
02000000
00000000
03000000
10000000
,
00020000
00000000
01030000
00100000
,
00020000
00000000
00000000
00000000
00130000
00000000
10000000
00010000
,
01000000
00000000
01100000
00000000
,
00011000
00000000
00010000
00001000
00010000
00000000
00000000
00000000
,
00001000
00010000
00100000
10000000
,
01000000
00100000
00001000
00010000
,
00000100
00000010
00000100
00001000
,
00000001
00000100
00001000
00010000
,
00001000
00100000
01000000
10000000
,
00100000
01000000
00010000
00001000
,
00000010
00000101
00000010
00001100
,
00020000
00000000
00032000
00000000
,
00013000
00100000
10000000
00100000
,
00010000
00001000
00000100
00001000
,
00010000
00100000
10000000
01000000
,
00010000
00001000
00010000
00000100
,
00000010
00000001
00000100
00000001
,
00001000
00000100
00010000
00001000
,
00100000
01000000
10000000
01000000
,
00100000
00000000
00001000
00000000
00010000
00000000
00000100
00001000
;

//---------------dance-double - ----------------
#NOTES:
     dance-double:
     :
     Medium:
     12:
     0.547380,0.563788,0.626871,0.091565,0.031696,544.000000,455.000000,89.000000,13.000000,0.000000,0.000000,0.547380,0.563788,0.626871,0.091565,0.031696,544.000000,455.000000,89.000000,13.000000,0.000000,0.000000:
  // measure 0
00000000
00000000
00000000
00000000
,  // measure 1
00000001
00000100
00000010
00001000
,  // measure 2
00010000
00000000
00000000
00000000
00000000
00000000
01000000
00000000
00100000
00000000
01000000
00000000
00100000
00000000
00000000
00000000
00000000
00000000
10000000
00000000
00000000
01000000
00000000
00000000
,  // measure 3
00100000
00000000
00010000
00000000
01000000
00000000
00010000
00100000
,  // measure 4
00001000
00010000
00002000
00000000
,  // measure 5
00013000
00000100
00000010
00000001
,  // measure 6
00000100
00000000
00000000
00000000
00000000
00000000
00000010
00000000
00001000
00000000
00000010
00000000
00001000
00000000
00000000
00000000
00000000
00000000
00000100
00000000
00000000
00000010
00000000
00000000
,  // measure 7
00001000
00010000
00100000
10000000
,  // measure 8
20020000
00000000
00000000
30000000
,  // measure 9
10030000
01010000
10000000
01010000
,  // measure 10
00001000
00110000
00001000
00010100
,  // measure 11
00000010
00000101
00001000
00000011
,  // measure 12
00001000
00010100
00001000
00011000
,  // measure 13
00100000
11000000
00010000
11000000
,  // measure 14
00100000
01001000
00001000
00011000
,  // measure 15
00000100
00001001
00000010
00001001
,  // measure 16
00010100
00011000
00101000
00110000
,  // measure 17
01000000
10010000
01000000
01010000
,  // measure 18
00001000
00011000
00000100
00010100
,  // measure 19
00000010
00000110
00001000
00001001
,  // measure 20
00000100
00010100
00100000
00101000
,  // measure 21
00010000
10010000
10000000
10100000
,  // measure 22
01000000
01001000
00010000
00001100
,  // measure 23
00000001
00001010
00000100
00011000
,  // measure 24
01100000
10010000
01100000
10010000
,  // measure 25
01000000
00011000
00100000
00011000
,  // measure 26
00000100
00011000
00000010
00000101
,  // measure 27
00000010
00010100
00001000
00110000
,  // measure 28
10000000
01010000
00100000
00011000
,  // measure 29
00000100
00000011
00001000
00000101
,  // measure 30
00010000
00001100
00010000
00110000
,  // measure 31
10000000
10100000
01000000
00011000
,  // measure 32
00000100
00001000
00000010
00000100
00000001
00000010
00000100
00010000
,  // measure 33
00001000
00010000
00100000
10000000
,  // measure 34
01000000
00000000
00000000
00000000
00000000
00000000
00100000
00000000
00010000
00000000
00100000
00000000
00010000
00000000
00000000
00000000
00000000
00000000
00001000
00000000
00000000
00000100
00000000
00000000
,  // measure 35
00000010
00000000
00000001
00000000
00000100
00000000
00000001
00001000
,  // measure 36
00000100
00010000
00001000
00000000
,  // measure 37
00010000
00100000
10000000
00010000
,  // measure 38
00100000
00000000
00000000
00000000
00000000
00000000
00001000
00000000
00010000
00000000
00001000
00000000
00010000
00000000
00000000
00000000
00000000
00000000
00000010
00000000
00000000
00000100
00000000
00000000
,  // measure 39
00001000
00010000
00100000
10000000
,  // measure 40
02000000
00000000
00000000
03100000
00200000
00000000
00000000
00000000
,  // measure 41
00310000
10000000
00010000
00100000
00010000
10000000
00100000
00010000
,  // measure 42
00001000
00010000
00000100
00001000
00000010
00000100
00000001
00000010
,  // measure 43
00000100
00010000
00001000
00010000
00100000
01000000
00010000
00100000
,  // measure 44
00001000
00010000
00000100
00000010
00000100
00001000
00000100
00010000
,  // measure 45
00001000
00100000
00010000
10000000
00100000
01000000
00010000
00001000
,  // measure 46
00000100
00010000
00001000
00010000
00000100
00001000
00000010
00000100
,  // measure 47
00000001
00000010
00000100
00010000
00001000
00100000
00010000
10000000
,  // measure 48
00100000
00010000
00001000
00000100
00001000
00010000
00000100
00000010
,  // measure 49
00000001
00001100
00000001
00001100
,  // measure 50
00010000
00001010
00010000
00110000
,  // measure 51
10000000
10100000
00010000
01010000
,  // measure 52
00100000
00011000
00000100
00011000
,  // measure 53
00000100
00001010
00000001
00000101
,  // measure 54
00001000
00010100
00001000
10010000
,  // measure 55
10000000
10100000
00010000
00110000
,  // measure 56
00011000
00001100
00000110
00001001
,  // measure 57
00000001
00000010
00000100
00001000
00010000
00000000
10000000
00000000
,  // measure 58
00100000
01000000
00010000
00001000
00000010
00000000
00000100
00000000
,  // measure 59
00000001
00000100
00001000
00000000
00010000
01000000
10000000
00000000
,  // measure 60
10010000
01100000
10010000
10000000
,  // measure 61
01000000
10000000
00010000
00100000
00001000
00000000
00000100
00000000
,  // measure 62
00000001
00000010
00000100
00010000
00001000
00000000
00010000
00000000
,  // measure 63
10000000
01000000
00010000
00000000
00001000
00000010
00000001
00000000
,  // measure 64
00001010
00010100
00001010
00000000
,  // measure 65
00000002
00000000
00000000
00000000
00000103
00001000
00010000
00000000
,  // measure 66
00002000
00000000
00000000
00000000
00103000
00010000
01000000
00000000
,  // measure 67
00200000
01300000
20000000
30010000
,  // measure 68
01010000
00000000
00110000
00000000
10020000
00000000
00000000
01030000
,  // measure 69
00020000
00000000
00000000
00000000
00130000
00001000
00010000
00000000
,  // measure 70
00000020
00000000
00000000
00000000
00000130
00000001
00000010
00000001
,  // measure 71
00001001
00000000
00001100
00000000
,  // measure 72
00011000
00000000
00000100
00010000
00000100
00000000
00000000
00000000
,  // measure 73
00001000
00000001
00001000
00000100
00001000
00000001
00000100
00001000
,  // measure 74
00010000
00001000
00100000
00010000
01000000
00100000
10000000
01000000
,  // measure 75
00100000
00001000
00010000
00001000
00000100
00000010
00001000
00000100
,  // measure 76
00010000
00001000
00100000
01000000
00100000
00010000
00100000
00001000
,  // measure 77
00010000
00000100
00001000
00000001
00000100
00000010
00001000
00010000
,  // measure 78
00100000
00001000
00010000
00001000
00100000
00100000
01000000
01000000
,  // measure 79
10010000
10100000
10010000
00110000
,  // measure 80
00002000
00000000
00010000
00000000
00010000
00010000
00010000
00010000
,  // measure 81
00013000
00000100
00001000
00000010
00000100
00000001
00000010
00000100
,  // measure 82
00001000
00010000
10000000
00100000
01000000
00010000
00100000
00001000
,  // measure 83
00000100
00000001
00000010
00000100
00001000
00000001
00000100
00001000
,  // measure 84
00010000
00100000
10000000
01000000
00100000
00001000
00010000
00000100
,  // measure 85
00001000
00000100
00000010
00000100
,  // measure 86
00011000
00100000
11000000
00100000
,  // measure 87
01010000
00000000
10010000
00000000
00001000
00001000
00010000
00010000
,  // measure 88
00000100
00000000
00000010
00000000
00000001
00000000
00000100
00000000
00001000
00000000
00010000
00000000
00100000
00000000
10000000
00010000
;

//---------------dance-double - ----------------
#NOTES:
     dance-double:
     :
     Hard:
     17:
     0.969990,1.033611,0.232435,0.035217,1.528438,964.000000,931.000000,33.000000,5.000000,0.000000,0.000000,0.969990,1.033611,0.232435,0.035217,1.528438,964.000000,931.000000,33.000000,5.000000,0.000000,0.000000:
  // measure 0
00000000
00000000
00000000
00000000
,  // measure 1
00000001
00000100
00000010
00001000
,  // measure 2
00010000
00000000
00000000
00000000
00000000
00000000
01000000
00000000
00100000
00000000
10000000
00000000
01000000
00000000
00000000
00000000
00000000
00000000
00100000
00000000
00000000
00010000
00000000
00000000
,  // measure 3
00001000
00000000
00000010
00000000
00000100
00000000
00000001
00001000
,  // measure 4
00000100
00010000
00002000
00000000
,  // measure 5
00103000
01000000
10000000
00100000
,  // measure 6
00010000
00000000
00000000
00000000
00000000
00000000
00001000
00000000
00010000
00000000
00000100
00000000
00001000
00000000
00000000
00000000
00000000
00000000
00000010
00000000
00000000
00000100
00000000
00000000
,  // measure 7
00000001
00000010
00000100
00010000
,  // measure 8
00022000
00000000
00000000
00030000
,  // measure 9
00013000
00001000
00100000
00010000
10000000
00100000
01000000
00001000
00100000
00001000
00010000
00000100
,  // measure 10
00001000
00000010
00000100
00000001
00000010
00000100
00010000
00001000
00000100
00001000
00010000
00100000
,  // measure 11
01000000
00010000
00100000
01000000
10000000
00100000
01000000
00001000
00100000
00001000
00010000
00000100
,  // measure 12
00001000
00000010
00000100
00000001
00000010
00000100
00001000
00010000
01000000
00100000
01000000
00001000
,  // measure 13
00010000
00100000
10000000
01000000
00100000
00010000
01000000
00100000
10000000
01000000
00100000
00010000
,  // measure 14
00001000
00000100
00010000
00001000
00010000
00000010
00001000
00000100
00000010
00000001
00000100
00001000
,  // measure 15
00010000
00100000
10000000
01000000
00100000
00010000
01000000
00100000
00010000
00001000
00010000
00000100
,  // measure 16
00001000
00000000
00000011
00000000
00000001
00000000
00001100
00000100
,  // measure 17
00001000
00000100
00000010
00000001
00000100
00000010
00001000
00000100
00010000
00001000
00100000
00010000
,  // measure 18
10000000
00100000
00010000
00001000
00100000
00010000
00001000
00000100
00010000
00001000
00010000
00000100
,  // measure 19
00001000
00000010
00000100
00000001
00000010
00000100
00010000
00001000
00100000
00010000
00100000
01000000
,  // measure 20
10000000
00100000
01000000
00010000
00100000
01000000
10000000
00100000
00010000
00001000
00010000
00000100
,  // measure 21
00010000
00001000
00000100
00000010
00000100
00000001
00000010
00000100
00001000
00000100
00010000
00001000
,  // measure 22
00100000
00010000
10000000
00100000
00010000
00001000
00100000
00010000
00001000
00000100
00010000
00001000
,  // measure 23
00010000
00000100
00001000
00000010
00000100
00000001
00000010
00000001
00001000
00000100
00010000
00001000
,  // measure 24
00100000
00000000
10100000
00000000
01000000
00000000
01010000
00010000
,  // measure 25
10000000
01000000
00100000
00010000
01000000
00100000
10000000
01000000
00100000
00010000
01000000
00100000
,  // measure 26
00010000
00001000
00100000
00010000
00001000
00000100
00010000
00000010
00000100
00000010
00001000
00000100
,  // measure 27
00000010
00000001
00000010
00000100
00010000
00001000
00100000
01000000
10000000
00100000
00010000
00001000
,  // measure 28
00100000
00010000
00001000
00000100
00001000
00000010
00010000
00000100
00010000
00001000
00100000
00010000
,  // measure 29
10000000
01000000
10000000
00100000
01000000
00010000
00100000
01000000
10000000
00100000
01000000
00010000
,  // measure 30
00100000
01000000
00100000
00010000
01000000
00100000
00010000
00001000
00000010
00000100
00001000
00000001
,  // measure 31
00000010
00000100
00001000
00010000
00100000
01000000
00100000
00001000
00010000
00000010
00000100
00000010
,  // measure 32
00001000
00001000
00010000
00010000
10000000
10000000
00100000
00100000
,  // measure 33
00010000
00001000
00010000
00000100
,  // measure 34
00000010
00000000
00000000
00000000
00000000
00000000
00000001
00000000
00000010
00000000
00000100
00000000
00001000
00000000
00000000
00000000
00000000
00000000
00100000
00000000
00000000
01000000
00000000
00000000
,  // measure 35
00100000
00000000
10000000
00000000
01000000
00000000
00010000
00001000
,  // measure 36
00010000
00000100
00000010
00000000
,  // measure 37
00000001
00000100
00000010
00001000
,  // measure 38
01000000
00000000
00000000
00000000
00000000
00000000
10000000
00000000
01000000
00000000
00100000
00000000
00010000
00000000
00000000
00000000
00000000
00000000
00100000
00000000
00000000
00001000
00000000
00000000
,  // measure 39
00010000
00000100
00000010
00000001
,  // measure 40
00020000
00000000
00000000
00001000
00032000
00000000
00000000
00000000
,  // measure 41
00013000
00001000
00100000
01000000
10000000
00100000
01000000
00010000
00100000
01000000
10000000
00010000
00100000
00001000
00010000
00000100
,  // measure 42
00010000
00001000
00010000
00000010
00000100
00000001
00000010
00000100
00001000
00000010
00000100
00000010
00010000
00001000
00100000
00010000
,  // measure 43
00100000
00001000
01000000
00100000
10000000
01000000
00100000
00010000
01000000
00010000
01000000
00100000
01000000
00001000
00010000
00100000
,  // measure 44
00010000
00001000
00010000
00000100
00000010
00000001
00001000
00000100
00010000
00001000
00010000
00001000
00100000
00010000
10000000
01000000
,  // measure 45
10000000
00100000
10000000
00010000
10000000
00100000
01000000
00010000
00100000
01000000
00100000
00010000
00001000
00000100
00010000
00001000
,  // measure 46
00010000
00000100
00010000
00000010
00000100
00000001
00000010
00000001
00001000
00000010
00000100
00001000
00010000
00100000
01000000
00010000
,  // measure 47
00100000
01000000
10000000
00010000
10000000
00100000
01000000
00010000
00100000
01000000
00100000
00010000
00100000
00001000
00010000
00000100
,  // measure 48
00001000
00001000
00000001
00000001
00000010
00000010
00001000
00001000
,  // measure 49
00010000
00001000
00100000
01000000
10000000
00100000
01000000
00010000
00100000
01000000
10000000
00100000
,  // measure 50
01000000
00010000
00100000
00001000
00010000
00100000
00010000
00001000
00000100
00000001
00000010
00000100
,  // measure 51
00001000
00000010
00010000
00001000
00010000
00000100
00100000
00001000
00100000
00010000
01000000
00100000
,  // measure 52
10000000
01000000
00100000
00010000
00001000
00000100
00001000
00010000
00100000
00010000
00001000
00000100
,  // measure 53
00000010
00000001
00000100
00000010
00001000
00000100
00000010
00000001
00000100
00000010
00001000
00000100
,  // measure 54
00000010
00000001
00000100
00001000
00010000
00100000
01000000
00010000
00100000
00010000
00001000
00010000
,  // measure 55
01000000
00100000
10000000
01000000
00100000
00010000
01000000
00100000
00010000
00001000
00010000
00000010
,  // measure 56
00000100
00000101
00001000
00001100
,  // measure 57
00000100
00010000
00000100
00010000
00000100
00010000
00000100
00010000
00000100
00000000
00010000
00000000
00100000
00000000
01000000
00000000
,  // measure 58
00010000
00100000
00010000
00100000
00010000
00100000
00010000
00100000
00010000
00000000
10000000
00000000
00100000
00000000
01000000
00000000
,  // measure 59
00001000
00010000
00001000
00010000
00001000
00000000
00010000
00000000
00000100
00001000
00000100
00001000
00000100
00000000
00000010
00000000
,  // measure 60
00000011
00000000
00000000
00000000
00001001
00000000
00000000
00000000
00000010
00000100
00000010
00000100
00000010
00000000
00000000
00000000
,  // measure 61
00010000
00001000
00010000
00001000
00010000
00001000
00010000
00001000
00010000
00000000
00100000
00000000
10000000
00000000
01000000
00000000
,  // measure 62
00100000
00010000
00100000
00010000
00100000
00010000
00100000
00010000
00100000
00000000
00001000
00000000
00010000
00000000
00000010
00000000
,  // measure 63
00000100
00000001
00000100
00000001
00000100
00000000
00000010
00000000
00001000
00000100
00001000
00000100
00001000
00000000
00000010
00000000
,  // measure 64
00010100
00000000
00000000
00000000
00101000
00000000
00000000
00000000
00100000
01000000
10000000
01000000
00100000
00000000
00110000
00000000
,  // measure 65
00010000
10000000
00010000
10000000
00010000
10000000
00010000
10000000
00010000
00000000
10000000
00000000
00100000
00000000
01000000
00000000
,  // measure 66
00001000
00010000
00001000
00010000
00001000
00010000
00001000
00010000
00001000
00000000
00010000
00000000
00000100
00000000
00000010
00000000
,  // measure 67
00000001
00001000
00000001
00001000
00000001
00000000
00000010
00000000
00000100
00001000
00000100
00001000
00000100
00000000
00000010
00000000
,  // measure 68
00001001
00000000
00000000
00000000
00000110
00000000
00000000
00000000
00010000
00001000
00010000
00001000
00010000
00000000
00101000
00000000
,  // measure 69
00010000
10000000
00100000
10000000
00010000
10000000
00100000
10000000
01000000
00000000
10000000
00000000
00100000
00000000
01000000
00000000
,  // measure 70
00010000
00100000
00001000
00100000
00010000
00100000
00001000
00100000
00010000
00000000
00001000
00000000
00000100
00000000
00011000
00000000
,  // measure 71
00011000
00000000
00011000
00000000
,  // measure 72
00001100
00000000
00011000
00110000
00011000
00000000
00000000
00000000
,  // measure 73
00000001
00000010
00000100
00001000
00000010
00000100
00001000
00010000
00000100
00001000
00010000
00001000
00000100
00010000
00001000
00100000
,  // measure 74
00010000
01000000
00100000
10000000
00100000
01000000
00010000
00100000
01000000
00100000
00010000
00001000
00000100
00010000
00001000
00010000
,  // measure 75
00000100
00001000
00000010
00000100
00000001
00000010
00000100
00001000
00000010
00010000
00001000
00010000
00000100
00010000
00001000
00100000
,  // measure 76
00010000
00100000
01000000
10000000
00100000
01000000
00010000
00100000
00001000
00010000
00001000
00010000
00000100
00001000
00000010
00000100
,  // measure 77
00000001
00000010
00000001
00000010
00000100
00001000
00000010
00000100
00001000
00010000
00001000
00010000
00000100
00010000
00001000
00100000
,  // measure 78
00010000
00100000
01000000
10000000
00100000
01000000
00010000
00100000
00001000
00010000
00000100
00000010
00000001
00000100
00001000
00010000
,  // measure 79
00100000
10100000
11000000
01010000
,  // measure 80
00001000
00100000
00001000
00010000
00000100
00001000
00000100
00010000
00000010
00000100
00000001
00000010
00000001
00000001
00001000
00001000
,  // measure 81
00000100
00010000
00000010
00010000
00000100
00010000
00001000
00100000
00010000
10000000
01000000
10000000
00100000
01000000
00010000
00100000
,  // measure 82
01000000
00100000
00010000
00001000
00000100
00010000
00001000
00010000
00000100
00001000
00000010
00000100
00000001
00000010
00000100
00010000
,  // measure 83
00001000
00010000
00001000
00100000
00010000
10000000
00100000
01000000
00001000
00010000
00001000
00010000
00000100
00001000
00000010
00000100
,  // measure 84
00000001
00000010
00001000
00010000
00000100
00010000
00001000
00010000
00100000
01000000
00010000
00100000
01000000
10000000
00100000
01000000
,  // measure 85
00010000
00001000
00000100
00000010
00000001
00000100
00001000
00010000
,  // measure 86
10100000
10000000
01000000
00100000
00011000
00000100
00000010
00000001
,  // measure 87
00011000
00010000
01100000
10000000
10100000
10010000
01010000
00101000
,  // measure 88
00001000
00010000
00000100
00001000
00000010
00000100
00000001
00000010
00001000
00010000
00100000
10000000
01000000
00100000
00001000
00001000
;
