#TITLE:量子の海のリントヴルム;
#SUBTITLE:;
#ARTIST:黒猫ダンジョン;
#TITLETRANSLIT:Ryoushi no umi no Lindwurm;
#SUBTITLETRANSLIT:;
#ARTISTTRANSLIT:;
#GENRE:;
#CREDIT:;
#BANNER:;
#BACKGROUND:;
#LYRICSPATH:;
#CDTITLE:cdtitle.png;
#MUSIC:Ryoushi no umi no Lindwurm.mp3;
#OFFSET:0.450217;
#SAMPLESTART:85.028000;
#SAMPLELENGTH:15.000000;
#SELECTABLE:YES;
#BPMS:0.000000=280.029999
;
#STOPS:
;
#BGCHANGES:-0.750=Ryoushi no umi no Lindwurm.avi=1.000=1=0=1===CrossFade==,
99999=-nosongbg-=1.000=0=0=0 // don't automatically add -songbackground-
;
#KEYSOUNDS:;
#ATTACKS:;

//---------------dance-single - ----------------
#NOTES:
     dance-single:
     :
     Beginner:
     6:
     0.275340,0.344176,0.137670,0.018356,0.000000,210.000000,195.000000,15.000000,2.000000,0.000000,0.000000,0.275340,0.344176,0.137670,0.018356,0.000000,210.000000,195.000000,15.000000,2.000000,0.000000,0.000000:
0000
0000
0000
0000
,
0000
0000
0000
0000
,
0000
0000
0000
0000
,
0000
0000
0000
0000
,
0000
0000
0000
0000
,
0000
0000
0000
0000
,
1000
0000
0100
0000
,
0100
0000
1000
0000
,
0001
0000
0100
0000
,
0010
0000
0110
0000
,
0000
0000
0000
0000
,
1001
0000
0000
0001
,
0000
1000
0000
0001
,
0000
0100
0000
0010
,
0000
1000
0000
1001
,
0000
0000
0000
0000
,
0000
1001
0000
0000
,
0000
0000
0000
0000
,
0000
0110
0000
0000
,
0000
0000
0000
0000
,
0001
0000
0001
0000
,
0001
0000
0001
0000
,
1000
0000
1000
0000
,
1000
0000
1000
0000
,
0010
0000
0100
0000
,
0010
0000
0100
0000
,
0001
0000
1000
0000
,
0001
0000
0000
0000
,
1000
0000
0000
1000
,
0000
0000
0010
0000
,
0000
0010
0000
0000
,
0001
0000
0000
0001
,
0000
0000
0100
0000
,
0000
0100
0000
0000
,
1001
0000
0000
0000
,
0110
0000
0000
0000
,
1001
0000
0000
0000
,
0101
0000
0000
0000
,
0001
0000
0010
0000
,
0001
0000
0010
0000
,
0001
0000
0010
0000
,
0100
0000
1000
0000
,
0010
0000
1000
0000
,
0010
0000
1000
0000
,
0100
0000
0010
0000
,
0001
0000
0000
0000
,
1000
0000
1000
0000
,
0001
0000
0001
0000
,
0100
0000
0100
0000
,
0010
0000
0000
0000
,
0100
0000
0100
0000
,
0001
0000
0001
0000
,
1000
0000
1000
0000
,
0010
0000
0000
0000
,
1000
0000
0001
0000
,
0100
0000
0000
0000
,
0100
0000
1000
0000
,
0010
0000
0000
0000
,
0100
0000
0100
0000
,
1000
0000
1000
0000
,
0001
0000
0100
0000
,
0100
0000
0001
0000
,
0010
0000
0000
0000
,
0010
0000
0100
0000
,
0001
0000
0000
0000
,
0001
0000
0100
0000
,
1000
0000
0001
0000
,
0100
0000
0100
0000
,
0010
0000
0000
1000
,
0000
0100
0000
0000
0010
0000
0000
0001
,
0000
0000
1000
0000
0000
0010
0000
0000
,
0100
0000
0000
0001
0000
0000
1000
0000
,
0000
0000
0000
0000
,
0000
1000
0000
1000
0000
0000
0001
0000
,
0000
0000
0000
1000
,
0000
0000
0000
0001
,
0000
0000
0000
1000
,
0000
0100
0000
0010
,
0000
0001
0000
0100
,
0000
0000
0000
0010
,
0000
0000
0000
0000
,
1000
0000
0000
0001
,
0000
0100
0000
0010
,
0000
0100
0000
0001
,
0000
0001
0000
1000
,
0000
1000
0000
0001
,
0000
0010
0000
0100
,
0000
1000
0000
0110
,
0000
0000
0000
1001
,
0000
0000
0000
0001
,
0000
0001
0000
0100
,
0000
0010
0000
1000
,
0000
0001
0000
0010
,
0000
0100
0000
1000
,
0000
0010
0000
0100
,
0000
0001
0000
1001
,
0000
0000
0000
0110
,
0000
0000
0000
1000
,
0000
0010
0000
0010
,
0000
0001
0000
0001
,
0000
1000
0000
0001
,
0000
0100
0000
0010
,
0000
0000
0100
0000
0000
0000
0000
1001
,
0000
0000
0000
0001
,
0000
1000
0000
0100
,
0000
0010
0000
0001
,
0000
0000
0100
0000
0000
0000
0000
1001
,
0000
0000
0000
0002
,
0000
0000
1003
0000
,
0010
0000
0100
0000
,
0010
0000
1000
0000
,
0100
0000
0100
0000
,
0010
0000
0001
0000
,
0100
0000
0010
0000
,
0010
0000
1000
0000
,
0001
0000
1000
0000
,
0001
0000
0010
0000
,
0100
0000
0100
0000
,
1000
0000
0010
0000
,
0001
0000
0100
0000
,
1000
0000
1000
0000
,
0000
0001
0000
0000
0000
0000
0100
0000
,
0000
0000
0000
0020
0000
0000
0000
0000
,
0000
0000
0000
0000
,
0000
0000
0000
0000
,
0030
0000
0000
0000
;

//---------------dance-single - ----------------
#NOTES:
     dance-single:
     :
     Easy:
     12:
     0.605749,0.688351,0.312053,0.110136,0.000000,462.000000,428.000000,34.000000,12.000000,0.000000,0.000000,0.605749,0.688351,0.312053,0.110136,0.000000,462.000000,428.000000,34.000000,12.000000,0.000000,0.000000:
0000
0000
0000
0000
,
0000
0000
0000
0000
,
0000
0000
0000
0000
,
0000
0000
0000
0000
,
0000
0000
0000
0000
,
0000
0000
0000
0000
,
1000
0000
0000
0001
0000
0001
0000
0001
,
0000
0000
1000
0000
0010
0100
0000
0100
,
0000
0001
0000
1000
0000
0001
0000
0100
,
0010
0100
1001
0001
,
0010
0001
0000
0001
,
1000
0000
1100
0000
0000
0001
0000
1000
,
0000
0001
0000
0000
1000
0010
0000
0100
,
0000
0010
0000
1000
0000
0001
0000
0100
,
0000
0010
1000
0000
0100
0000
1001
0000
,
0000
0010
0100
0000
,
0010
0000
0100
0000
1001
0000
0000
0100
,
0010
1000
0001
1001
,
0000
0000
0101
0000
0000
1000
0010
0000
,
0100
0001
1001
0000
,
1000
0010
1000
0100
,
1000
0010
1000
0100
,
0010
0001
0100
0001
,
0010
0001
0100
0001
,
0011
0000
1100
0000
,
0101
0000
1010
0000
,
1100
0000
0011
0000
,
1001
0000
0010
0000
,
1000
0000
0000
0010
0000
0000
0100
0000
,
0000
0001
0000
0000
0010
0000
0000
0100
,
0000
0000
0001
0000
0000
1000
0000
0000
,
0011
0000
0000
1000
0000
0000
0001
0000
,
0000
0010
0000
0000
0001
0000
0000
1000
,
0000
0000
0010
0000
0000
0100
0000
0000
,
1001
0000
0001
1000
0000
0110
0000
0000
,
1000
0001
1000
0000
0001
0010
0000
0000
,
1000
0100
0000
0100
0000
1001
0000
0000
,
0010
1000
0001
1000
0000
0001
0000
1000
,
0001
0100
0010
0100
,
1000
0100
0010
0100
,
0001
0010
0100
0010
,
1000
0010
0001
1000
,
0010
0100
0001
1000
,
0100
0010
0001
0100
,
1000
0001
0010
0100
,
1000
0010
0001
0000
,
1000
1000
0100
0001
,
0100
1000
0010
0100
,
0001
1000
0010
1000
,
0001
0100
0000
0010
0000
0000
0000
0000
,
1000
0100
0010
0100
,
1000
0010
0100
0010
,
1000
0100
0010
0001
,
0100
0010
0000
1001
0000
0000
0000
0000
,
0001
0010
0100
1000
,
0001
1000
0000
0001
0000
0000
0000
0000
,
1000
0100
0001
0100
,
1000
0010
0000
0100
0000
0000
0000
0000
,
1000
0001
0100
0000
0010
0100
0000
0010
,
0100
0000
0001
1000
0000
0001
1000
0010
,
0000
1000
0100
0010
,
0001
1000
0100
0010
,
0001
1000
0000
1010
0000
0000
0000
0000
,
0001
0010
0100
1000
,
0001
0100
0000
0101
0000
0000
0000
0000
,
1000
0010
0100
0000
0001
0100
0000
0001
,
0100
0000
1000
0100
0000
1000
0000
0100
,
0000
0001
1000
0001
,
0220
0000
0330
1000
,
0000
0010
0000
0000
0001
0000
0000
0010
,
0000
0000
1000
0000
0000
0001
0000
0000
,
0100
0000
0000
0010
0000
0000
1001
0000
,
0000
0000
0000
0000
,
0000
0001
1000
0001
1000
0000
0000
0001
,
0000
0100
0000
0010
0000
0100
0000
1000
,
0000
0100
0000
0001
0000
0010
0000
0100
,
0000
1000
0001
0000
0100
0000
0010
0000
,
0100
1000
0100
0001
,
0010
0000
1000
0000
0010
0000
0001
1000
,
0000
0100
0000
0001
0000
0010
0000
0100
,
0000
1000
0000
0001
0000
1000
0000
0010
,
0000
1000
0001
0000
0100
0000
0010
0000
,
1000
0100
0010
0001
,
0100
0020
1030
1001
,
0001
0010
1000
0010
,
0001
0100
1000
0100
,
0001
1000
0001
0010
,
0001
1000
0010
0100
,
0000
0100
0000
0100
0001
0000
1000
0000
,
0000
1000
0000
0100
0010
0000
0001
0000
,
0000
0001
0000
0100
0010
0000
1000
0000
,
0100
0110
0000
0001
,
0010
1000
0010
0100
,
1000
0001
1000
0010
,
1000
0001
0010
0001
,
1000
0010
0100
0001
,
0000
0001
0000
0010
0100
0000
0100
0000
,
0000
1000
0000
1000
0010
0000
0100
0000
,
0001
0010
0100
1000
,
0001
0000
1000
0001
1000
0000
0010
0000
,
0000
1000
0000
0000
0100
0000
0000
0010
,
0000
0001
0000
0100
0000
0010
0000
1000
,
0000
0100
0010
0000
1001
0000
0000
0220
,
0000
0330
0000
0001
,
0010
0100
1000
0001
,
0010
1000
0010
0001
,
1000
0001
0000
0000
0101
0000
0000
2200
,
0000
3300
0000
0002
,
0000
0000
1003
0010
,
1000
0100
0010
0001
,
1000
0000
0010
0000
0100
0000
1000
0001
,
0000
0001
0000
1000
0100
0000
0010
0000
,
1000
0010
0001
1000
,
0010
0000
0100
0000
0001
0000
0100
1000
,
0000
0001
0010
0000
1010
0000
0100
0000
,
1000
1000
0001
0010
,
0100
0000
0001
0000
0010
0000
0100
0010
,
0000
0010
0100
0000
1001
0000
0100
0000
,
0010
1001
0010
0100
,
1001
0100
0010
1001
,
0010
0100
0002
0000
,
0000
0023
0000
0000
0000
0000
0230
0000
,
0000
0000
0000
2300
0000
0000
0000
0000
,
0000
0000
0000
0000
,
0000
0000
0000
0000
,
3000
0000
0000
0000
;

//---------------dance-single - ----------------
#NOTES:
     dance-single:
     :
     Medium:
     13:
     0.728997,0.860439,0.256984,0.302875,0.000000,556.000000,528.000000,28.000000,33.000000,0.000000,0.000000,0.728997,0.860439,0.256984,0.302875,0.000000,556.000000,528.000000,28.000000,33.000000,0.000000,0.000000:
0000
0000
0000
0000
,
0000
0000
0000
0000
,
0000
0000
0000
0000
,
0000
0000
0000
0000
,
0000
0000
0000
0000
,
0000
0000
0000
0000
,
1000
0000
0000
0001
0000
0010
0000
1000
,
0000
0000
0010
0000
0001
0100
0010
0100
,
0000
0100
0000
0010
0000
0100
0010
1000
,
0010
0001
0010
0100
0002
0000
0003
0000
,
1000
0001
0100
0000
0000
0000
0010
0000
,
0001
0000
0001
1000
0000
1000
0000
0100
,
0000
0010
0000
0000
0001
0000
1000
0000
,
0010
0100
0000
0001
0000
1000
0000
0010
,
0100
0001
0010
0100
1000
0001
0100
0000
,
0000
0000
1000
0100
0001
0000
0000
0000
,
1000
0010
0100
0001
1000
0001
0000
0001
,
0000
0001
0000
1000
0001
0000
1001
0000
,
0000
0000
0100
0000
0010
0100
0000
0010
,
0000
0100
0010
0000
0010
1000
0001
1000
,
0020
1000
0230
0001
,
0320
1000
0230
0010
,
0302
1000
0023
0001
,
0230
1000
0301
1000
,
0101
1000
1100
0001
,
0011
1000
1010
0100
,
0110
0001
0110
1000
,
0110
0000
0001
0000
1000
0001
0010
0000
,
0001
0000
0000
0101
0000
0000
0100
0000
,
0000
0101
0000
0000
0010
0000
0000
1010
,
0000
0000
0100
0000
0000
0011
0000
0000
,
0001
0000
1000
0100
0000
0000
0010
0000
,
0001
1000
0000
0000
0010
0000
0100
0001
,
0000
0000
0100
0000
0010
1000
0100
0010
,
0001
0100
0000
0100
0000
1001
0000
0000
,
0001
0010
0100
1000
0001
0100
0000
0000
,
0010
0100
0000
0100
0000
0001
0000
0000
,
1000
0001
1000
0001
0100
0010
0100
0000
,
1000
0000
0100
0010
0000
0001
0100
0000
,
0000
0010
1000
0000
0100
0000
0000
2000
,
0000
0000
3001
0000
0000
0002
0000
0000
,
0203
0000
0000
0001
0000
0000
1300
0000
,
0100
0000
0001
1000
0000
0010
0100
0000
,
0001
1000
0002
0000
0100
0000
0003
2000
,
0000
0000
3010
0000
0000
0110
0000
0000
,
0001
0010
0100
1000
0001
0010
0100
1000
,
0001
0000
0100
0000
0010
1000
0000
0000
,
0100
0000
0010
0000
0001
0100
0000
0000
,
0010
0000
1000
0000
0100
0010
0000
0000
,
0001
0100
0010
1000
0000
0000
0000
0000
,
0100
0000
0010
0000
0001
0100
0000
0000
,
0010
0000
1000
0000
0001
0010
0000
0000
,
0001
0000
0010
0000
0100
0010
0000
0000
,
0001
0100
1000
0100
0000
0000
0000
0000
,
0001
0010
0100
1000
0000
0000
0001
0000
,
0100
0010
0100
0010
0000
0000
0000
0000
,
1000
0100
0010
0001
0000
0000
0100
0000
,
0010
0100
0010
0100
0000
0001
0000
0001
,
1000
0001
0010
0000
0100
1000
0000
0010
,
0001
0000
0100
1000
0000
0010
0100
0010
,
0000
1000
0001
0001
,
0100
0010
1000
0010
1000
0000
0100
0000
,
0010
0001
0010
0001
0000
0000
1000
0000
,
0001
0100
0010
1000
0000
0000
0100
0000
,
0010
0001
0100
0010
0000
0000
0100
0000
,
0001
1000
0100
0000
0010
0001
0000
0001
,
0010
0000
0010
1000
0000
1000
0000
0001
,
0000
0110
1001
0001
,
1000
0001
0010
0001
0100
0010
2000
0000
,
0000
3002
0000
0000
0203
0000
0000
0302
,
0000
0000
0023
0000
0000
0230
0000
0000
,
1300
0001
0010
0001
0200
0000
0310
0000
,
0000
0000
0000
0000
,
0000
1000
0001
1000
0001
0000
0100
0000
,
0000
0002
0000
1003
0000
0010
0100
0020
,
0000
1030
0000
0100
0000
0010
0000
0001
,
0000
1000
0010
0100
0010
0000
1000
0000
,
0001
0000
0100
0000
0001
0010
0000
0100
,
0000
1000
0000
0001
0000
0100
0010
1000
,
0000
0002
0000
0103
0000
1000
0010
0002
,
0000
1003
0000
0010
0000
0100
0000
0010
,
0000
1000
0001
0100
0010
0000
1000
0000
,
0100
0000
0001
0000
0010
1000
0100
0000
,
0001
0000
0010
0000
1000
0000
0001
0100
,
0001
0000
0010
0000
0100
0000
1000
0010
,
0000
0010
0000
1000
0000
0001
0200
0000
,
0010
0000
0010
0000
0301
0000
1000
0100
,
0010
0001
1000
0001
1000
0001
0100
0000
,
0000
0010
0000
0010
0100
0000
0001
0000
,
0000
1000
0000
1000
0001
0000
1000
0100
,
0010
0000
0001
0010
0100
0000
1000
0010
,
0100
0001
0010
0000
0001
0000
1000
0000
,
0010
1000
0010
0000
1000
0000
0001
0100
,
0000
0010
0000
1000
0001
0000
0020
0000
,
0100
0000
0100
0000
0031
0000
1000
0010
,
0100
0001
1000
0001
0010
0100
1000
0000
,
0000
0001
0000
0001
0100
0000
0010
0000
,
0000
1000
0000
1000
0100
0000
0010
0001
,
0100
0000
0001
1000
0100
0000
1000
0100
,
0010
0001
0100
0010
1000
0001
0100
0000
,
0000
0110
0000
0000
1001
0000
0000
0110
,
0000
0001
1000
0010
,
0100
1000
0100
0000
0101
0000
0000
2200
,
0000
3300
0000
1000
,
0010
0100
0001
0010
,
0100
1000
0010
0100
,
0010
0001
0010
0000
1010
0000
0000
0202
,
0000
0303
0000
1002
,
0000
1000
1003
0100
,
0010
0001
0100
0010
,
1000
0000
0100
0000
0010
0000
0001
0010
,
0001
0000
1000
0100
1000
0000
0010
0000
,
0100
0001
0010
0100
,
1000
0000
0001
0000
0100
0000
0010
1000
,
0100
0000
0010
0100
1000
0001
0000
0001
,
0000
0001
0010
0001
0000
0001
0000
0010
,
1000
0010
0000
0010
0000
0001
1000
0001
,
0100
0000
0010
0000
1000
0100
0010
0001
,
0100
0000
0010
0100
0001
0010
0100
0000
,
1000
0010
0100
0001
1000
0000
0010
0000
,
0100
0001
0011
0000
,
0000
1100
0000
0000
0000
0000
0101
0000
,
0000
0000
0000
2002
0000
0000
0000
0000
,
0000
0000
0000
0000
,
0000
0000
0000
0000
,
3003
0000
0000
0000
;

//---------------dance-single - ----------------
#NOTES:
     dance-single:
     :
     Hard:
     16:
     1.006960,1.032527,0.532325,0.293697,0.000000,768.000000,710.000000,58.000000,32.000000,0.000000,0.000000,1.006960,1.032527,0.532325,0.293697,0.000000,768.000000,710.000000,58.000000,32.000000,0.000000,0.000000:
0000
0000
0000
0000
,
0000
0000
0000
0000
,
0000
0000
0000
0000
,
0000
0000
0000
0000
,
0000
0000
0000
0000
,
0000
0000
0000
0000
,
2000
0000
0000
3001
0000
0010
0000
1000
,
0000
0000
0010
0000
0001
0100
0010
0100
,
0000
0010
0000
1000
0000
0100
0010
0001
,
1000
0001
0100
0010
2000
0000
3001
0000
,
1000
0100
0010
0000
0001
1000
0010
0100
,
0010
1000
0001
0100
0000
0100
0000
1000
,
0000
0001
0000
0000
1000
0000
0001
0000
,
0100
0010
0000
1000
0000
0001
0000
1000
,
0001
0010
1000
0010
0001
0010
0200
0000
,
0301
0000
1000
0100
0001
0000
1000
0010
,
0001
0000
1000
0010
0110
0000
1000
1001
,
0000
0011
1000
0001
1000
0000
1001
0000
,
0100
0000
0001
0000
1000
1001
0000
0010
,
1100
0001
0100
0001
1000
0001
0000
0001
,
1000
0100
0010
0001
0100
0010
1000
0100
,
0010
0001
0100
0010
1000
0100
0010
0001
,
0100
0001
0010
0100
1000
0010
0100
0001
,
0010
0100
1000
0010
0100
0001
1000
0010
,
0120
1030
0201
0310
,
2100
3001
0120
1030
,
0021
1030
1200
0301
,
0201
0000
0310
0001
1000
0001
0010
0000
,
0100
0000
0100
0001
0000
0001
0010
0000
,
0010
1000
0000
1000
0100
0000
0100
0001
,
0000
0001
0010
0000
1000
0100
0000
0001
,
0010
0000
1000
0100
0000
0010
0001
0000
,
0010
1000
0000
0100
0001
0000
0010
1000
,
0000
0010
0100
0010
0001
1000
0010
0100
,
0001
1000
0000
0110
0000
1001
0000
0000
,
1000
0100
0010
0001
0100
0010
1000
0000
,
0001
0110
0000
1001
0000
0101
0000
0000
,
1000
0001
1000
0001
0100
0010
0200
0000
,
0301
0100
0010
0000
1000
0100
0010
0000
,
0001
0100
0001
0000
1000
0100
1000
0000
,
0001
0010
0100
0000
1000
0001
1000
0000
,
0010
0100
0001
1000
0100
0010
0001
1000
,
0010
0100
0001
0100
0000
1000
0100
0000
,
0001
0010
1000
0000
1100
0000
0001
0010
,
0000
0000
1002
0000
0000
1003
0000
0000
,
0001
1000
0010
0100
0001
1000
0010
1000
,
0100
0010
0001
0100
0010
0100
0001
0010
,
0100
0010
0001
0100
0010
0001
0010
0100
,
0001
0010
0100
0010
0001
0100
0010
1000
,
0001
1000
0100
0010
0000
0000
0000
0000
,
0100
1000
0100
0010
0100
1000
0010
0100
,
1000
0100
0010
1000
0100
0010
1000
0010
,
0100
1000
0010
0100
1000
0100
0010
0100
,
0001
0010
0100
0010
0000
0000
0001
0000
,
0100
0010
1000
0100
0010
0000
0001
0000
,
0010
1000
0010
0001
0010
0000
1000
0000
,
0100
0001
0100
1000
0100
0000
0010
0000
,
0001
0010
1000
0100
0010
0001
0100
0010
,
0100
0010
0010
0000
1000
1000
0000
0100
,
0100
0000
0001
0001
0000
1200
0000
0310
,
0000
1002
1000
0103
,
0001
0010
0100
1000
0010
0100
0001
1000
,
0100
0010
0100
0001
0000
0000
0001
0000
,
0010
0100
0010
0001
0100
0010
1000
0100
,
0010
0100
0010
1000
0001
0100
0010
0001
,
1000
1000
1000
0000
0010
0010
0000
0010
,
0010
0000
0100
0100
0000
0021
0000
0031
,
0000
0110
1001
1000
,
0001
0010
0100
1000
0010
0100
1001
0000
,
0000
0011
0000
0000
1100
0000
0000
0110
,
0000
0000
0011
0000
0000
0110
0000
0000
,
1010
0011
0110
1001
,
0000
0000
0000
0000
,
0000
1000
0100
0010
0001
0000
1000
0000
,
0000
1100
0000
0101
0000
0001
1000
0000
,
0000
0101
0000
1100
0000
0101
0000
1000
,
0001
0000
0001
0100
1000
0100
0001
0010
,
1000
0010
0001
0000
1000
0100
0001
0100
,
1000
0010
0001
0010
1000
0100
0010
0000
,
0110
0000
0101
0000
1000
0001
0000
0000
,
1010
0000
0101
0000
1001
1000
0010
0100
,
0001
0000
0001
0010
1000
0010
0001
0100
,
1000
0100
0001
0010
1000
0100
0001
0100
,
1000
0010
0001
0010
0100
1000
0100
1000
,
0001
0010
0100
1000
0100
0010
0001
0010
,
1000
0010
0001
0100
0010
1000
0100
0010
,
0100
0010
1000
0010
0001
0010
0100
1000
,
0001
0001
1000
1000
0010
1000
0020
0000
,
0000
0031
0000
0001
0020
0000
2030
0000
,
0000
3001
0000
0001
1000
0000
0001
0101
,
0000
0001
1000
0100
0010
0001
1000
0100
,
1000
0100
0010
0001
2000
0000
3010
1000
,
0010
1000
0001
0100
0010
0001
0010
1000
,
0100
0010
0001
0100
1000
0100
0001
0001
,
0010
0100
0010
0001
0010
1000
0010
0001
,
0100
0010
1000
0100
0010
0001
0011
0000
,
0100
1000
0000
1000
0010
0000
0101
0000
,
0010
1000
0000
1000
0100
0000
0011
0000
,
0010
0100
1000
0000
0001
0000
0001
0010
,
1000
0010
0001
0100
0010
1000
0001
0000
,
0001
0100
0010
1000
0100
0010
0001
0100
,
0010
1000
0100
0010
0001
0010
1000
0010
,
0001
1000
0100
0000
0011
0000
0000
2200
,
0000
0000
3300
0000
0000
0000
1000
0010
,
0100
0001
0010
0100
1000
0001
0100
0010
,
1000
0100
0010
0001
0100
1000
0001
0010
,
1000
0001
0100
0000
1001
0000
0000
0220
,
0000
0000
0330
0000
0000
0000
2001
0001
,
0000
0001
0000
3001
1000
0100
0010
0001
,
0100
0010
0100
0001
0010
1000
0010
0001
,
0100
0010
1000
0100
0010
0001
1000
0010
,
0010
0100
0001
0010
0100
1000
0001
0100
,
1000
0100
0001
0010
1000
0010
0001
0100
,
0010
1000
0100
0010
0001
0100
0010
0010
,
1000
0100
0010
0001
0100
1000
0100
0001
,
0010
1000
0010
0100
0010
0001
1000
0010
,
0100
1000
0100
0010
0100
0001
0010
0100
,
0010
1000
0010
0100
1000
0010
0001
1000
,
0100
0001
1000
0010
0001
1000
0100
0001
,
0100
0001
0010
0100
1000
0010
0100
0001
,
1000
0010
0100
0010
2002
0000
0000
3003
,
0000
0022
0000
0000
0033
0000
2200
0000
,
0000
3300
0000
2002
0000
0000
0000
0000
,
0000
0000
0000
0000
,
0000
0000
0000
0000
,
3003
0000
0000
0000
;

//---------------dance-double - ----------------
#NOTES:
     dance-double:
     :
     Easy:
     12:
     0.555926,0.630989,0.238628,0.137670,0.000000,424.000000,398.000000,26.000000,15.000000,0.000000,0.000000,0.555926,0.630989,0.238628,0.137670,0.000000,424.000000,398.000000,26.000000,15.000000,0.000000,0.000000:
00000000
00000000
00000000
00000000
,
00000000
00000000
00000000
00000000
,
00000000
00000000
00000000
00000000
,
00000000
00000000
00000000
00000000
,
00000000
00000000
00000000
00000000
,
00000000
00000000
00000000
00000000
,
10000000
00000000
00000000
00010000
00000000
10000000
00000000
00010000
,
00000000
00000000
01000000
00000000
00100000
00000000
10000000
01000000
,
00000000
00100000
00000000
00100000
00000000
00010000
00000000
01000000
,
00000000
00100000
01000000
00000000
10010000
00000000
00000000
00000000
,
00001000
00010000
00000000
00000200
,
00000000
00000000
00000310
00000000
00000000
00000001
00000000
00001000
,
00000000
00000010
00000000
00000000
00000100
00000000
00000001
00000000
,
00000010
00000100
00000000
00000100
00000000
00001000
00000000
00000001
,
00000000
00000100
00000000
00000010
00000100
00000000
00001001
00000000
,
00000000
00001000
00010000
00000000
,
00100000
00000000
20020000
00000000
,
00000000
00000000
30030000
00000000
,
00000000
00020200
00000000
00000000
,
00000000
00030300
00000000
00000000
,
00000001
00000010
00000001
00000010
,
00001000
00010000
00001000
00010000
,
01000000
00100000
01000000
00100000
,
01000000
10000000
00010000
01000000
,
01010000
00000000
11000000
00000000
,
01010000
00000000
00001000
00000000
,
00001100
00000000
00000011
00000000
,
00001100
00000000
00001000
00000000
,
00000010
00000000
00000000
00001000
00000000
00000000
00010000
00000000
,
00000000
00100000
00000000
00000000
01000000
00000000
00000000
10000000
,
00000000
00000000
00100000
00000000
00000000
00010000
00000000
00000000
,
00001000
00000000
00000000
00000100
00000000
00000000
00000001
00000000
,
00000000
00000010
00000000
00000000
00001000
00000000
00000000
00010000
,
00000000
00000000
00100000
00000000
00000000
10000000
00000000
00000000
,
00010000
01000000
00000000
00100000
00000000
01000000
00000000
00000000
,
00000000
00010000
00000000
00100000
00000000
01000000
00000000
00000000
,
10000000
10000000
00000000
00100000
00000000
00100000
00000000
00000000
,
00010000
00000100
00000000
00000100
00000000
00000100
00000000
00000000
,
00000010
00000001
00001000
00000001
,
00000010
00000100
00001000
00000001
,
00000010
00000100
00001000
00010000
,
00100000
01000000
10000000
00100000
,
00010000
01000000
00100000
00010000
,
00100000
01000000
10000000
00100000
,
00010000
00001000
00000100
00000001
,
00001000
00001000
00001000
00000000
,
00000001
00000010
00001000
00010000
,
00100000
10000000
01000000
00100000
,
00010000
00001000
00000010
00000100
,
00000001
00001000
00000000
00001001
00000000
00000000
00000000
00000000
,
00000001
00000010
00001000
00010000
,
01000000
10000000
00100000
00010000
,
00001000
00010000
00000100
00000010
,
00000001
00000100
00000000
00000101
00000000
00000000
00000000
00000000
,
00000100
00001000
00010000
00000000
,
00010000
01000000
10000000
00000000
,
10000000
01000000
00010000
00000000
,
00010000
00001000
00000100
00000000
,
00000001
00000010
00000001
00000000
00000010
00000000
00000000
00000010
,
00000000
00000000
00001000
00000000
00000000
00001000
00000000
00010000
,
00000000
00100000
10000000
01000000
,
00100000
00010000
01000000
00100000
,
10000000
00010000
00000000
10010000
00000000
00000000
00000000
00000000
,
01000000
00001000
00010000
00000100
,
00000010
00000100
00000000
00000110
00000000
00000000
00000000
00000000
,
00000001
00000100
00000001
00000000
00001000
00000000
00000000
00000010
,
00000000
00000000
00010000
00000000
00000000
00001000
00000000
01100000
,
00000000
10000000
00010000
10010000
,
20000000
00000000
00000000
30010000
,
00000000
00100000
00000000
00000000
00001000
00000000
00000000
00000100
,
00000000
00000000
00000001
00000000
00000000
00000010
00000000
00000000
,
00000100
00001000
00001001
00000000
,
00000000
00000000
00000000
00000000
,
00000000
00000001
00000100
00000001
00000100
00000000
00000000
00000001
,
00000000
00000010
00000000
00000100
00000000
00001000
00000000
00010000
,
00000000
00100000
00000000
01000000
00000000
10000000
00000000
00100000
,
00000000
01000000
00010000
00000000
10000000
00000000
01000000
00000000
,
00010000
01000000
10000000
00100000
,
00010000
00000000
00100000
00000000
10000000
00000000
00010000
01000000
,
00000000
00100000
00000000
00010000
00000000
00001000
00000000
00010000
,
00000000
00000100
00000000
00000010
00000000
00000100
00000000
00001000
,
00000000
00000010
00000100
00000000
00000001
00000000
00000100
00000000
,
00001000
00000100
00010000
00100000
,
01000000
10000000
00100000
10000000
,
01000000
00000000
00100000
00000000
01000000
00000000
10000000
00010000
,
00000000
01000000
00100000
01000000
,
00010000
00000000
00010000
00000000
00001000
00000000
00000010
00000100
,
00000000
00001000
00010000
00000100
,
00000000
00000010
00000000
00000100
00000010
00000000
00000001
00000000
,
00000000
00000100
00000000
00000001
00001000
00000000
00000100
00000000
,
00000010
00001000
00010000
00100000
,
10000000
10010000
00000000
10000000
,
00100000
10000000
01000000
00100000
,
00010000
01000000
00000000
00000000
00100000
00000000
10000000
00000000
,
01000000
00100000
00100000
00001000
,
00010000
00000010
00000000
00000000
00000100
00000000
00002001
00000000
,
00000000
00000001
00000000
00003010
00000000
00000000
00000210
00000000
,
00000000
00000301
00000000
00000100
00000000
00000000
00001000
00000000
,
00010000
00100000
01000000
00010000
,
10000000
00010000
00000000
10000000
,
00000000
10010000
00000000
00000000
00100000
00000000
00000000
01000000
,
00000000
00010000
00000000
00100000
00000000
00001000
00000000
00010000
,
00000000
00000100
00000010
00000000
00000110
00000000
00000000
00002002
,
00000000
00003003
00000000
00000001
,
00000100
00001000
00010000
00100000
,
10000000
01000000
00100000
00010000
,
01000000
00100000
00000000
00000000
10010000
00000000
00000000
02200000
,
00000000
03300000
00000000
00020000
,
00000000
00000000
10030000
00100000
,
00010000
00001000
00000100
00000001
,
00000010
00000000
00000100
00000000
00001000
00000000
00000010
00001000
,
00000000
00001000
00000000
00001000
00000100
00000000
00010000
00000000
,
00001000
00100000
01000000
10000000
,
00100000
00000000
00010000
00000000
00001000
00000000
00100000
01000000
,
00000000
01000000
00000000
01000000
00100000
00000000
00001000
00000000
,
00010000
00100000
01000000
00010000
,
00001000
00000000
01000000
00000000
00100000
00000000
00001000
00010000
,
00000000
00010000
00000000
00010000
00001000
00000000
00010000
00000000
,
00000010
00000100
00000001
00000010
,
00001000
00010000
01000000
10000000
,
00010000
00100000
00001000
00000000
,
00000000
00000001
00000000
00000000
00000000
00000000
00001000
00000000
,
00000000
00000000
00000000
00022000
00000000
00000000
00000000
00000000
,
00000000
00000000
00000000
00000000
,
00000000
00000000
00000000
00000000
,
00033000
00000000
00000000
00000000
;

//---------------dance-double - ----------------
#NOTES:
     dance-double:
     :
     Medium:
     14:
     0.731619,0.860439,0.458901,0.110136,0.000000,558.000000,508.000000,50.000000,12.000000,0.000000,0.000000,0.731619,0.860439,0.458901,0.110136,0.000000,558.000000,508.000000,50.000000,12.000000,0.000000,0.000000:
00000000
00000000
00000000
00000000
,
00000000
00000000
00000000
00000000
,
00000000
00000000
00000000
00000000
,
00000000
00000000
00000000
00000000
,
00000000
00000000
00000000
00000000
,
00000000
00000000
00000000
00000000
,
10000000
00000000
00000000
00010000
00000000
01000000
00000000
00010000
,
00000000
00000000
01000000
00000000
00100000
10000000
00010000
01000000
,
00000000
01000000
00000000
00010000
00000000
00001000
00000100
00010000
,
00000100
00001000
00000010
00000100
00000001
00000000
00000000
00000000
,
00000001
00001000
00000100
00000000
00000000
00000000
00001000
00000000
,
00000000
00000000
00001100
00000000
00000000
00000001
00000000
00001000
,
00000000
00010000
00000000
00000000
00100000
00000000
01000000
10000000
,
00100000
01000000
00000000
00010000
00000000
00010000
00000000
00100000
,
01000000
10000000
00100000
01000000
00010000
01000000
00100000
00000000
,
00000000
00000000
00010000
00001000
00000100
00000000
00000000
00000000
,
00000001
00001000
00000001
00001000
00000010
00000100
00000000
00000110
,
00000000
00000001
00000000
00000010
00000100
00000000
00011000
00000000
,
00000000
00000000
01000000
00100000
00000000
01100000
00000000
10000000
,
00000000
01000000
00100000
00000000
00011000
00000000
00000001
00000100
,
00000010
00000100
00001000
00010000
,
01000000
10000000
00100000
00010000
,
00001000
00000100
00000001
00000010
,
00001000
00000000
00010000
00000000
00100000
10000000
01000000
00000000
,
00110000
00000000
11000000
00000000
,
00011000
00000000
00001100
00000000
,
00000011
00000000
00011000
00000000
,
01100000
00000000
00000000
00000000
00010000
10000000
01000000
00000000
,
10000000
00000000
00000000
01100000
00000000
00000000
00010000
00000000
,
00000000
00101000
00000000
00000000
00000100
00000000
00000001
00000010
,
00000000
00000000
00001000
00000000
00010000
00100000
00000000
00000000
,
10000000
00000000
00010000
00100000
00000000
00000000
01000000
00000000
,
10000000
00100000
00000000
00000000
01000000
00000000
00001000
00010000
,
00000000
00000100
00001000
00000000
00000010
00000100
00000000
00000001
,
00000010
00000100
00000000
00001001
00000000
00000110
00000000
00000000
,
00000100
00001000
00010000
00100000
01000000
00010000
00000000
00000000
,
10000000
00010000
00000000
00010000
00000000
10010000
00000000
00000000
,
00100000
00010000
00001000
00000100
00000001
00002000
00000000
00000000
,
00003001
00000000
00000010
00000100
00000000
00001000
00000100
00000000
,
00010000
00001000
00010000
00000000
00001000
00000000
00000000
02100000
,
00000000
00000000
13000000
00000000
00000000
00010000
00000000
00000000
,
01200000
00000000
00000000
00310000
00000000
00000000
10000000
00000000
,
00010000
00000000
01000000
00100000
00000000
01000000
00010000
00000000
,
01000000
00001000
00010000
00000000
00000100
00000000
00000000
00001200
,
00000000
00000000
00000301
00000000
00000000
00002010
00000000
00000000
,
00003001
00000010
00000100
00001000
00000001
00000100
00000010
00001000
,
00000001
00000010
00001000
00010000
,
00000100
00001000
00000100
00010000
,
00100000
01000000
00010000
00100000
,
00001000
00010000
00001000
00010000
00000000
00000000
00000000
00000000
,
00100000
10000000
00010000
00100000
,
00001000
00010000
00000100
00000010
,
00001000
00010000
00100000
00010000
,
00001000
00010000
00001000
00010000
00000000
00000000
00000100
00000000
,
00000010
00000001
00000010
00000001
00000000
00000000
00000010
00000000
,
00000100
00010000
00000100
00010000
00000000
00000000
00001000
00000000
,
00100000
01000000
00100000
01000000
00000000
00000000
10000000
00000000
,
00100000
01000000
00100000
01000000
00000000
01000000
00001000
00000000
,
00010000
00001000
00010000
00000000
00000100
00010000
00000000
00001000
,
00100000
00000000
00000010
00010000
00000000
00001000
00000000
01000000
,
00000000
00100000
10010000
01010000
,
00010000
01000000
00100000
00010000
,
00001000
00010000
00000100
00001000
00000000
00000010
00000100
00000000
,
00000001
00000010
00001000
00010000
,
00000100
00010000
00001000
00010000
00000000
00001000
00100000
00000000
,
00010000
00100000
00010000
00000000
10000000
01000000
00000000
00010000
,
01000000
00000000
10000000
00100000
00000000
00010000
00000000
00100000
,
00000000
00010000
00011000
00001100
,
00000001
00000100
00000010
00001000
00000010
00000000
00001010
00000000
,
00000000
00001100
00000000
00000000
00011000
00000000
00000000
00110000
,
00000000
00000000
01100000
00000000
00000000
10100000
00000000
00000000
,
01010000
00000000
00000000
00100000
00010000
00001000
00000100
00000000
,
00000000
00000000
00000000
00000000
,
00000000
00001000
00000001
00001000
00000001
00000000
00000001
00001000
,
00000000
00001100
00000000
00010000
00000000
00100000
00000000
10000000
,
00000000
00010000
00000000
00001000
00000000
00000100
00000000
00000010
,
00000000
00000001
00001000
00000100
00000010
00000001
00001000
00000000
,
00000010
00000000
00000100
00000000
00000010
00000100
00001000
00000100
,
00000010
00010000
00001000
01000000
,
00000000
00010000
00000000
10000000
00000000
10010000
00000000
00000000
,
00100000
00010000
00000000
00011000
00000000
00001010
00000000
00000110
,
00000000
00000000
00000001
00000010
00000100
00001000
00000001
00000000
,
00000100
00000000
00000010
00000000
00000100
00001000
00010000
00001000
,
00000100
00001000
01000000
00100000
,
10000000
00000000
01000000
00000000
00100000
00000000
00010000
01000000
,
00000000
00100000
00000000
00010000
00001000
00000000
00010000
00000000
,
00000100
00000000
00000010
00000000
00000100
00000000
00001000
00000001
,
00000100
00000010
00001000
00000100
00010000
00001000
00010000
00000000
,
00000000
00001000
00000000
00001000
00010000
00000000
00100000
00000000
,
00000000
01000000
00000000
01000000
00010000
00000000
10000000
00000000
,
01000000
00100000
00010000
00101000
,
00010000
00000100
00000000
00000010
,
00000001
00000010
00000001
00000000
00000010
00000000
00001000
00010000
,
00000000
00010000
00000000
00001000
00010000
00000000
00001000
00000000
,
00100000
00000000
01000000
00000000
10000000
00000000
00100000
01000000
,
00010000
10000000
01000000
00100000
00010000
01000000
00100000
00000000
,
00000000
00010000
00000000
00010000
00000100
00000000
00001000
00000000
,
00000000
00000010
00000000
00000010
00000100
00000000
00000001
00000000
,
00000010
00000000
00000100
00000000
00001000
00000000
00000010
00000100
,
00000010
00001000
00000100
00001000
00000100
00000000
00110000
00000000
,
00000000
00011000
00000000
00000000
00101000
00000000
01000000
00000000
,
10000000
00100000
01000000
00010000
,
01000000
00100000
10000000
00000000
10010000
00000000
00000000
20020000
,
00000000
00000000
30030000
00000000
00000000
00000000
00100000
10000000
,
01000000
00000000
00100000
01000000
00010000
00000000
00001000
00000000
,
00000010
00001000
00010000
00000100
,
00010000
00001000
00100000
00000000
00110000
00000000
00000000
00022000
,
00000000
00033000
00000000
00012000
,
00000000
00010000
00013000
00100000
,
10000000
01000000
00100000
00010000
,
01000000
00000000
00100000
00000000
00010000
00000000
00001000
00010000
,
00000100
00000000
00001000
00000100
00000010
00000000
00000001
00000000
,
00000100
00001000
00010000
01000000
,
10000000
00000000
00100000
00000000
00010000
00000000
00001000
00010000
,
00000100
00000000
00001000
00010000
01000000
00000000
00001000
00000000
,
00100000
00010000
00001000
00000010
,
00000100
00000000
00000001
00000000
00000010
00000000
00000100
00000010
,
00001000
00000000
00000010
00001000
00010000
00000000
00100000
00000000
,
01000000
00010000
00000010
00001000
,
01000000
00010000
00001000
00000010
,
00010000
00100000
01000000
00000000
10010000
00000000
00000000
00000000
,
00000000
00011000
00000000
00000000
00000000
00000000
00001100
00000000
,
00000000
00000000
00000000
00022000
00000000
00000000
00000000
00000000
,
00000000
00000000
00000000
00000000
,
00000000
00000000
00000000
00000000
,
00033000
00000000
00000000
00000000
;

//---------------dance-double - ----------------
#NOTES:
     dance-double:
     :
     Hard:
     17:
     0.966314,1.032527,0.385477,0.348765,0.000000,737.000000,695.000000,42.000000,38.000000,0.000000,0.000000,0.966314,1.032527,0.385477,0.348765,0.000000,737.000000,695.000000,42.000000,38.000000,0.000000,0.000000:
  // measure 0
00000000
00000000
00000000
00000000
,  // measure 1
00000000
00000000
00000000
00000000
,  // measure 2
00000000
00000000
00000000
00000000
,  // measure 3
00000000
00000000
00000000
00000000
,  // measure 4
00000000
00000000
00000000
00000000
,  // measure 5
00000000
00000000
00000000
00000000
,  // measure 6
10000000
00000000
00000000
00010000
00000000
01000000
00000000
00010000
,  // measure 7
00000000
00000000
00002000
00000000
00003001
00000010
00000001
00001000
,  // measure 8
00000000
00001000
00000000
00000010
00000000
00000100
00001000
00010000
,  // measure 9
00100000
10000000
00010000
01000000
00100000
00000000
10000000
01000000
,  // measure 10
00010000
01000000
10000000
00000000
00100000
00010000
00001000
00000000
,  // measure 11
00010000
00000000
00010010
00000000
00000000
00000100
00000000
00000001
,  // measure 12
00000000
00000010
00000000
00000000
00001000
00000000
00000010
00000000
,  // measure 13
00000010
00001000
00000000
00010000
00000000
00100000
00000000
01000000
,  // measure 14
00100000
00010000
00001000
00000100
00000001
00000010
00000100
00000000
,  // measure 15
00001000
01000000
00100000
01000000
10000000
00000000
00100000
01000000
,  // measure 16
00010000
00000000
00001000
00000100
00010100
00000000
00001000
00001010
,  // measure 17
00000000
00000101
00000000
00001000
00010000
00000000
01200000
00000000
,  // measure 18
10300000
00000000
10100000
00000000
01010000
00000000
00100000
00011000
,  // measure 19
00000100
00000010
00000001
00000000
00000100
00000000
00000001
00000010
,  // measure 20
00000100
00000010
00000001
00000100
00000010
00001000
00000100
00000010
,  // measure 21
00000001
00000100
00000010
00001000
00000100
00000010
00001000
00010000
,  // measure 22
00100000
10000000
01000000
00100000
00010000
01000000
00100000
10000000
,  // measure 23
01000000
00010000
00001000
00000010
00000001
00001000
00000010
00000100
,  // measure 24
00000002
00001003
00000120
00010030
,  // measure 25
00001200
00100300
00012000
01003000
,  // measure 26
00120000
00031000
00102000
00003100
,  // measure 27
00001020
00000031
00001002
00001003
,  // measure 28
00000001
00000000
00000001
00000010
00000000
00000010
00001000
00000000
,  // measure 29
00001000
00010000
00000000
00010000
01000000
00000000
01000000
10000000
,  // measure 30
00000000
10000000
00100000
00000000
00010000
00001000
00000000
00010000
,  // measure 31
00000010
00000000
00000010
00001000
00000000
00010000
00100000
00000000
,  // measure 32
10000000
01000000
00000000
00100000
00001000
00000000
00010000
00000100
,  // measure 33
00000000
00000010
00001000
00010000
00100000
10000000
00010000
00000000
,  // measure 34
10000000
00100000
00000000
01020000
00000000
00032000
00000000
00000000
,  // measure 35
00003001
00000100
00000010
00000100
00001000
00010000
00000000
00000000
,  // measure 36
00001000
01000000
00000000
01200000
00000000
10300000
00000000
00000000
,  // measure 37
10000000
01000000
00010000
00001000
00000100
00000002
00001000
00000000
,  // measure 38
00001003
00000100
00000010
00000100
00001000
00010000
00100000
00001000
,  // measure 39
00010000
00001000
00100000
00010000
00100000
01000000
10000000
00100000
,  // measure 40
01000000
00010000
00100000
00001000
00010000
00000100
00001000
00000010
,  // measure 41
00000100
00000001
00000010
00000100
00001000
00000001
00001000
00000000
,  // measure 42
00000010
00000100
00000010
00001000
00000100
00000010
00001000
00010000
,  // measure 43
00001000
01000000
00010000
00000000
00010000
00000000
00000000
10020000
,  // measure 44
00000000
00000000
01030000
00000000
00000000
00001000
00000000
00000000
,  // measure 45
00010000
00001000
00010000
00001000
00000100
00000010
00000100
00000001
,  // measure 46
00001000
00000100
00001000
00010000
00001000
00000010
00001000
00010000
,  // measure 47
00001000
00000100
00000010
00000001
00000010
00000100
00001000
00010000
,  // measure 48
00100000
00010000
00100000
01000000
10000000
00010000
01000000
00100000
,  // measure 49
01000000
00010000
10000000
01000000
00000000
00000000
00000000
00000000
,  // measure 50
00010000
01000000
00010000
00001000
00010000
00100000
00010000
00001000
,  // measure 51
00010000
00100000
01000000
10000000
01000000
00100000
00010000
00001000
,  // measure 52
00000100
00001000
00000100
00000010
00000001
00001000
00000010
00000100
,  // measure 53
00000010
00001000
00000001
00000100
00000000
00000000
00000100
00000000
,  // measure 54
00000010
00000100
00010000
01000000
00000000
00000000
00010000
00000000
,  // measure 55
01000000
00100000
00001000
00000100
00000000
00000000
00000001
00000000
,  // measure 56
00000010
00001000
00010000
01000000
00000000
00000000
00010000
00000000
,  // measure 57
01000000
00010000
00001000
00000010
00000100
00000001
00001000
00000100
,  // measure 58
00000010
00000001
00000001
00000000
00001000
00001000
00000000
00010000
,  // measure 59
00010000
00000000
10000000
10000000
00000000
00100000
00000000
01100000
,  // measure 60
00000000
00021000
01000000
00031000
,  // measure 61
00001000
00000100
00000001
00000010
00001000
00010000
00100000
10000000
,  // measure 62
01000000
00100000
00001000
00010000
00000000
00001000
00010000
00000000
,  // measure 63
00001000
00000100
00000001
00000010
00001000
00010000
00100000
10000000
,  // measure 64
01000000
00010000
00001000
00010000
00000000
00000100
00000010
00000001
,  // measure 65
00001000
00000100
00000100
00000000
00010000
00010000
00000000
01000000
,  // measure 66
01000000
00000000
00100000
00100000
00000000
10000000
00000000
01010000
,  // measure 67
00000000
00012000
00100000
00003100
,  // measure 68
00000001
00000010
00000100
00001000
00010000
01000000
01020000
00000000
,  // measure 69
00000000
00230000
00000000
00000000
00302000
00000000
00000000
00003200
,  // measure 70
00000000
00000000
00000302
00000000
00000000
00000023
00000000
00000000
,  // measure 71
00002030
00000000
00000000
00103000
00010000
00001000
00000100
00000000
,  // measure 72
00000000
00000000
00000000
00000000
,  // measure 73
00000000
00001000
00000100
00000010
00000001
00000000
00000100
00000010
,  // measure 74
00000000
00001001
00000000
00001100
00000000
00010000
00000000
00000000
,  // measure 75
00000100
00000010
00000000
00000110
00000000
00001100
00000000
00001000
,  // measure 76
00000000
00000100
00010000
01000000
10000000
00100000
00010000
00100000
,  // measure 77
10000000
01000000
00010000
00000000
00001000
00000010
00000001
00000100
,  // measure 78
00001000
00000100
00000001
00000010
00000100
00001000
00000100
00000000
,  // measure 79
00010000
00001000
00000000
00101000
00000000
00110000
00000000
00000000
,  // measure 80
01000000
10000000
00000000
10100000
00000000
01010000
00000000
00010000
,  // measure 81
00000000
00001000
00000100
00000010
00000001
00000100
00001000
00010000
,  // measure 82
01000000
10000000
00010000
00000000
00010000
01000000
10000000
00100000
,  // measure 83
00010000
00001000
00000010
00000100
00000002
00000000
00001003
00000010
,  // measure 84
00000100
00000010
00000001
00000010
00001000
00000100
00000010
00001000
,  // measure 85
00010000
00001000
00100000
00010000
00100000
01000000
10000000
00100000
,  // measure 86
01000000
00010000
01000000
00001000
00010000
00000100
00010000
00000010
,  // measure 87
00001000
00000001
00000010
00000100
00010000
00001000
01000000
00000000
,  // measure 88
00000000
00100000
00000000
00100000
10000000
00000000
01000000
00000000
,  // measure 89
00000000
00100000
00000000
00100000
01000000
00000000
00100000
00010000
,  // measure 90
01000000
00000000
00001000
00010000
00000100
00000000
00001000
00000010
,  // measure 91
00000100
00000001
00000010
00000100
00001000
00000000
00010000
00100000
,  // measure 92
01000000
10000000
00010000
10000000
00100000
01000000
00010000
00100000
,  // measure 93
00001000
00010000
00000100
00001000
00000010
00000100
00000001
00000010
,  // measure 94
00000100
00001000
00010000
00100000
01000000
10000000
10000000
01000000
,  // measure 95
00010000
00001000
00000100
00001000
00010000
00000010
00001000
00000000
,  // measure 96
00000000
00000100
00000000
00000100
00000001
00000000
00000100
00000000
,  // measure 97
00000000
00001000
00000000
00001000
00000010
00000000
00010000
00000100
,  // measure 98
00010000
00000000
00010000
00100000
00010000
00000000
00001000
00010000
,  // measure 99
00000100
00001000
00010000
00100000
01000000
00000000
10010000
00000000
,  // measure 100
00000000
01010000
00000000
00000000
11000000
00000000
00000000
00010000
,  // measure 101
00100000
01000000
10000000
00100000
01000000
00010000
01000000
00100000
,  // measure 102
00010000
00001000
00000000
00000000
00010100
00000000
00000000
00002002
,  // measure 103
00000000
00000000
00003003
00000000
00000000
00000000
00000001
00000010
,  // measure 104
00000100
00001000
00000010
00000100
00001000
00010000
00000100
00001000
,  // measure 105
00010000
00100000
01000000
10000000
00100000
01000000
00010000
01000000
,  // measure 106
10000000
01000000
00000000
00000000
01001000
00000000
00000000
00022000
,  // measure 107
00000000
00000000
00033000
00000000
00000000
00000000
00020000
00000100
,  // measure 108
00000000
00000100
00000000
00030100
00010000
00001000
00010000
00000100
,  // measure 109
00001000
00000010
00000100
00000001
00000010
00000100
00001000
00000010
,  // measure 110
00010000
00001000
00100000
01000000
10000000
00100000
01000000
00010000
,  // measure 111
01000000
00100000
10000000
10000000
00010000
01000000
00100000
00010000
,  // measure 112
00001000
00010000
00000100
00001000
00000001
00000010
00000100
00001000
,  // measure 113
00010000
00100000
01000000
10000000
00100000
01000000
00001000
00010000
,  // measure 114
00001000
00010000
00001000
00001000
00010000
00000100
00001000
00000010
,  // measure 115
00000100
00000001
00000010
00000100
00001000
00000010
00000100
00001000
,  // measure 116
00010000
00100000
01000000
00010000
00100000
01000000
10000000
00010000
,  // measure 117
01000000
00100000
01000000
00010000
10000000
01000000
00010000
00001000
,  // measure 118
00000100
00000001
00000010
00001000
00010000
00100000
10000000
01000000
,  // measure 119
00010000
00001000
00000100
00000001
00000010
00000100
00001000
00000001
,  // measure 120
00001000
00000010
00000100
00001000
00022000
00000000
00000000
00033000
,  // measure 121
00000000
20200000
00000000
00000000
30300000
00000000
02020000
00000000
,  // measure 122
00000000
03030000
00000000
00022000
00000000
00000000
00000000
00000000
,  // measure 123
00000000
00000000
00000000
00000000
,  // measure 124
00000000
00000000
00000000
00000000
,  // measure 125
00033000
00000000
00000000
00000000
;
